#TITLE:Girl in the Fire;
#SUBTITLE:;
#ARTIST:Pendulum;
#TITLETRANSLIT:;
#SUBTITLETRANSLIT:;
#ARTISTTRANSLIT:;
#CREDIT:;
#BANNER:girlinthefirebn.png;
#BACKGROUND:girlinthefirebg.png;
#LYRICSPATH:;
#CDTITLE:;
#MUSIC:girlinthefire.ogg;
#OFFSET:1.387;
#SAMPLESTART:132.410;
#SAMPLELENGTH:23.450;
#SELECTABLE:YES;
#BPMS:0.000=174.000;
#STOPS:;
#BGCHANGES:;
// cache tags:
#FIRSTBEAT:4.000;
#LASTBEAT:651.500;
#SONGFILENAME:Songs/Pendulum/Girl In The Fire/girlinthefire.sm;
#HASMUSIC:1;
#HASBANNER:1;
#MUSICLENGTH:226.000;
// end cache tags

//---------------dance-single - I. Pyles----------------
#NOTES:
     dance-single:
     I. Pyles:
     Beginner:
     1:
     0.026,0.036,0.000,0.000,0.000,41.000,0.000,0.000,0.000,0.000:

0000
0000
0000
0000
,
0001
0000
0000
0000
,
0000
0000
0000
0000
,
0000
0000
0000
0000
,
0000
0000
0000
0000
,
0001
0000
0000
0000
,
0000
0000
0000
0000
,
0000
0000
0000
0000
,
0000
0000
0000
0000
,
0001
0000
0000
0000
,
0000
0000
0000
0000
,
0000
0000
0000
0000
,
0000
0000
0000
0000
,
1000
0000
0000
0000
,
0000
0000
0000
0000
,
0000
0000
0000
0000
,
0000
0000
0000
0000
,
0100
0000
0000
0000
,
0000
0000
0000
0000
,
0000
0000
0000
0000
,
0000
0000
0000
0000
,
0010
0000
0000
0000
,
0000
0000
0000
0000
,
0000
0000
0000
0000
,
0000
0000
0000
0000
,
0010
0000
0000
0000
,
0000
0000
0000
0000
,
0000
0000
0000
0000
,
0000
0000
0000
0000
,
0001
0000
0000
0000
,
0000
0000
0000
0000
,
0000
0000
0000
0000
,
0000
0000
0000
0000
,
0100
0000
0000
0000
,
0000
0000
0000
0000
,
0000
0000
0000
0000
,
0000
0000
0000
0000
,
0100
0000
0000
0000
,
0000
0000
0000
0000
,
0000
0000
0000
0000
,
0000
0000
0000
0000
,
0100
0000
0000
0000
,
0000
0000
0000
0000
,
0000
0000
0000
0000
,
0000
0000
0000
0000
,
0100
0000
0000
0000
,
0000
0000
0000
0000
,
0000
0000
0000
0000
,
0000
0000
0000
0000
,
0010
0000
0000
0000
,
0000
0000
0000
0000
,
0000
0000
0000
0000
,
0000
0000
0000
0000
,
1000
0000
0000
0000
,
0000
0000
0000
0000
,
0000
0000
0000
0000
,
0000
0000
0000
0000
,
0001
0000
0000
0000
,
0000
0000
0000
0000
,
0000
0000
0000
0000
,
0000
0000
0000
0000
,
1000
0000
0000
0000
,
0000
0000
0000
0000
,
0000
0000
0000
0000
,
0000
0000
0000
0000
,
0100
0000
0000
0000
,
0000
0000
0000
0000
,
0000
0000
0000
0000
,
0000
0000
0000
0000
,
0001
0000
0000
0000
,
0000
0000
0000
0000
,
0000
0000
0000
0000
,
0000
0000
0000
0000
,
0010
0000
0000
0000
,
0000
0000
0000
0000
,
0000
0000
0000
0000
,
0000
0000
0000
0000
,
0001
0000
0000
0000
,
0000
0000
0000
0000
,
0000
0000
0000
0000
,
0000
0000
0000
0000
,
0100
0000
0000
0000
,
0000
0000
0000
0000
,
0000
0000
0000
0000
,
0000
0000
0000
0000
,
0010
0000
0000
0000
,
0000
0000
0000
0000
,
0000
0000
0000
0000
,
0000
0000
0000
0000
,
1000
0000
0000
0000
,
0000
0000
0000
0000
,
0000
0000
0000
0000
,
0000
0000
0000
0000
,
0010
0000
0000
0000
,
0000
0000
0000
0000
,
0000
0000
0000
0000
,
0000
0000
0000
0000
,
0001
0000
0000
0000
,
0000
0000
0000
0000
,
0000
0000
0000
0000
,
0000
0000
0000
0000
,
0001
0000
0000
0000
,
0000
0000
0000
0000
,
0000
0000
0000
0000
,
0000
0000
0000
0000
,
1000
0000
0000
0000
,
0000
0000
0000
0000
,
0000
0000
0000
0000
,
0000
0000
0000
0000
,
1000
0000
0000
0000
,
0000
0000
0000
0000
,
0000
0000
0000
0000
,
0000
0000
0000
0000
,
0010
0000
0000
0000
,
0000
0000
0000
0000
,
0000
0000
0000
0000
,
0000
0000
0000
0000
,
0001
0000
0000
0000
,
0000
0000
0000
0000
,
0000
0000
0000
0000
,
0000
0000
0000
0000
,
1000
0000
0000
0000
,
0000
0000
0000
0000
,
0000
0000
0000
0000
,
0000
0000
0000
0000
,
0001
0000
0000
0000
,
0000
0000
0000
0000
,
0000
0000
0000
0000
,
0000
0000
0000
0000
,
0001
0000
0000
0000
,
0000
0000
0000
0000
,
0000
0000
0000
0000
,
0000
0000
0000
0000
,
0100
0000
0000
0000
,
0000
0000
0000
0000
,
0000
0000
0000
0000
,
0000
0000
0000
0000
,
0001
0000
0000
0000
,
0000
0000
0000
0000
,
0000
0000
0000
0000
,
0000
0000
0000
0000
,
0010
0000
0000
0000
,
0000
0000
0000
0000
,
0000
0000
0000
0000
,
0000
0000
0000
0000
,
0001
0000
0000
0000
,
0000
0000
0000
0000
,
0000
0000
0000
0000
,
0000
0000
0000
0000
,
0010
0000
0000
0000
,
0000
0000
0000
0000
,
0000
0000
0000
0000
,
0000
0000
0000
0000
,
0100
0000
0000
0000
,
0000
0000
0000
0000
,
0000
0000
0000
0000
,
0000
0000
0000
0000
,
0001
0000
0000
0000
,
0000
0000
0000
0000
,
0000
0000
0000
0000
,
0000
0000
0000
0000
,
0010
0000
0000
0000
;

//---------------dance-single - I. Pyles----------------
#NOTES:
     dance-single:
     I. Pyles:
     Easy:
     9:
     0.779,0.936,0.239,1.000,0.093,897.000,54.000,275.000,0.000,0.000:




0000
0000
0000
0000
,
2000
0000
3020
0000
0130
0001
0010
0200
,
0000
2000
3000
0310
0002
0000
0103
0010
,
2000
0000
0000
3000
1000
0000
0000
0000
0001
0000
0020
0000
0000
0030
0100
0000
,
0000
0040
0000
0032
0003
1000
0001
0100
,
0020
0000
0000
0030
1000
0000
1000
0000
0001
0000
0020
0000
0000
0030
0100
0000
,
0000
0040
0000
0032
1003
0010
0100
0001
,
2000
0000
0000
3000
1000
0000
0000
0000
0001
0000
0020
0000
0000
0030
0100
0000
,
0000
0040
0000
0032
0003
1000
0100
0010
,
0002
0000
0203
0000
0310
1000
0100
0020
,
0000
0002
0003
0130
2000
0000
3010
0100
,
0001
0000
0000
0000
0001
0000
1000
0100
1000
0000
0001
0000
0000
0000
0010
0000
,
0000
0400
0000
2300
3000
0001
0100
0010
,
1000
0000
1000
0010
0100
0001
0000
0010
,
0000
0400
0000
2300
3002
0000
0013
0100
,
1000
0000
0000
0000
1000
0000
0001
0100
0001
0000
1000
0000
0000
0000
0010
0000
,
0000
0400
0000
0302
0003
1000
0010
0100
,
0001
0000
1000
0000
0001
0000
0010
0100
0010
0000
0001
0000
0100
0010
0100
0010
,
0100
0000
0001
0000
1000
0100
1000
0000
0001
0100
0001
0000
1000
0001
1000
0000
,
0002
0000
2003
0000
3020
0230
0000
0310
,
0000
0400
0000
0301
0000
1000
0001
0010
,
0002
0000
4003
0000
3002
0023
0000
0130
,
0000
0040
0000
0031
0020
0230
2300
3002
,
2003
0000
3002
0000
0203
0320
0000
0130
,
0000
0040
0000
1030
0000
0001
1000
0010
,
2000
0000
3200
0000
0310
0001
0100
0020
,
0000
0000
2000
0000
3000
0000
0130
0000
0001
0100
0001
0000
1000
0100
1000
0000
,
0002
0000
2003
0000
3020
0230
0000
0310
,
0000
0400
0000
0000
0000
0000
0000
0300
,
0002
0000
4003
0000
3020
0230
0000
0310
,
0000
0400
0000
0301
0020
0000
0230
0000
,
2300
0000
3002
0000
2003
3200
0000
0310
,
0000
0400
0000
0000
0000
0000
0000
0300
,
2000
0000
3020
0000
0130
0001
0010
0200
,
0000
2000
3000
0310
0002
0000
0103
0010
,
2000
0000
3002
0000
0203
0320
0000
0130
,
0000
0040
0000
1030
0000
0001
1000
0100
,
2000
0000
3004
0000
2003
3200
0000
0310
,
0000
0400
0000
1300
0200
0320
0032
2003
,
3002
0000
2003
0000
3020
0230
0000
0310
,
0000
0400
0000
0301
0000
1000
0001
0100
,
0002
0000
0023
0000
0130
1000
0010
0200
,
0000
0000
0002
0000
0003
0000
0310
0000
1000
0010
1000
0000
0001
0010
0001
0000
,
2000
0000
3002
0000
0203
0320
0000
0130
,
0000
0040
0000
0000
0000
0000
0000
0030
,
2000
0000
3004
0000
0203
0320
0000
0130
,
0000
0040
0000
1030
0200
0000
0320
0000
,
0032
0000
2003
0000
3002
0023
0000
0130
,
0000
0040
0000
0000
0000
0000
0000
0030
,
0002
0000
0003
0000
0020
0000
0100
0000
0130
0000
2000
0000
0000
3000
1000
0000
,
0000
0010
0100
0100
0010
1000
0001
0010
,
0002
0003
0000
0000
0002
0003
0000
0000
1000
0000
0000
0000
0002
0003
0000
0000
0002
0003
0000
0000
1000
0000
0000
0000
0001
0000
0000
0000
0020
0030
0000
0000
,
0001
0000
0000
0000
0020
0030
0000
0000
0001
0000
0000
0000
0020
0030
0000
0000
0100
0000
0000
0000
1000
0000
0000
0000
1001
0000
0000
0000
0000
0000
0000
0000
,
0002
0003
0000
0000
0002
0003
0000
0000
1000
0000
0000
0000
0002
0003
0000
0000
0002
0003
0000
0000
1000
0000
0000
0000
0001
0000
0000
0000
0020
0030
0000
0000
,
0001
0000
0000
0000
0020
0030
0000
0000
0001
0000
0000
0000
0020
0030
0000
0000
0200
0000
0000
0000
2300
0000
0000
0000
3020
0000
0000
0000
0030
0000
0000
0000
,
2000
3000
0000
0000
2000
3000
0000
0000
0001
0000
0000
0000
2000
3000
0000
0000
2000
3000
0000
0000
0001
0000
0000
0000
1000
0000
0000
0000
0200
0300
0000
0000
,
1000
0000
0000
0000
0200
0300
0000
0000
1000
0000
0000
0000
0200
0300
0000
0000
0200
0300
0000
0000
0010
0000
0000
0000
0002
0000
0000
0000
0000
0000
0000
0000
,
2003
0000
3020
0000
0130
0001
0010
0200
,
0000
0000
2000
0000
3000
0000
0310
0000
0001
0010
0001
0000
1000
0100
1000
0000
,
0001
0000
0000
0000
0001
0000
1000
0010
1000
0000
0001
0000
0000
0000
0100
0000
,
0000
0000
0000
0000
0002
0003
0000
0000
1000
0000
0000
0000
0002
0003
0000
0000
0002
0003
0000
0000
1000
0000
0000
0000
1001
0000
0000
0000
0000
0000
0000
0000
,
1000
0000
0000
0000
1000
0000
0001
0100
0001
0000
1000
0000
0000
0000
0010
0000
,
0000
0000
0000
0000
2000
3000
0000
0000
0001
0000
0000
0000
2000
3000
0000
0000
2000
3000
0000
0000
0001
0000
0000
0000
0020
0000
0000
0000
0000
0000
0000
0000
,
0031
0000
0000
0000
0001
0000
1000
0010
1000
0000
0001
0000
0000
0000
0100
0000
,
0000
0000
0000
0000
0002
0003
0000
0000
1000
0000
0000
0000
0002
0003
0000
0000
0002
0003
0000
0000
1000
0000
0000
0000
1001
0000
0000
0000
0000
0000
0000
0000
,
0002
0000
0000
0000
0103
0000
0001
1000
0100
0000
0020
0000
0000
0030
0100
0000
,
0010
0000
0001
0000
1000
0000
0002
0000
0000
0003
0100
0000
0020
0000
0000
0030
,
1000
0001
0010
0100
0000
0010
0011
0000
,
0001
0000
0100
0000
0010
0000
0100
0010
1000
0000
0001
0000
1001
0000
0000
0000
,
0001
1000
0100
0010
0000
0100
1100
0000
,
1000
0000
0010
0000
0100
0000
0010
0100
0001
0000
1000
0000
1001
0000
0000
0000
,
1000
0001
0010
0100
0000
0010
0011
0000
,
0001
0000
0100
0000
0010
0000
0100
0010
1000
0000
0001
0000
1001
0000
0000
0000
,
0001
1000
0100
0010
0000
0100
1100
0000
,
1000
0000
0100
0000
0010
0000
0001
0000
1000
0010
1000
0000
0001
0100
0001
0000
,
1000
0001
0010
0100
0000
0010
0011
0000
,
0001
0000
0100
0000
0010
0000
0100
0010
1000
0000
0001
0000
1001
0000
0000
0000
,
0001
1000
0100
0010
0000
0100
1100
0000
,
1000
0000
0010
0000
0100
0000
0010
0100
0001
0000
1000
0000
1001
0000
0000
0000
,
1000
0001
0010
0100
0000
0010
0011
0000
,
0001
0000
0100
0000
0010
0000
0100
0010
1000
0000
0001
0000
1001
0000
0001
0000
,
0200
0000
0320
0000
0130
0001
0010
0200
,
0000
2000
3000
0310
0002
0000
0103
0010
,
2000
0000
3000
0000
1000
0000
0000
0000
0001
0000
0020
0000
0000
0030
0100
0000
,
0000
0000
0040
0000
0000
0000
0032
0000
0000
0003
0010
0000
0001
0000
0100
0000
,
0020
0000
0000
0030
0010
0000
0100
0000
0010
0000
2000
0000
0000
3000
0001
0000
,
0000
0000
0040
0000
0000
0000
0230
0000
0000
0300
0010
0000
0100
0000
1000
0000
,
0002
0000
0000
0003
0001
0000
0000
0000
1000
0000
0020
0000
0000
0030
0100
0000
,
0000
0000
0040
0000
0000
0000
2030
0000
0000
3000
0010
0000
1000
0000
0001
0000
,
2000
0000
3020
0000
0130
0001
0010
0200
,
0000
2300
0000
3020
0000
0000
0030
0000
,
2000
3000
0000
0000
2000
3000
0000
0000
0001
0000
0000
0000
2000
3000
0000
0000
2000
3000
0000
0000
0001
0000
0000
0000
1000
0000
0000
0000
0200
0300
0000
0000
,
1000
0000
0000
0000
0200
0300
0000
0000
1000
0000
0000
0000
0200
0300
0000
0000
0200
0300
0000
0000
0010
0000
0000
0000
0010
0000
0000
0000
0001
0000
0000
0000
,
2000
3000
0000
0000
2000
3000
0000
0000
0001
0000
0000
0000
2000
3000
0000
0000
2000
3000
0000
0000
0001
0000
0000
0000
1000
0000
0000
0000
0200
0300
0000
0000
,
1000
0000
0000
0000
0200
0300
0000
0000
1000
0000
0000
0000
0200
0300
0000
0000
0200
0300
0000
0000
0010
0000
0000
0000
0010
0000
0000
0000
0001
0000
0000
0000
,
2000
3000
0000
0000
2000
3000
0000
0000
0001
0000
0000
0000
2000
3000
0000
0000
2000
3000
0000
0000
0001
0000
0000
0000
1000
0000
0000
0000
0200
0300
0000
0000
,
1000
0000
0000
0000
0200
0300
0000
0000
1000
0000
0000
0000
0200
0300
0000
0000
0200
0300
0000
0000
0010
0000
0000
0000
0010
0000
0000
0000
0001
0000
0000
0000
,
2000
0000
0000
0000
3020
0000
0000
0000
0130
0000
0001
0000
0010
0001
2000
0000
,
3020
0000
0000
0030
0020
2030
3002
0023
,
0032
0000
0000
0003
,
0000
0200
0320
2030
3002
2003
3020
0000
,
0030
0000
0100
0000
0100
0000
0001
1000
0001
1000
0001
1000
0002
0000
0003
0000
,
0000
0000
0000
0000
0000
0000
0000
0000
0000
0000
0001
0100
0001
0100
0002
0000
,
0000
0203
0000
0310
0010
1000
1000
1000
,
0000
0001
0000
1000
0000
0100
0000
0010
,
0002
0000
0000
0003
0000
0000
0000
0000
,
0000
0001
0010
0100
0010
0001
0100
0010
,
2000
0000
0000
0000
3010
0100
0010
1000
,
0000
0001
0010
0100
0010
0001
1000
0010
,
2000
0000
0000
0000
0000
0000
0000
3000
,
0000
0001
0010
0100
0010
0001
1000
0010
,
2000
0000
3001
0100
0010
0100
0000
0001
,
0000
0001
0010
0100
0100
1000
0001
0100
,
0020
0000
0000
0000
0000
0130
0001
0010
,
0010
0100
1000
0001
0100
0010
1000
0001
,
0000
1000
0100
0010
0000
0100
0010
0001
,
0000
0010
0001
1000
0000
0010
1000
0000
,
0000
0001
0100
0010
0000
0100
0010
1000
,
0000
0010
1000
0001
0000
0010
0001
0000
,
1000
0100
0010
0100
0000
1000
0001
0100
,
0000
0010
0100
0001
0000
0010
0100
0000
,
0000
1000
0100
0010
0001
1000
0100
1000
,
0000
0001
0100
0001
0000
0010
0100
0000
,
1001
0000
1000
0000
0000
0001
0100
0010
,
0000
0010
0000
0010
0000
1000
0010
0000
,
0000
0100
0000
0100
0001
0000
0001
0010
,
0000
0100
0000
0010
0000
0002
0000
0003
,
0000
0000
0100
0010
1000
0001
0000
0010
,
0000
0000
0100
0000
1000
0000
0001
0000
0000
0000
0100
0000
0020
0030
0000
0000
,
2000
0000
3000
0000
0010
0000
0100
0001
0100
0000
0010
0000
1000
0000
0002
0000
,
0000
0000
0000
0000
0003
0000
0000
0000
0020
0000
0000
0000
0200
0030
2300
0000
,
3002
0000
2003
0000
3020
0230
0000
0310
,
0000
0400
0000
0301
0000
1000
0001
0010
,
0002
0000
4003
0000
3002
0023
0000
0130
,
0000
0040
0000
0031
0020
0230
2300
3002
,
2003
0000
3002
0000
0203
0320
0000
0130
,
0000
0040
0000
1030
0000
0001
1000
0010
,
2000
0000
3200
0000
0310
0001
0100
0020
,
0000
0000
2000
0000
3000
0000
0130
0000
0001
0100
0001
0000
1000
0010
1000
0000
,
0002
0000
4003
0000
3020
0230
0000
0310
,
0000
0400
0000
0000
0000
0000
0000
0300
,
0002
0000
4003
0000
3020
0230
0000
0310
,
0000
0400
0000
0301
0020
0000
0230
0000
,
2300
0000
3002
0000
2003
3200
0000
0310
,
0000
0400
0000
0000
0000
0000
0000
0300
,
2000
0000
3020
0000
0130
0001
0010
0200
,
0000
0000
2000
0000
3000
0000
0310
0000
0001
0010
0001
0000
1000
0100
1000
0000
,
0002
0000
2003
0000
3020
0230
0000
0310
,
0000
0400
0000
0301
0000
1000
0001
0010
,
0002
0000
2003
0000
3002
0023
0230
2300
,
3000
0020
0000
0230
0000
0301
2000
3002
,
2003
0000
3002
0000
0203
0320
0000
0130
,
0000
0040
0000
1030
0000
0001
1000
0010
,
2000
0000
3200
0000
0310
0001
0100
0020
,
0000
0000
2000
0000
3000
0000
0130
0000
0001
0100
0001
0000
1000
0010
1000
0000
,
0001
1000
0100
0010
0000
0100
1100
0000
,
1000
0000
0010
0000
0100
0000
0010
0100
0001
0000
1000
0000
1001
0000
0000
0000
,
1000
0001
0010
0100
0000
0010
0011
0000
,
0001
0000
0100
0000
0010
0000
0100
0010
1000
0000
0001
0000
1001
0000
0000
0000
,
0001
1000
0100
0010
0000
0100
1100
0000
,
1000
0000
0010
0000
0100
0000
0010
0100
0001
0000
1000
0000
1001
0000
0001
0000
,
0200
0000
0320
0000
0130
0001
0010
0200
,
0000
0300
0020
0000
0030
0000
2002
0000
0000
0000
0000
0000
3003
0000
0000
0000
;

//---------------dance-single - I. Pyles----------------
#NOTES:
     dance-single:
     I. Pyles:
     Medium:
     11:
     0.868,0.937,0.221,1.000,0.308,1048.000,50.000,274.000,12.000,0.000:



0000
0000
0000
0000
,
2000
0000
3020
0000
0130
0001
0010
0200
,
0000
2000
3000
0310
0002
0000
0103
0010
,
2000
0000
0000
3000
1000
0000
0000
0000
0001
0000
0020
0000
0000
0030
M01M
0000
,
0000
0400
0000
0302
0003
1000
0001
0100
,
0020
0000
0000
0030
1000
0000
1000
0000
0001
0000
0020
0000
0000
0030
M01M
0000
,
0000
0400
0000
0302
1003
0010
0100
0001
,
2000
0000
0000
3000
1000
0000
0000
0000
0001
0000
0020
0000
0000
0030
M01M
0000
,
0000
0400
0000
0302
0003
1000
0100
0010
,
0002
0000
0203
0000
0310
1000
0100
0020
,
0000
0002
0003
0130
2000
0000
3010
0100
,
0001
0000
000M
0000
0001
0000
1000
0100
1000
0000
0001
0000
0000
0000
0010
0000
,
0000
0400
0000
2300
3000
0001
0100
0010
,
1000
M000
1000
0010
0100
0001
0000
0010
,
0000
0400
0000
2300
3002
0000
0013
0100
,
1000
0000
M000
0000
1000
0000
0001
0100
0001
0000
1000
0000
0000
0000
0010
0000
,
0000
0400
0000
0302
0003
1000
0010
0100
,
0001
0000
1000
0000
0001
0000
0010
0100
0010
0000
0001
0000
0100
0010
0100
0010
,
1000
0000
0001
0010
0100
0010
0100
0010
0001
1000
0100
1000
0010
0100
0001
1000
,
0002
0000
2003
0000
3020
0230
0000
0310
,
0000
0400
0000
0301
0000
1000
0001
0010
,
0002
0000
4003
0000
3002
0023
0000
0130
,
0000
0040
0000
0031
0020
0230
2300
3002
,
2003
0000
3002
0000
0203
0320
0000
0130
,
0000
0040
0000
1030
0000
0001
1000
0010
,
2000
0000
3200
0000
0310
0001
0100
0020
,
0000
0000
2000
0000
3000
0000
0130
0000
0001
1000
0100
1000
0010
0100
0001
1000
,
0002
0000
2003
0000
3020
0230
0000
0310
,
0000
0000
0400
0000
0000
0000
0301
1000
0001
1000
0001
1000
0001
1000
0001
1000
,
0002
0000
4003
0000
3020
0230
0000
0310
,
0000
0400
0000
0301
0020
0000
0230
0000
,
2300
0000
3002
0000
2003
3200
0000
0310
,
0000
0000
0400
0000
0000
0000
1300
0001
1000
0001
1000
0001
1000
0001
1000
0001
,
2000
0000
3020
0000
0130
0001
0010
0200
,
0000
2000
3000
0310
0002
0000
0103
0010
,
2000
0000
3002
0000
0203
0320
0000
0130
,
0000
0040
0000
1030
0000
0001
1000
0100
,
2000
0000
3004
0000
2003
3200
0000
0310
,
0000
0400
0000
1300
0200
0320
0032
2003
,
3002
0000
2003
0000
3020
0230
0000
0310
,
0000
0400
0000
0301
0000
1000
0001
0100
,
0002
0000
0023
0000
0130
1000
0010
0200
,
0000
0000
0002
0000
0003
0000
0310
0000
1000
0001
0010
0001
0100
0010
1000
0001
,
2000
0000
3002
0000
0203
0320
0000
0130
,
0000
0000
0040
0000
0000
0000
1030
0001
1000
0001
1000
0001
1000
0001
1000
0001
,
2000
0000
3004
0000
0203
0320
0000
0130
,
0000
0040
0000
1030
0200
0000
0320
0000
,
0032
0000
2003
0000
3002
0023
0000
0130
,
0000
0000
0040
0000
0000
0000
0031
1000
0001
1000
0001
1000
0001
1000
0001
1000
,
0002
0000
0003
0000
0020
0000
0100
0000
0031
0000
2000
0000
0000
3000
1000
0000
,
0000
0010
0100
0100
0010
1000
0001
0010
,
0002
0003
0000
0000
0002
0003
0000
0000
1000
0000
0000
0000
0002
0003
0000
0000
0002
0003
0000
0000
1000
0000
0000
0000
0001
0000
0000
0000
0020
0030
0000
0000
,
0001
0000
0000
0000
0020
0030
0000
0000
0001
0000
0000
0000
0020
0030
0000
0000
0100
0000
0000
0000
1000
0000
0000
0000
1001
0000
0000
0000
0000
0000
0000
0000
,
0002
0003
0000
0000
0002
0003
0000
0000
1000
0000
0000
0000
0002
0003
0000
0000
0002
0003
0000
0000
1000
0000
0000
0000
0001
0000
0000
0000
0020
0030
0000
0000
,
0001
0000
0000
0000
0020
0030
0000
0000
0001
0000
0000
0000
0020
0030
0000
0000
0200
0000
0000
0000
2300
0000
0000
0000
3020
0000
0000
0000
0030
0000
0000
0000
,
2000
3000
0000
0000
2000
3000
0000
0000
0001
0000
0000
0000
2000
3000
0000
0000
2000
3000
0000
0000
0001
0000
0000
0000
1000
0000
0000
0000
0200
0300
0000
0000
,
1000
0000
0000
0000
0200
0300
0000
0000
1000
0000
0000
0000
0200
0300
0000
0000
0200
0300
0000
0000
0010
0000
0000
0000
0002
0000
0000
0000
0000
0000
0000
0000
,
2003
0000
3020
0000
0130
0001
0010
0200
,
0000
0000
2000
0000
3000
0000
0310
0000
0001
1000
0100
1000
0010
0100
0001
1000
,
0001
0000
000M
0000
0001
0000
1000
0010
1000
0000
0001
0000
0000
0000
0100
0000
,
0000
0000
0000
0000
0002
0003
0000
0000
1000
0000
0000
0000
0002
0003
0000
0000
0002
0003
0000
0000
1000
0000
0000
0000
1001
0000
0000
0000
0000
0000
0000
0000
,
1000
0000
M000
0000
1000
0000
0001
0100
0001
0000
1000
0000
0000
0000
0010
0000
,
0000
0000
0000
0000
2000
3000
0000
0000
0001
0000
0000
0000
2000
3000
0000
0000
2000
3000
0000
0000
0001
0000
0000
0000
0020
0000
0000
0000
0000
0000
0000
0000
,
0031
0000
000M
0000
0001
0000
1000
0010
1000
0000
0001
0000
0000
0000
0100
0000
,
0000
0000
0000
0000
0002
0003
0000
0000
1000
0000
0000
0000
0002
0003
0000
0000
0002
0003
0000
0000
1000
0000
0000
0000
1001
0000
0000
0000
0000
0000
0000
0000
,
0002
0000
0000
0000
0103
0000
0001
1000
0100
0000
0020
0000
0000
0030
0100
0000
,
0010
0000
0001
0000
1000
0000
0002
0000
0000
0003
0100
0000
0020
0000
0000
0030
,
1000
0000
0001
0000
0010
0000
0100
1000
0100
1000
0001
0000
0010
0000
0100
1000
,
0001
0000
1000
0000
0010
0000
0100
0001
0100
0001
1000
0000
1001
0000
0000
0000
,
0001
0000
1000
0000
0100
0000
0010
0001
0010
0001
1000
0000
0100
0000
0010
0001
,
1000
0000
0001
0000
0100
0000
0010
1000
0010
1000
0001
0000
1001
0000
0000
0000
,
0001
0000
1000
0000
0010
0000
0100
0001
0100
0001
1000
0000
0010
0000
0100
0001
,
1000
0000
0001
0000
0010
0000
0100
1000
0100
1000
0001
0000
1001
0000
0000
0000
,
1000
0000
0001
0000
0010
0000
0100
1000
0100
1000
0001
0000
0010
0000
0100
1000
,
0001
0000
1000
0000
0010
0000
0100
0001
1000
0001
0010
0001
0100
0010
1000
0001
,
1000
0000
0001
0000
0010
0000
0100
1000
0100
1000
0001
0000
0010
0000
0100
1000
,
0001
0000
1000
0000
0010
0000
0100
0001
0100
0001
1000
0000
1001
0000
0000
0000
,
0001
0000
1000
0000
0100
0000
0010
0001
0010
0001
1000
0000
0100
0000
0010
0001
,
1000
0000
0001
0000
0100
0000
0010
1000
0010
1000
0001
0000
1001
0000
0000
0000
,
0001
0000
1000
0000
0010
0000
0100
0001
0100
0001
1000
0000
0010
0000
0100
0001
,
1000
0000
0001
0000
0010
0000
0100
1000
0100
1000
0001
0000
1001
0000
0001
0000
,
0200
0000
0320
0000
0130
0001
0010
0200
,
0000
2000
3000
0310
0002
0000
0103
0010
,
2000
0000
3000
0000
1000
0000
0000
0000
0001
0000
0020
0000
0000
0030
0100
0000
,
0000
0000
0040
0000
0000
0000
0032
0000
0000
0003
0010
0000
0001
0000
0100
0000
,
0020
0000
0000
0030
0010
0000
0100
0000
0010
0000
2000
0000
0000
3000
0001
0000
,
0000
0000
0040
0000
0000
0000
0230
0000
0000
0300
0010
0000
0100
0000
1000
0000
,
0002
0000
0000
0003
0001
0000
0000
0000
1000
0000
0020
0000
0000
0030
0100
0000
,
0000
0000
0040
0000
0000
0000
2030
0000
0000
3000
0010
0000
1000
0000
0001
0000
,
2000
0000
3020
0000
0130
0001
0010
0200
,
0000
2300
0000
3020
0000
0000
0030
0000
,
2000
3000
0000
0000
2000
3000
0000
0000
0001
0000
0000
0000
2000
3000
0000
0000
2000
3000
0000
0000
0001
0000
0000
0000
1000
0000
0000
0000
0200
0300
0000
0000
,
1000
0000
0000
0000
0200
0300
0000
0000
1000
0000
0000
0000
0200
0300
0000
0000
0200
0300
0000
0000
0010
0000
0000
0000
0010
0000
0000
0000
0001
0000
0000
0000
,
2000
3000
0000
0000
2000
3000
0000
0000
0001
0000
0000
0000
2000
3000
0000
0000
2000
3000
0000
0000
0001
0000
0000
0000
1000
0000
0000
0000
0200
0300
0000
0000
,
1000
0000
0000
0000
0200
0300
0000
0000
1000
0000
0000
0000
0200
0300
0000
0000
0200
0300
0000
0000
0010
0000
0000
0000
0010
0000
0000
0000
0001
0000
0000
0000
,
2000
3000
0000
0000
2000
3000
0000
0000
0001
0000
0000
0000
2000
3000
0000
0000
2000
3000
0000
0000
0001
0000
0000
0000
1000
0000
0000
0000
0200
0300
0000
0000
,
1000
0000
0000
0000
0200
0300
0000
0000
1000
0000
0000
0000
0200
0300
0000
0000
0200
0300
0000
0000
0010
0000
0000
0000
0010
0000
0000
0000
0001
0000
0000
0000
,
2000
0000
0000
0000
3020
0000
0000
0000
0130
0000
0001
0000
0010
0001
2000
0000
,
3020
0000
0000
0030
0020
2030
3002
0023
,
0032
0000
0000
0003
,
0000
0200
0320
2030
3002
2003
3020
0000
,
0030
0000
0100
0000
0100
0000
0001
0100
0001
0010
0100
1000
0001
0000
0000
0000
,
0000
0000
0001
0000
0010
0000
0100
1000
0100
1000
0001
0100
0010
1000
0002
0000
,
0000
0203
0000
0310
0010
1000
1000
1000
,
0000
0001
0000
1000
0000
0100
0000
0010
,
0002
0000
0000
0003
0000
0000
0000
0000
,
0000
0001
0010
0100
0010
0001
0100
0010
,
2000
0000
0000
0000
3010
0100
0010
1000
,
0000
0001
0010
0100
0010
0001
1000
0010
,
2000
0000
0000
0000
0000
0000
0000
3000
,
0000
0001
0010
0100
0010
0001
1000
0010
,
2000
0000
3001
0100
0010
0100
0000
0001
,
0000
0001
0010
0100
0100
1000
0001
0100
,
0020
0000
0000
0000
0000
0130
0001
0010
,
0100
1000
0001
0100
0010
1000
0001
0100
0010
1000
0001
0010
0100
1000
0001
0000
,
0000
1000
0100
0010
0000
0100
0010
0001
,
0000
0010
0001
1000
0000
0010
1000
0000
,
0000
0001
0100
0010
0000
0100
0010
1000
,
0000
0010
1000
0001
0000
0010
0001
0000
,
1000
0100
0010
0100
0000
1000
0001
0100
,
0000
0010
0100
0001
0000
0010
0100
0000
,
0000
1000
0100
0010
0001
1000
0100
1000
,
0000
0001
0100
0001
0000
0010
0100
0000
,
1001
0000
1000
0000
0000
0001
0100
0010
,
0000
0010
0000
0010
0000
1000
0010
0000
,
0000
0100
0000
0100
0001
0000
0001
0010
,
0000
0100
0000
0010
0000
0002
0000
0003
,
0000
0000
0100
0010
1000
0001
0000
0010
,
0000
0000
0100
0000
1000
0000
0001
0000
0000
0000
0100
0000
0020
0030
0000
0000
,
2000
0000
3000
0000
0010
0000
0100
0001
0100
0000
0010
0000
1000
0000
0002
0000
,
0000
0000
0000
0000
0003
0000
0000
0000
0020
0000
0000
0000
0200
0030
2300
0000
,
3002
0000
2003
0000
3020
0230
0000
0310
,
0000
0400
0000
0301
0000
1000
0001
0010
,
0002
0000
4003
0000
3002
0023
0000
0130
,
0000
0040
0000
0031
0020
0230
2300
3002
,
2003
0000
3002
0000
0203
0320
0000
0130
,
0000
0040
0000
1030
0000
0001
1000
0010
,
2000
0000
3200
0000
0310
0001
0100
0020
,
0000
0000
2000
0000
3000
0000
0130
0000
0001
1000
0100
1000
0010
0100
0001
1000
,
0002
0000
4003
0000
3020
0230
0000
0310
,
0000
0000
0400
0000
0000
0000
0301
1000
0001
1000
0001
1000
0001
1000
0001
1000
,
0002
0000
4003
0000
3020
0230
0000
0310
,
0000
0400
0000
0301
0020
0000
0230
0000
,
2300
0000
3002
0000
2003
3200
0000
0310
,
0000
0000
0400
0000
0000
0000
1300
0001
1000
0001
1000
0001
1000
0001
1000
0001
,
2000
0000
3020
0000
0130
0001
0010
0200
,
0000
0000
2000
0000
3000
0000
0310
0000
0001
1000
0010
1000
0100
0010
0001
1000
,
0002
0000
2003
0000
3020
0230
0000
0310
,
0000
0400
0000
0301
0000
1000
0001
0010
,
0002
0000
2003
0000
3002
0023
0230
2300
,
3000
0020
0000
0230
0000
0301
2000
3002
,
2003
0000
3002
0000
0203
0320
0000
0130
,
0000
0040
0000
1030
0000
0001
1000
0010
,
2000
0000
3200
0000
0310
0001
0100
0020
,
0000
0000
2000
0000
3000
0000
0130
0000
0001
1000
0010
1000
0100
0010
0001
1000
,
0001
0000
1000
0000
0100
0000
0010
0001
0010
0001
1000
0000
0100
0000
0010
0001
,
1000
0000
0001
0000
0100
0000
0010
1000
0010
1000
0001
0000
1001
0000
0000
0000
,
1000
0000
0001
0000
0010
0000
0100
1000
0100
1000
0001
0000
0010
0000
0100
1000
,
0001
0000
1000
0000
0010
0000
0100
0001
0100
0001
1000
0000
1001
0000
0000
0000
,
1000
0000
0001
0000
0100
0000
0010
1000
0010
1000
0001
0000
0100
0000
0010
1000
,
0001
0000
1000
0000
0100
0000
0010
0001
0010
0001
1000
0000
1001
0000
0001
0000
,
0200
0000
0320
0000
0130
0001
0010
0200
,
0000
0300
2000
0000
3000
0000
2042
0000
0000
0000
0000
0000
3003
0000
0030
0000
;

//---------------dance-single - I. Pyles----------------
#NOTES:
     dance-single:
     I. Pyles:
     Hard:
     13:
     1.000,1.000,0.217,1.000,0.803,1355.000,49.000,259.000,12.000,0.000:






0000
0000
0000
0000
,
2000
0000
3020
0000
0130
0001
0010
0200
,
0000
2000
3000
0310
0002
0000
0103
0010
,
2000
0000
0000
3000
1000
0000
0000
0000
0001
0000
0020
0000
0000
0030
M01M
0000
,
0000
0400
0000
0302
0003
1000
0001
0100
,
0020
0000
0000
0030
1000
0000
1000
0000
0001
0000
0020
0000
0000
0030
M01M
0000
,
0000
0400
0000
0302
1003
0010
0100
0001
,
2000
0000
0000
3000
1000
0000
0000
0000
0001
0000
0020
0000
0000
0030
M01M
0000
,
0000
0400
0000
0302
0003
1000
0100
0010
,
0002
0000
0203
0000
0310
1000
0100
0020
,
0000
0002
0003
0130
2000
0000
3010
0100
,
0001
0000
000M
0000
0001
0000
1000
0100
1000
0000
0001
0000
0000
0000
0010
0000
,
0000
0400
0000
2300
3000
0001
0100
0010
,
1000
M000
1000
0010
0100
0001
0000
0010
,
0000
0400
0000
2300
3002
0000
0013
0100
,
1000
0000
M000
0000
1000
0000
0001
0100
0001
0000
1000
0000
0000
0000
0010
0000
,
0000
0400
0000
0302
0003
1000
0010
0100
,
0001
0000
1000
0000
0001
0000
0010
0100
0010
0000
0001
0000
0100
0010
0100
0010
,
1000
0000
0001
0010
0100
0010
0100
0010
0001
1000
0100
1000
0010
0100
0001
1000
,
0002
0000
2003
0000
3020
0230
0000
0310
,
0000
0400
0000
0301
0000
1000
0001
0010
,
0002
0000
4003
0000
3002
0023
0000
0130
,
0000
0040
0000
0031
0020
0230
2300
3002
,
2003
0000
3002
0000
0203
0320
0000
0130
,
0000
0040
0000
1030
0000
0001
1000
0010
,
2000
0000
3200
0000
0310
0001
0100
0020
,
0000
0000
2000
0000
3000
0000
0130
0000
0001
1000
0100
1000
0010
0100
0001
1000
,
0002
0000
2003
0000
3020
0230
0000
0310
,
0000
0000
0400
0000
0000
0000
0301
1000
0001
1000
0001
1000
0001
1000
0001
1000
,
0002
0000
4003
0000
3020
0230
0000
0310
,
0000
0400
0000
0301
0020
0000
0230
0000
,
2300
0000
3002
0000
2003
3200
0000
0310
,
0000
0000
0400
0000
0000
0000
1300
0001
1000
0001
1000
0001
1000
0001
1000
0001
,
2000
0000
3020
0000
0130
0001
0010
0200
,
0000
2000
3000
0310
0002
0000
0103
0010
,
2000
0000
3002
0000
0203
0320
0000
0130
,
0000
0040
0000
1030
0000
0001
1000
0100
,
2000
0000
3004
0000
2003
3200
0000
0310
,
0000
0400
0000
1300
0200
0320
0032
2003
,
3002
0000
2003
0000
3020
0230
0000
0310
,
0000
0400
0000
0301
0000
1000
0001
0100
,
0002
0000
0023
0000
0130
1000
0010
0200
,
0000
0000
0002
0000
0003
0000
0310
0000
1000
0001
0010
0001
0100
0010
1000
0001
,
2000
0000
3002
0000
0203
0320
0000
0130
,
0000
0000
0040
0000
0000
0000
1030
0001
1000
0001
1000
0001
1000
0001
1000
0001
,
2000
0000
3004
0000
0203
0320
0000
0130
,
0000
0040
0000
1030
0200
0000
0320
0000
,
0032
0000
2003
0000
3002
0023
0000
0130
,
0000
0000
0040
0000
0000
0000
0031
1000
0001
1000
0001
1000
0001
1000
0001
1000
,
0002
0000
0003
0000
0020
0000
0100
0000
0031
0000
2000
0000
0000
3000
1000
0000
,
0000
0010
0100
0100
0010
1000
0001
0010
,
0002
0003
0000
0000
0002
0003
0000
0000
1000
0000
0000
0000
0002
0003
0000
0000
0002
0003
0000
0000
1000
0000
0000
0000
0001
0000
0000
0000
0020
0030
0000
0000
,
0001
0000
0000
0000
0020
0030
0000
0000
0001
0000
0000
0000
0020
0030
0000
0000
0100
0000
0000
0000
1000
0000
0000
0000
1001
0000
0000
0000
0000
0000
0000
0000
,
0002
0003
0000
0000
0002
0003
0000
0000
1000
0000
0000
0000
0002
0003
0000
0000
0002
0003
0000
0000
1000
0000
0000
0000
0001
0000
0000
0000
0020
0030
0000
0000
,
0001
0000
0000
0000
0020
0030
0000
0000
0001
0000
0000
0000
0020
0030
0000
0000
0200
0000
0000
0000
2300
0000
0000
0000
3020
0000
0000
0000
0030
0000
0000
0000
,
2000
3000
0000
0000
2000
3000
0000
0000
0001
0000
0000
0000
2000
3000
0000
0000
2000
3000
0000
0000
0001
0000
0000
0000
1000
0000
0000
0000
0200
0300
0000
0000
,
1000
0000
0000
0000
0200
0300
0000
0000
1000
0000
0000
0000
0200
0300
0000
0000
0200
0300
0000
0000
0010
0000
0000
0000
0002
0000
0000
0000
0000
0000
0000
0000
,
2003
0000
3020
0000
0130
0001
0010
0200
,
0000
0000
2000
0000
3000
0000
0310
0000
0001
1000
0100
1000
0010
0100
0001
1000
,
0001
0000
000M
0000
0001
0000
1000
0010
1000
0000
0001
0000
0000
0000
0100
0000
,
0000
0000
0000
0000
0002
0003
0000
0000
1000
0000
0000
0000
0002
0003
0000
0000
0002
0003
0000
0000
1000
0000
0000
0000
1001
0000
0000
0000
0000
0000
0000
0000
,
1000
0000
M000
0000
1000
0000
0001
0100
0001
0000
1000
0000
0000
0000
0010
0000
,
0000
0000
0000
0000
2000
3000
0000
0000
0001
0000
0000
0000
2000
3000
0000
0000
2000
3000
0000
0000
0001
0000
0000
0000
0020
0000
0000
0000
0000
0000
0000
0000
,
0031
0000
000M
0000
0001
0000
1000
0010
1000
0000
0001
0000
0000
0000
0100
0000
,
0000
0000
0000
0000
0002
0003
0000
0000
1000
0000
0000
0000
0002
0003
0000
0000
0002
0003
0000
0000
1000
0000
0000
0000
1001
0000
0000
0000
0000
0000
0000
0000
,
0002
0000
0000
0000
0103
0000
0001
1000
0100
0000
0020
0000
0000
0030
0100
0000
,
0010
0000
0001
0000
1000
0000
0002
0000
0000
0003
0100
0000
0020
0000
0000
0030
,
1000
0000
0001
0000
0010
0000
0100
1000
0100
1000
0001
0000
0010
0000
0100
1000
,
0001
0000
1000
0000
0010
0000
0100
0001
0100
0001
1000
0000
1001
0000
0000
0000
,
0001
0000
1000
0000
0100
0000
0010
0001
0010
0001
1000
0000
0100
0000
0010
0001
,
1000
0000
0001
0000
0100
0000
0010
1000
0010
1000
0001
0000
1001
0000
0000
0000
,
0001
0000
1000
0000
0010
0000
0100
0001
0100
0001
1000
0000
0010
0000
0100
0001
,
1000
0000
0001
0000
0010
0000
0100
1000
0100
1000
0001
0000
1001
0000
0000
0000
,
1000
0000
0001
0000
0010
0000
0100
1000
0100
1000
0001
0000
0010
0000
0100
1000
,
0001
0000
1000
0000
0010
0000
0100
0001
1000
0001
0010
0001
0100
0010
1000
0001
,
1000
0000
0001
0000
0010
0000
0100
1000
0100
1000
0001
0000
0010
0000
0100
1000
,
0001
0000
1000
0000
0010
0000
0100
0001
0100
0001
1000
0000
1001
0000
0000
0000
,
0001
0000
1000
0000
0100
0000
0010
0001
0010
0001
1000
0000
0100
0000
0010
0001
,
1000
0000
0001
0000
0100
0000
0010
1000
0010
1000
0001
0000
1001
0000
0000
0000
,
0001
0000
1000
0000
0010
0000
0100
0001
0100
0001
1000
0000
0010
0000
0100
0001
,
1000
0000
0001
0000
0010
0000
0100
1000
0100
1000
0001
0000
1001
0000
0001
0000
,
0200
0000
0320
0000
0130
0001
0010
0200
,
0000
2000
3000
0310
0002
0000
0103
0010
,
2000
0000
3000
0000
1000
0000
0000
0000
0001
0000
0020
0000
0000
0030
0100
0000
,
0000
0000
0040
0000
0000
0000
0032
0000
0000
0003
0010
0000
0001
0000
0100
0000
,
0020
0000
0000
0030
0010
0000
0100
0000
0010
0000
2000
0000
0000
3000
0001
0000
,
0000
0000
0040
0000
0000
0000
0230
0000
0000
0300
0010
0000
0100
0000
1000
0000
,
0002
0000
0000
0003
0001
0000
0000
0000
1000
0000
0020
0000
0000
0030
0100
0000
,
0000
0000
0040
0000
0000
0000
2030
0000
0000
3000
0010
0000
1000
0000
0001
0000
,
2000
0000
3020
0000
0130
0001
0010
0200
,
0000
2300
0000
3020
0000
0000
0030
0000
,
2000
3000
0000
0000
2000
3000
0000
0000
0001
0000
0000
0000
2000
3000
0000
0000
2000
3000
0000
0000
0001
0000
0000
0000
1000
0000
0000
0000
0200
0300
0000
0000
,
1000
0000
0000
0000
0200
0300
0000
0000
1000
0000
0000
0000
0200
0300
0000
0000
0200
0300
0000
0000
0010
0000
0000
0000
0010
0000
0000
0000
0001
0000
0000
0000
,
2000
3000
0000
0000
2000
3000
0000
0000
0001
0000
0000
0000
2000
3000
0000
0000
2000
3000
0000
0000
0001
0000
0000
0000
1000
0000
0000
0000
0200
0300
0000
0000
,
1000
0000
0000
0000
0200
0300
0000
0000
1000
0000
0000
0000
0200
0300
0000
0000
0200
0300
0000
0000
0010
0000
0000
0000
0010
0000
0000
0000
0001
0000
0000
0000
,
2000
3000
0000
0000
2000
3000
0000
0000
0001
0000
0000
0000
2000
3000
0000
0000
2000
3000
0000
0000
0001
0000
0000
0000
1000
0000
0000
0000
0200
0300
0000
0000
,
1000
0000
0000
0000
0200
0300
0000
0000
1000
0000
0000
0000
0200
0300
0000
0000
0200
0300
0000
0000
0010
0000
0000
0000
0010
0000
0000
0000
0001
0000
0000
0000
,
2000
0000
0000
0000
3020
0000
0000
0000
0130
0000
0001
0000
0010
0001
2000
0000
,
3020
0000
0000
0030
0020
2030
3002
0023
,
0130
1000
0001
0010
0100
1000
0001
0010
0100
1000
0001
0010
0001
1000
0100
0010
,
0001
0100
0010
0100
0001
0100
0010
1000
0001
1000
0010
1000
0001
1000
0001
1000
,
0001
0010
0100
0010
0001
1000
0100
0010
0100
0010
0100
1000
0010
0100
0001
0100
,
0001
1000
0010
0100
0001
1000
0100
0010
0100
0010
0001
1000
0100
0010
0001
0010
,
0100
0010
0001
1000
0100
1000
0001
0100
0001
1000
0100
0010
0100
1000
0100
0010
,
0100
1000
0001
1000
0100
1000
0001
1000
0100
1000
0010
0100
0001
0100
0010
1000
,
0001
1000
0100
1000
0001
0010
0100
0010
0001
1000
0010
1000
0100
1000
0001
0010
,
0100
0010
0001
1000
0001
0010
0001
1000
0010
1000
0001
1000
0010
0100
0010
1000
,
0001
0010
0100
1000
0001
0010
0100
1000
0001
0100
0010
0100
0001
1000
0001
0010
,
0100
1000
0001
1000
0100
0010
0001
1000
0001
0010
0100
1000
0001
0100
0010
1000
,
0001
1000
0010
0100
0001
1000
0010
0100
0001
1000
0010
0100
0001
1000
0010
0100
,
0001
1000
0001
1000
0100
0010
0001
1000
0001
0010
0100
1000
0001
0100
0010
1000
,
0001
1000
0010
0100
0010
1000
0001
0010
0100
0010
0001
1000
0100
0010
0001
1000
,
0100
0010
0100
1000
0001
0100
0010
0100
0001
1000
0010
1000
0001
0010
0001
1000
,
0100
0010
0001
1000
0100
0010
0001
1000
0100
0010
0001
1000
0100
1000
0010
1000
,
0001
0100
0010
1000
0001
0010
0100
1000
0001
0100
0010
1000
0001
0010
0100
1000
,
0001
1000
0001
0100
0010
0100
0001
0010
0001
0010
0100
1000
0100
0010
0001
0100
,
0001
0100
0010
1000
0001
1000
0100
0010
0100
0010
0001
1000
0010
0100
0010
0100
,
0001
1000
0001
0010
0100
0010
0001
0100
0001
0100
0010
1000
0010
0100
0001
0010
,
0001
0010
0100
1000
0001
1000
0010
0100
0010
0100
0001
1000
0100
0010
0100
0010
,
0001
1000
0010
0100
0001
0100
0010
1000
0010
1000
0001
0010
0100
0010
0001
1000
,
0001
1000
0010
0100
0010
1000
0001
0100
0001
0100
0010
1000
0001
0010
0001
0010
,
0100
1000
0001
0100
0010
1000
0001
1000
0100
0010
0001
1000
0100
1000
0001
1000
,
0010
0100
0001
1000
0010
1000
0001
0100
0001
0100
0010
1000
0001
0010
0001
0010
,
0100
1000
0001
0010
0100
1000
0100
1000
0001
0100
0010
1000
0001
1000
0010
1000
,
0001
1000
0010
1000
0001
1000
0010
0100
0010
0100
0001
0010
0100
1000
0100
1000
,
0001
0100
0010
0100
0001
0100
0010
1000
0010
0100
0010
1000
0100
0010
0100
1000
,
0100
0010
0001
0100
0010
0100
0001
1000
0001
0100
0010
1000
0010
1000
0010
1000
,
0001
0100
0001
1000
0010
0100
0001
1000
0100
0010
0001
0010
0001
1000
0100
0010
,
0100
0010
0001
1000
0001
0100
0010
1000
0010
1000
0001
0010
0200
0300
0000
0000
,
2000
0000
3000
0000
0010
0000
0100
0001
0100
0000
0010
0000
1000
0000
0002
0000
,
0000
0000
0000
0000
0003
0000
0000
0000
0020
0000
0000
0000
0200
0030
2300
0000
,
3002
0000
2003
0000
3020
0230
0000
0310
,
0000
0400
0000
0301
0000
1000
0001
0010
,
0002
0000
4003
0000
3002
0023
0000
0130
,
0000
0040
0000
0031
0020
0230
2300
3002
,
2003
0000
3002
0000
0203
0320
0000
0130
,
0000
0040
0000
1030
0000
0001
1000
0010
,
2000
0000
3200
0000
0310
0001
0100
0020
,
0000
0000
2000
0000
3000
0000
0130
0000
0001
1000
0100
1000
0010
0100
0001
1000
,
0002
0000
4003
0000
3020
0230
0000
0310
,
0000
0000
0400
0000
0000
0000
0301
1000
0001
1000
0001
1000
0001
1000
0001
1000
,
0002
0000
4003
0000
3020
0230
0000
0310
,
0000
0400
0000
0301
0020
0000
0230
0000
,
2300
0000
3002
0000
2003
3200
0000
0310
,
0000
0000
0400
0000
0000
0000
1300
0001
1000
0001
1000
0001
1000
0001
1000
0001
,
2000
0000
3020
0000
0130
0001
0010
0200
,
0000
0000
2000
0000
3000
0000
0310
0000
0001
1000
0010
1000
0100
0010
0001
1000
,
0002
0000
2003
0000
3020
0230
0000
0310
,
0000
0400
0000
0301
0000
1000
0001
0010
,
0002
0000
2003
0000
3002
0023
0230
2300
,
3000
0020
0000
0230
0000
0301
2000
3002
,
2003
0000
3002
0000
0203
0320
0000
0130
,
0000
0040
0000
1030
0000
0001
1000
0010
,
2000
0000
3200
0000
0310
0001
0100
0020
,
0000
0000
2000
0000
3000
0000
0130
0000
0001
1000
0010
1000
0100
0010
0001
1000
,
0001
0000
1000
0000
0100
0000
0010
0001
0010
0001
1000
0000
0100
0000
0010
0001
,
1000
0000
0001
0000
0100
0000
0010
1000
0010
1000
0001
0000
1001
0000
0000
0000
,
1000
0000
0001
0000
0010
0000
0100
1000
0100
1000
0001
0000
0010
0000
0100
1000
,
0001
0000
1000
0000
0010
0000
0100
0001
0100
0001
1000
0000
1001
0000
0000
0000
,
1000
0000
0001
0000
0100
0000
0010
1000
0010
1000
0001
0000
0100
0000
0010
1000
,
0001
0000
1000
0000
0100
0000
0010
0001
0010
0001
1000
0000
1001
0000
0001
0000
,
0200
0000
0320
0000
0130
0001
0010
0200
,
0000
0300
2000
0000
3000
0000
2042
0000
0000
0000
0000
0000
3003
0000
0030
0000
;

//---------------dance-single - I. Pyles----------------
#NOTES:
     dance-single:
     I. Pyles:
     Challenge:
     15:
     1.000,1.000,0.044,0.451,1.000,2109.000,10.000,102.000,9.000,0.000:














0000
0000
0000
0000
,
2000
0000
3020
0000
0130
0001
0010
0200
,
0000
2000
3000
0310
0002
0000
0103
0010
,
2000
0000
0000
3000
1000
0000
0000
0000
0001
0000
0020
0000
0000
0030
M01M
0000
,
0000
0400
0000
0302
0003
1000
0001
0100
,
0020
0000
0000
0030
1000
0000
1000
0000
0001
0000
0020
0000
0000
0030
M01M
0000
,
0000
0400
0000
0302
1003
0010
0100
0001
,
2000
0000
0000
3000
1000
0000
0000
0000
0001
0000
0020
0000
0000
0030
M01M
0000
,
0000
0400
0000
0302
0003
1000
0100
0010
,
0002
0000
0203
0000
0310
1000
0100
0020
,
0000
0002
0003
0130
2000
0000
3010
0100
,
0001
0000
000M
0000
0001
0000
1000
0100
1000
0000
0001
0000
0000
0000
0010
0000
,
0000
0400
0000
2300
3000
0001
0100
0010
,
1000
M000
1000
0010
0100
0001
0000
0010
,
0000
0400
0000
2300
3002
0000
0013
0100
,
1000
0000
M000
0000
1000
0000
0001
0100
0001
0000
1000
0000
0000
0000
0010
0000
,
0000
0400
0000
0302
0003
1000
0010
0100
,
0001
0000
1000
0000
0001
0000
0010
0100
0010
0000
0001
0000
0100
0010
0100
0010
,
1000
0000
0001
0010
0100
0010
0100
0010
0001
1000
0100
1000
0010
0100
0001
1000
,
0001
0100
0010
0100
0001
1000
0100
1000
0001
0010
0100
1000
0100
1000
0001
0100
,
0010
0100
0001
0010
0001
0010
0100
0010
0100
1000
0010
1000
0001
0010
0100
0010
,
0001
0100
0010
0100
0001
1000
0001
1000
0001
0010
0100
1000
0100
1000
0001
0100
,
0010
1000
0001
0010
0001
0010
0100
0010
0100
1000
0010
0100
0001
1000
0100
1000
,
0001
0100
0010
0100
0001
1000
0100
1000
0001
0010
0100
1000
0100
1000
0001
0100
,
0010
0100
0001
0010
0001
0010
0100
0010
0100
1000
0010
1000
0001
0010
0100
0010
,
0001
1000
0100
1000
0001
0010
0100
0010
0001
1000
0010
1000
0100
1000
0001
0010
,
0100
0010
0001
0100
0010
0100
0001
0010
0001
1000
0100
1000
0010
0100
0001
1000
,
0001
0100
0010
0100
0001
1000
0100
1000
0001
0010
0100
1000
0100
1000
0001
0100
,
0010
0100
0001
0010
0001
0010
0100
1000
0100
0010
0100
1000
0100
0010
0100
1000
,
0001
0100
0010
0100
0001
1000
0100
1000
0001
0010
0100
1000
0100
1000
0001
0100
,
0010
0100
0001
0010
0001
0010
0100
0010
0100
1000
0010
0100
0001
0010
0100
1000
,
0001
0100
0010
0100
0001
1000
0100
1000
0001
0010
0100
1000
0100
1000
0001
0100
,
0010
0100
0001
0010
0001
0010
0100
1000
0100
0010
0100
1000
0100
0010
0100
1000
,
0002
0000
0203
0000
0310
1000
0100
0020
,
0000
0002
0003
0130
2000
0000
3010
0100
,
0001
0010
0100
0010
0001
1000
0010
1000
0001
0100
0010
1000
0010
1000
0001
0010
,
0100
0010
0001
0100
0001
0100
0010
0100
0010
1000
0100
1000
0001
0100
0010
0100
,
0001
0010
0100
0010
0001
1000
0001
1000
0001
0100
0010
1000
0010
1000
0001
0010
,
0100
1000
0001
0100
0001
0100
0010
0100
0010
1000
0100
0010
0001
1000
0010
1000
,
0001
0010
0100
0010
0001
1000
0010
1000
0001
0100
0010
1000
0010
1000
0001
0010
,
0100
0010
0001
0100
0001
0100
0010
0100
0010
1000
0100
1000
0001
0100
0010
0100
,
0001
1000
0010
1000
0001
0100
0010
0100
0001
1000
0100
1000
0010
1000
0001
0100
,
0010
0100
0001
0010
0100
0010
0001
0100
0001
1000
0100
1000
0010
0100
0001
1000
,
0001
0010
0100
0010
0001
1000
0010
1000
0001
0100
0010
1000
0010
1000
0001
0010
,
0100
0010
0001
0100
0001
0100
0010
1000
0010
0100
0010
1000
0010
0100
0010
1000
,
0001
0010
0100
0010
0001
1000
0010
1000
0001
0100
0010
1000
0010
1000
0001
0010
,
0100
0010
0001
0100
0001
0100
0010
0100
0010
1000
0100
0010
0001
0100
0010
1000
,
0001
0010
0100
0010
0001
1000
0010
1000
0001
0100
0010
1000
0010
1000
0001
0010
,
0100
0010
0001
0100
0001
0100
0010
1000
0010
0100
0010
1000
0010
0100
0010
1000
,
0002
0000
0000
0000
0023
0000
0100
0000
0031
0000
2000
0000
0000
3000
1000
0000
,
0000
0010
0100
0100
0010
1000
0001
0010
,
0100
1000
0100
1000
0001
1000
0100
1000
0100
1000
0001
0010
0100
1000
0010
0100
,
0001
0100
0010
0100
0001
0100
0010
1000
0100
1000
0100
0010
0001
0010
0100
1000
,
0010
0100
0010
0100
0001
0100
0010
0100
0010
0100
0001
1000
0100
0010
0001
0100
,
0010
0100
0001
0100
0010
0100
0001
1000
0100
1000
0100
0010
0001
0100
0001
0010
,
0100
1000
0100
1000
0001
1000
0100
1000
0100
1000
0001
0010
0100
1000
0010
0100
,
0001
0100
0010
0100
0001
0100
0010
1000
0100
1000
0100
0010
0001
0100
0001
0010
,
0001
1000
0100
1000
0001
0010
0100
0010
0001
1000
0010
1000
0100
1000
0001
0010
,
0100
0010
0001
0100
0010
0100
0001
0010
0001
1000
0100
1000
0010
0100
0001
1000
,
0001
0100
0010
0100
0001
1000
0100
1000
0001
0010
0100
1000
0100
1000
0001
0100
,
0010
0100
0001
0010
0100
0010
0001
1000
0100
1000
0100
0010
0001
0010
0100
1000
,
0001
0100
0010
0100
0001
1000
0100
1000
0001
0010
0100
1000
0100
1000
0001
0100
,
0010
0100
0001
0010
0100
0010
0001
1000
0100
1000
0100
0010
0001
0100
0001
0010
,
0001
0100
0010
0100
0001
1000
0100
1000
0001
0010
0100
1000
0100
1000
0001
0100
,
0010
0100
0001
0010
0100
0010
0001
1000
0100
1000
0100
0010
0001
0010
0100
1000
,
0020
0000
0000
0030
0100
0000
0001
1000
0100
0000
0020
0000
0000
0030
0100
0000
,
0010
0000
0001
0000
1000
0000
0002
0000
0000
0003
0100
0000
0020
0000
0000
0030
,
1000
0001
0010
0100
1000
0001
0100
0010
0100
0010
0100
0001
0010
0100
1000
0100
,
1000
0001
0100
0010
1000
0001
0100
0010
0100
0010
0100
0001
0010
0100
1000
0100
,
1000
0001
0010
0100
1000
0001
0100
0010
0100
0010
0100
0001
0010
0100
1000
0100
,
1000
0001
0100
0010
1000
0001
0100
0010
0100
0010
0100
0001
0010
0100
1000
0100
,
1000
0001
0010
0100
1000
0001
0100
0010
0100
0010
0100
0001
0010
0100
1000
0100
,
1000
0001
0100
0010
1000
0001
0100
0010
0100
0010
0100
0001
0010
0100
1000
0100
,
1000
0001
0010
0001
1000
0100
0010
0100
1000
0001
0100
0001
0010
0001
1000
0100
,
0010
0100
1000
0010
0100
0010
1000
0100
1000
0001
0010
0001
0100
0010
1000
0001
,
1000
0001
0100
0010
1000
0001
0010
0100
0010
0100
0010
0001
0100
0010
1000
0010
,
1000
0001
0010
0100
1000
0001
0010
0100
0010
0100
0010
0001
0100
0010
1000
0010
,
1000
0001
0100
0010
1000
0001
0010
0100
0010
0100
0010
0001
0100
0010
1000
0010
,
1000
0001
0010
0100
1000
0001
0010
0100
0010
0100
0010
0001
0100
0010
1000
0010
,
1000
0001
0100
0010
1000
0001
0010
0100
0010
0100
0010
0001
0100
0010
1000
0010
,
1000
0001
0010
0100
1000
0001
0010
0100
0010
0100
0010
0001
0100
0010
1000
0010
,
0200
0000
0320
0000
0130
0001
0010
0200
,
0000
2000
3000
0310
0002
0000
0103
0010
,
2000
0000
3000
0000
1000
0000
0000
0000
0001
0000
0020
0000
0000
0030
0100
0000
,
0000
0000
0040
0000
0000
0000
0032
0000
0000
0003
0010
0000
0001
0000
0100
0000
,
0020
0000
0000
0030
0010
0000
0100
0000
0010
0000
2000
0000
0000
3000
0001
0000
,
0000
0000
0040
0000
0000
0000
0230
0000
0000
0300
0010
0000
0100
0000
1000
0000
,
0002
0000
0000
0003
0001
0000
0000
0000
1000
0000
0020
0000
0000
0030
0100
0000
,
0000
0000
0040
0000
0000
0000
2030
0000
0000
3000
0010
0000
1000
0000
0001
0000
,
2000
0000
3020
0000
0130
0001
0010
0200
,
0000
2300
0000
3020
0000
0000
0030
0000
,
2000
3000
0000
0000
2000
3000
0000
0000
0001
0000
0000
0000
2000
3000
0000
0000
2000
3000
0000
0000
0001
0000
0000
0000
1000
0000
0000
0000
0200
0300
0000
0000
,
1000
0000
0000
0000
0200
0300
0000
0000
1000
0000
0000
0000
0200
0300
0000
0000
0200
0300
0000
0000
0010
0000
0000
0000
0010
0000
0000
0000
0001
0000
0000
0000
,
2000
3000
0000
0000
2000
3000
0000
0000
0001
0000
0000
0000
2000
3000
0000
0000
2000
3000
0000
0000
0001
0000
0000
0000
1000
0000
0000
0000
0200
0300
0000
0000
,
1000
0000
0000
0000
0200
0300
0000
0000
1000
0000
0000
0000
0200
0300
0000
0000
0200
0300
0000
0000
0010
0000
0000
0000
0010
0000
0000
0000
0001
0000
0000
0000
,
2000
3000
0000
0000
2000
3000
0000
0000
0001
0000
0000
0000
2000
3000
0000
0000
2000
3000
0000
0000
0001
0000
0000
0000
1000
0000
0000
0000
0200
0300
0000
0000
,
1000
0000
0000
0000
0200
0300
0000
0000
1000
0000
0000
0000
0200
0300
0000
0000
0200
0300
0000
0000
0010
0000
0000
0000
0010
0000
0000
0000
0001
0000
0000
0000
,
2000
0000
0000
0000
3020
0000
0000
0000
0130
0000
0001
0000
0010
0001
2000
0000
,
3020
0000
0000
0030
0020
2030
3002
0023
,
0130
1000
0001
0010
0100
1000
0001
0010
0100
1000
0001
0010
0001
1000
0100
0010
,
0001
0100
0010
0100
0001
0100
0010
1000
0001
1000
0010
1000
0001
1000
0001
1000
,
0001
0010
0100
0010
0001
1000
0100
0010
0100
0010
0100
1000
0010
0100
0001
0100
,
0001
1000
0010
0100
0001
1000
0100
0010
0100
0010
0001
1000
0100
0010
0001
0010
,
0100
0010
0001
1000
0100
1000
0001
0100
0001
1000
0100
0010
0100
1000
0100
0010
,
0100
1000
0001
1000
0100
1000
0001
1000
0100
1000
0010
0100
0001
0100
0010
1000
,
0001
1000
0100
1000
0001
0010
0100
0010
0001
1000
0010
1000
0100
1000
0001
0010
,
0100
0010
0001
1000
0001
0010
0001
1000
0010
1000
0001
1000
0010
0100
0010
1000
,
0001
0010
0100
1000
0001
0010
0100
1000
0001
0100
0010
0100
0001
1000
0001
0010
,
0100
1000
0001
1000
0100
0010
0001
1000
0001
0010
0100
1000
0001
0100
0010
1000
,
0001
1000
0010
0100
0001
1000
0010
0100
0001
1000
0010
0100
0001
1000
0010
0100
,
0001
1000
0001
1000
0100
0010
0001
1000
0001
0010
0100
1000
0001
0100
0010
1000
,
0001
1000
0010
0100
0010
1000
0001
0010
0100
0010
0001
1000
0100
0010
0001
1000
,
0100
0010
0100
1000
0001
0100
0010
0100
0001
1000
0010
1000
0001
0010
0001
1000
,
0100
0010
0001
1000
0100
0010
0001
1000
0100
0010
0001
1000
0100
1000
0010
1000
,
0001
0100
0010
1000
0001
0010
0100
1000
0001
0100
0010
1000
0001
0010
0100
1000
,
0001
1000
0001
0100
0010
0100
0001
0010
0001
0010
0100
1000
0100
0010
0001
0100
,
0001
0100
0010
1000
0001
1000
0100
0010
0100
0010
0001
1000
0010
0100
0010
0100
,
0001
1000
0001
0010
0100
0010
0001
0100
0001
0100
0010
1000
0010
0100
0001
0010
,
0001
0010
0100
1000
0001
1000
0010
0100
0010
0100
0001
1000
0100
0010
0100
0010
,
0001
1000
0010
0100
0001
0100
0010
1000
0010
1000
0001
0010
0100
0010
0001
1000
,
0001
1000
0010
0100
0010
1000
0001
0100
0001
0100
0010
1000
0001
0010
0001
0010
,
0100
1000
0001
0100
0010
1000
0001
1000
0100
0010
0001
1000
0100
1000
0001
1000
,
0010
0100
0001
1000
0010
1000
0001
0100
0001
0100
0010
1000
0001
0010
0001
0010
,
0100
1000
0001
0010
0100
1000
0100
1000
0001
0100
0010
1000
0001
1000
0010
1000
,
0001
1000
0010
1000
0001
1000
0010
0100
0010
0100
0001
0010
0100
1000
0100
1000
,
0001
0100
0010
0100
0001
0100
0010
1000
0010
0100
0010
1000
0100
0010
0100
1000
,
0100
0010
0001
0100
0010
0100
0001
1000
0001
0100
0010
1000
0010
1000
0010
1000
,
0001
0100
0001
1000
0010
0100
0001
1000
0100
0010
0001
0010
0001
1000
0100
0010
,
0100
0010
0001
1000
0001
0100
0010
1000
0010
1000
0001
0010
0200
0300
0000
0000
,
2000
0000
3000
0000
0010
0000
0100
0001
0100
0000
0010
0000
1000
0000
0002
0000
,
0000
0000
0000
0000
0003
0000
0000
0000
0020
0000
0000
0000
0200
0030
2300
0000
,
3001
0100
0010
0100
0001
1000
0100
1000
0001
0010
0100
1000
0100
1000
0001
0100
,
0010
0100
0001
0010
0001
0010
0100
0010
0100
1000
0010
1000
0001
0010
0100
0010
,
0001
0100
0010
0100
0001
1000
0001
1000
0001
0010
0100
1000
0100
1000
0001
0100
,
0010
1000
0001
0010
0001
0010
0100
0010
0100
1000
0010
0100
0001
1000
0100
1000
,
0001
0100
0010
0100
0001
1000
0100
1000
0001
0010
0100
1000
0100
1000
0001
0100
,
0010
0100
0001
0010
0001
0010
0100
0010
0100
1000
0010
1000
0001
0010
0100
0010
,
0001
1000
0100
1000
0001
0010
0100
0010
0001
1000
0010
1000
0100
1000
0001
0010
,
0100
0010
0001
0100
0010
0100
0001
0010
0001
1000
0100
1000
0010
0100
0001
1000
,
0001
0100
0010
0100
0001
1000
0100
1000
0001
0010
0100
1000
0100
1000
0001
0100
,
0010
0100
0001
0010
0001
0010
0100
1000
0100
0010
0100
1000
0100
0010
0100
1000
,
0001
0100
0010
0100
0001
1000
0100
1000
0001
0010
0100
1000
0100
1000
0001
0100
,
0010
0100
0001
0010
0001
0010
0100
0010
0100
1000
0010
0100
0001
0010
0100
1000
,
0001
0100
0010
0100
0001
1000
0100
1000
0001
0010
0100
1000
0100
1000
0001
0100
,
0010
0100
0001
0010
0001
0010
0100
1000
0100
0010
0100
1000
0100
0010
0100
1000
,
0002
0000
0203
0000
0310
1000
0100
0020
,
0000
0000
0002
0000
0003
0000
0130
0000
1000
0001
0100
0001
0010
0100
1000
0001
,
1000
0010
0100
0010
1000
0001
0010
0001
1000
0100
0010
0001
0010
0001
1000
0010
,
0100
0010
1000
0100
1000
0100
0010
0100
0010
0001
0100
0001
1000
0100
0010
0100
,
1000
0010
0100
0010
1000
0001
1000
0001
1000
0100
0010
0001
0010
0001
1000
0010
,
0100
0001
1000
0100
1000
0100
0010
0100
0010
0001
0100
0010
1000
0001
0010
0001
,
1000
0010
0100
0010
1000
0001
0010
0001
1000
0100
0010
0001
0010
0001
1000
0010
,
0100
0010
1000
0100
1000
0100
0010
0100
0010
0001
0100
0001
1000
0100
0010
0100
,
1000
0001
0010
0001
1000
0100
0010
0100
1000
0001
0100
0001
0010
0001
1000
0100
,
0010
0100
1000
0010
0100
0010
1000
0100
1000
0001
0100
0001
0010
0100
1000
0001
,
1000
0001
0100
0010
1000
0001
0010
0100
0010
0100
0010
0001
0100
0010
1000
0010
,
1000
0001
0010
0100
1000
0001
0010
0100
0010
0100
0010
0001
0100
0010
1000
0010
,
1000
0001
0100
0010
1000
0001
0010
0100
0010
0100
0010
0001
0100
0010
1000
0010
,
1000
0001
0010
0100
1000
0001
0010
0100
0010
0100
0010
0001
0100
0010
1000
0010
,
1000
0001
0100
0010
1000
0001
0010
0100
0010
0100
0010
0001
0100
0010
1000
0010
,
1000
0001
0010
0100
1000
0001
0010
0100
0010
0100
0010
0001
0100
0010
1000
0010
,
0200
0000
0320
0000
0130
0001
0010
0200
,
0000
0300
2000
0000
3000
0000
2042
0000
0000
0000
0000
0000
3003
0000
0030
0000
;
