#TITLE:Love & Joy;
#SUBTITLE:;
#ARTIST:木村由姫;
#TITLETRANSLIT:;
#SUBTITLETRANSLIT:;
#ARTISTTRANSLIT:Kimura Yuki;
#CREDIT:;
#BANNER:lnj.png;
#BACKGROUND:lnj-bg.png;
#LYRICSPATH:;
#CDTITLE:!ExigeTitle.png;
#MUSIC:loveandjoy.mp3;
#OFFSET:-1.550;
#SAMPLESTART:63.379;
#SAMPLELENGTH:11.080;
#SELECTABLE:YES;
#BPMS:0.000=173.000;
#STOPS:;
#BGCHANGES:;
// cache tags:
#FIRSTBEAT:0.000;
#LASTBEAT:276.000;
#SONGFILENAME:Songs/Keyboard Collaboration II/Exige - Love and Joy/loveandjoy.sm;
#HASMUSIC:1;
#HASBANNER:1;
#MUSICLENGTH:106.292;
// end cache tags

//---------------dance-single - ----------------
#NOTES:
     dance-single:
     :
     Hard:
     12:
     1.000,1.000,1.000,0.009,0.809,664.000,246.000,1.000,0.000,0.000:  // measure 1
1001
0000
0000
0000
,  // measure 2
0011
0000
0000
0000
,  // measure 3
0110
0000
0000
0011
,  // measure 4
0101
0000
0110
0000
,  // measure 5
0101
0010
0001
1000
0010
0100
1000
0100
,  // measure 6
0010
0001
1000
0100
0001
0010
0100
1000
0001
0010
0001
1000
0010
0001
1000
0100
,  // measure 7
0001
0010
1000
0010
0001
1000
0001
0010
1000
0100
0001
0010
1000
0010
0001
0010
,  // measure 8
1100
0000
0000
0000
0100
0000
0000
0100
0011
0000
1001
0000
1100
0000
0011
0000
,  // measure 9
0110
0000
0001
0000
1010
0000
0010
0000
0101
0000
0100
0000
1001
0100
1010
0000
,  // measure 10
0001
0000
0101
0000
1000
0000
1001
0000
0011
1000
0100
0000
0010
0100
0000
0100
,  // measure 11
1001
0100
0010
0100
0011
0000
0010
0000
0110
1000
0000
0001
0110
0000
0011
0000
,  // measure 12
0001
0000
0101
0000
0100
0000
1010
0000
1010
0000
1000
0010
0001
0100
1000
0100
,  // measure 13
1010
0010
0011
0100
0011
1000
1001
0010
,  // measure 14
1100
1000
0011
1000
0110
1000
1001
0011
,  // measure 15
1001
0000
0010
0000
0001
0100
1010
0000
0100
0000
0110
0000
1001
0000
0100
0000
,  // measure 16
1001
0000
0000
0000
0100
0000
0000
0100
1010
0000
0101
0000
1100
0000
1001
0000
,  // measure 17
1010
0100
0000
0001
1010
0000
1000
0000
0101
0000
0001
0000
0110
0000
1010
0000
,  // measure 18
0001
0000
1010
0100
0001
0100
1010
0000
1010
0100
0000
0100
0010
0100
1000
0001
,  // measure 19
1100
0010
0101
0001
0110
0010
1010
0101
,  // measure 20
0100
0000
0101
0010
0000
1000
0011
0000
0101
0010
0000
1000
0100
1000
0100
0001
,  // measure 21
1010
1000
1001
0010
0011
1000
0110
0100
,  // measure 22
1001
0000
0100
0000
1100
0000
0001
0000
1100
0000
1000
0000
0110
1000
0000
1000
,  // measure 23
0101
0001
1000
1001
0010
1001
1001
0001
,  // measure 24
1001
0000
0000
0000
0001
0000
0000
0010
1100
0000
0001
0000
1001
0000
0010
0000
,  // measure 25
1001
0000
0110
0001
0000
0010
1001
0000
0001
0010
1100
0000
0010
0000
0011
0000
,  // measure 26
1000
0000
0110
0000
0000
0000
1001
0010
0000
0000
0011
0000
0010
0000
0110
0000
,  // measure 27
0000
1010
0000
0011
0000
0110
0100
1100
,  // measure 28
0000
0000
1010
0000
0110
0001
0000
0100
0011
0000
1001
0000
0011
0000
0100
0000
,  // measure 29
1010
0100
1001
0000
0010
0100
0011
0000
0100
0010
1001
0000
0010
0000
0011
0000
,  // measure 30
0001
0000
0101
0000
0010
0001
0110
0000
0100
0010
1001
0000
1100
0010
0101
0000
,  // measure 31
0010
0100
0011
0000
1000
0100
1001
0000
0100
0010
1001
0000
0100
0000
1001
0000
,  // measure 32
0110
0000
1001
0000
0110
0001
1000
0010
0100
0000
1100
0000
0100
0000
1001
0000
,  // measure 33
0110
1000
0010
0100
1001
0000
0011
0000
0101
0000
0010
0100
1010
0000
0011
0000
,  // measure 34
0100
0000
0110
0000
1001
0100
0010
0100
0001
0010
1100
0000
0011
0000
1001
0010
,  // measure 35
0000
0100
0011
0000
1000
0000
0101
0000
0001
0000
1100
0001
1000
0001
1010
0000
,  // measure 36
1000
0000
0011
1000
0000
0001
0110
0000
0010
0000
1001
0000
0100
0000
1010
0000
,  // measure 37
0010
0000
1100
0000
0010
0000
0101
0000
0100
0010
1000
0010
0101
0000
0011
0000
,  // measure 38
0010
0000
0101
0000
0011
0000
0100
0000
0010
0000
1100
0000
1010
0100
1001
0000
,  // measure 39
0010
0110
1001
0011
1100
0110
1001
0011
,  // measure 40
0100
0011
0010
0110
0101
1000
0100
0011
,  // measure 41
0101
0000
0011
0000
1001
0000
0001
0000
0101
0010
0100
0001
1000
0010
0101
0000
,  // measure 42
0001
0000
0101
0000
1000
0000
0011
0000
0101
0010
0001
0010
1000
0010
0101
0000
,  // measure 43
0100
1001
0010
1001
0100
0101
1000
1001
,  // measure 44
1010
0000
0000
1100
0000
0000
0011
0000
0101
0000
0000
0110
0000
0000
0101
0000
,  // measure 45
1010
0000
0000
0000
0010
0000
0000
0001
0110
0000
0011
0000
1001
0000
0011
0000
,  // measure 46
0101
0000
0010
0000
1001
0000
0010
0000
1001
0100
0010
0001
0110
0000
1001
0000
,  // measure 47
0010
0000
0110
0000
0010
0000
1001
0000
1001
0100
0010
0000
0010
0001
0010
1000
,  // measure 48
0101
0000
0100
0000
1010
0000
0010
0000
0101
0000
0100
0000
1001
0010
0101
0000
,  // measure 49
0010
0000
0101
0000
1000
0000
0101
0000
1010
0100
0001
1000
0100
0001
0010
1000
,  // measure 50
0101
0010
1010
0010
0101
1000
1010
0100
,  // measure 51
0101
0000
0100
0000
1010
0000
0010
0000
0101
0000
0010
0000
1010
0000
0001
0010
,  // measure 52
1100
0010
1000
0101
0010
0101
0101
0100
,  // measure 53
1010
0000
0010
0000
1000
0000
0000
0100
0010
0000
0101
0000
1001
0000
0110
0000
,  // measure 54
1001
0000
0010
0000
0110
0000
1000
0000
1001
0000
0001
1000
0110
0000
0101
0000
,  // measure 55
0010
0000
1010
0000
0100
0000
0101
0000
0101
0010
1000
0001
0010
0001
0100
0010
,  // measure 56
0101
0000
0001
0000
1010
0000
0100
0000
0101
0000
1000
0000
0101
0000
0101
0010
,  // measure 57
0000
0100
1010
0000
0001
0000
0101
0000
0101
0010
0100
0001
0010
0001
1000
0010
,  // measure 58
1001
0100
0011
0010
0101
1000
0011
0001
,  // measure 59
0101
0001
0110
0100
1001
0010
0101
0011
,  // measure 60
1001
0000
0010
0100
0000
0100
0011
0000
0100
1000
0010
1000
0101
0000
0000
0000
,  // measure 61
1002
0000
0000
0000
1000
0000
0000
1000
0100
0000
1000
0000
1000
0000
1000
0000
,  // measure 62
0013
1000
0100
0001
0010
1000
0001
0100
0010
0100
1000
0001
0010
0001
1000
0010
,  // measure 63
0100
1000
0001
0010
1000
0100
0001
1000
0100
0001
1000
0001
0010
0001
1000
0001
,  // measure 64
0100
0010
0001
0100
1000
0010
1000
0010
0001
0100
0010
1000
0001
0100
1000
0100
,  // measure 65
0001
0010
0001
0100
0010
1000
0001
0010
0100
0001
0010
1000
0001
0100
1000
0001
,  // measure 66
0010
1000
0010
0100
0010
0001
0100
0010
0001
0100
1000
0001
1000
0010
0001
0100
,  // measure 67
0010
1000
0001
0100
1000
0001
0010
0001
0100
0001
0010
0100
1000
0001
1000
0100
,  // measure 68
1001
0010
0001
0010
1000
0100
1000
0010
0101
1000
0010
1000
0100
0010
0100
0010
,  // measure 69
1001
0110
1010
0100
0011
0100
1001
0010
,  // measure 70
1001
0000
0000
0000
;
