#TITLE:The Sound of Truth;
#SUBTITLE:;
#ARTIST:As I Lay Dying;
#TITLETRANSLIT:;
#SUBTITLETRANSLIT:;
#ARTISTTRANSLIT:;
#CREDIT:Death4Te!;
#BANNER:The Sound of Truth - bn.png;
#BACKGROUND:The Sound of Truth - bg.png;
#LYRICSPATH:;
#CDTITLE:!cdtitle-Death4Te!-.png;
#MUSIC:As I Lay Dying - The Sound of Truth.ogg;
#OFFSET:-0.129;
#SAMPLESTART:24.864;
#SAMPLELENGTH:15.000;
#SELECTABLE:YES;
#DISPLAYBPM:165.000;
#BPMS:0.000=165.000,309.000=41.250;
#STOPS:;
#BGCHANGES:;
// cache tags:
#FIRSTBEAT:0.000;
#LASTBEAT:309.250;
#SONGFILENAME:Songs/SSSC PACK/[Death4Te!] - The Sound of Truth/The Sound of Truth.sm;
#HASMUSIC:1;
#HASBANNER:1;
#MUSICLENGTH:114.416;
// end cache tags

//---------------dance-single - Death4Te!----------------
#NOTES:
     dance-single:
     Death4Te!:
     Challenge:
     13:
     1.000,1.000,0.358,0.402,1.000,899.000,41.000,46.000,17.000,0.000:

0001
0000
1000
0001
1000
0001
1000
0000
0001
0010
0100
1000
0001
0010
0100
1000
,
0001
0010
0001
0010
0100
0010
0100
0010
0001
0010
0001
0010
0100
0010
0100
0010
,
0001
0010
0001
0010
0100
0010
0100
0010
0001
1000
0001
1000
0010
1000
0010
1000
,
0001
0100
0001
0100
0010
0100
0010
0100
0001
0100
0001
0100
0010
0100
0010
0100
,
0001
0100
0001
0100
0010
0100
0010
0100
0001
0010
0001
0010
0100
1000
0100
1000
,
0001
0010
0001
0010
0100
0010
0100
0010
0001
0010
0001
0010
0100
0010
0100
0010
,
0001
0010
0001
0010
0100
0010
0100
0010
0001
0010
0001
0010
0100
0010
0100
0010
,
0001
1000
0001
1000
0001
0010
0001
0010
0001
1000
0001
1000
0001
0010
0001
0010
,
0001
0010
0100
1000
0001
0100
0001
0010
0100
1000
0100
0010
0001
0100
0001
1000
,
1010
0000
1000
0010
1000
0000
0001
0000
0010
0100
0010
0000
0100
0010
0100
0000
,
1000
0001
1000
0000
0100
0010
0100
0000
0010
0001
0100
0000
0100
0010
1000
0001
,
1001
0000
0001
1000
0001
0000
0010
0000
0100
0010
M100
0010
010M
0010
0110
0000
,
0100
1000
0010
0000
0100
0001
0010
0000
0100
0010
0001
1000
0100
1000
0001
0010
,
1100
0000
1000
0100
1000
0000
0100
0000
1000
0001
1000
0000
0001
0000
0101
0000
,
0100
0001
0100
0000
0010
1000
0010
0000
0001
0010
0100
0000
0010
0001
2000
00M0
,
3002
0000
1003
1001
0001
0011
0010
1001
,
0001
0011
0010
1001
0001
0011
1001
0000
,
1001
0000
2000
0000
0010
3200
0000
0320
,
0001
0130
0200
0010
,
1300
0100
0010
0001
1001
0002
0000
0103
,
0100
0010
0100
0000
0010
0100
0010
0000
1010
0000
1000
0000
1100
0000
0100
0000
,
2000
0002
3003
2000
3010
0200
0310
1000
,
0002
0000
0000
0000
20M3
0000
0000
0000
3200
0000
0000
0000
0320
0000
0000
0030
,
0100
0000
1000
0000
0100
0000
0001
0000
0100
0000
0010
0000
0100
0000
1000
0100
,
1000
0100
0010
0001
1000
0100
0010
0001
0010
0100
1000
0001
0010
0100
1000
0001
,
1000
00M0
2000
0000
0010
3200
0000
0320
,
0001
0130
0200
0010
,
1300
0100
0010
0001
1001
0002
0000
0103
,
0100
0010
0100
0000
0010
0100
0010
0000
1010
0000
1000
0000
1100
0000
0100
0000
,
2000
0002
3003
2000
3010
0200
0310
1000
,
0002
0000
0000
0000
20M3
0000
0000
0000
3002
0000
0000
0000
0023
0000
0000
0030
,
0100
1000
0100
0010
0001
0100
1000
0100
,
0001
0010
0100
1000
0001
0010
0001
1000
,
0001
1000
0001
1000
0010
0100
0010
0100
0001
0010
0001
0010
0001
1000
0001
1000
,
0010
0100
0010
0100
0001
1000
0001
1000
0001
0100
0010
1000
0001
0010
0100
1000
,
0100
1000
0100
1000
0010
1000
0010
1000
0001
0100
0001
0100
0010
1000
0010
1000
,
0001
1000
0001
1000
0010
1000
0010
1000
1010
0000
1010
0000
1001
0000
10M1
0000
,
0001
1000
0001
1000
0100
0010
0100
0010
0001
1000
0001
1000
0010
1000
0010
1000
,
0100
0010
0100
0010
0001
1000
0001
1000
0001
0010
0100
1000
0001
0100
0010
1000
,
0001
1000
0001
1000
0010
0100
0010
0100
0001
0100
0001
0100
0010
0100
0010
0100
,
0010
1000
0001
0010
1001
0000
1001
0000
0M10
0000
1001
0000
1001
0000
0M10
0000
,
1000
0001
1000
0001
0010
0100
0010
0100
0010
0001
1000
0010
1000
0010
0100
0010
,
1000
0001
1000
0001
0010
0001
0010
0001
1000
0100
0010
0100
0010
0001
0010
0001
,
1000
0010
1000
0010
0100
0010
0100
0010
1000
0001
1000
0001
0010
0100
0010
0100
,
1000
0100
1000
0001
1000
0010
1000
0010
1010
0000
1010
0000
1001
0000
10M1
0000
,
1000
0100
1000
0100
0010
0001
1000
0010
0100
0010
0100
0010
1000
0001
1000
0001
,
1000
0010
1000
0010
0100
0001
0100
0001
0010
0100
1000
0100
1000
0100
0010
0001
,
1000
0100
1000
0100
1000
0010
0100
0010
1000
0001
1000
0001
0010
0100
0010
0100
,
1000
0000
0001
0000
1000
0000
0100
0000
0010
0000
0001
0000
1000
0000
0010
0M00
1000
0000
001M
0000
1000
0M00
0010
0000
,
1000
0100
0010
0110
0100
0010
0001
1000
0001
1001
1000
0010
,
0100
0001
0100
0110
0010
1000
0001
0010
0001
0010
0100
0010
,
0100
0010
0001
1000
0010
1000
0001
0010
0001
1000
0100
1000
,
1100
0000
0000
1001
0000
0000
0001
0000
1000
0001
1000
0000
0001
0000
0010
0000
0100
0000
0010
0000
0100
0010
0100
0000
,
0010
0001
1000
0010
0100
0010
1000
0100
1000
0001
0010
0001
,
0100
0000
0000
0000
0010
0000
0000
0000
0100
0000
0000
0000
0020
0000
0000
0000
1000
0000
0000
0000
1000
0030
0000
0000
1000
0000
0000
0000
0001
0000
0000
0000
0010
0000
0000
0000
0100
0000
0000
0000
1000
0000
0000
0000
0001
0000
0000
0000
,
0100
0010
0100
0001
1000
0001
0010
0100
0010
0100
1000
0010
,
1000
0100
0010
0001
0100
0001
1000
0010
1000
0100
0010
0001
,
0100
0010
0100
0001
1000
0001
0010
0100
0010
0100
1000
0001
,
1000
0000
0100
1000
0100
0000
1000
0000
0001
1000
0001
0000
2000
0000
0010
0000
0010
0000
3010
0000
1000
0000
0100
0000
,
0010
0100
0010
0001
1000
0001
0100
0010
0100
0001
0010
0001
,
1000
0010
1000
0002
0010
0010
0013
0001
0010
0100
0010
0001
,
1000
0100
0010
0001
1000
0001
0010
0100
0010
0001
0100
0001
,
1000
0010
1000
0020
0100
0100
0130
0010
1000
0010
0100
0010
,
1000
0001
1000
0100
0010
0100
1000
0010
1000
0001
0010
0001
,
0100
0010
1000
0010
0100
0001
0010
0100
1000
0001
0100
0001
,
1000
00M0
1000
0010
1000
0010
1000
00M0
1000
0100
0010
0001
1000
0100
0010
0001
,
0100
0010
0100
0010
0000
0000
0100
0010
0100
0010
1000
0010
1000
0100
1000
0100
0010
0100
0010
0001
0010
0001
1000
0001
,
10M0
1000
0002
0000
0100
0023
0000
0230
,
1000
0310
0020
0100
,
0031
0010
0100
1000
1001
2000
0000
3010
,
0010
0100
0010
0000
0100
0010
0100
0000
0101
0000
0001
0000
0011
0000
0010
0000
,
0002
2000
3003
0002
0103
0020
0130
0001
,
2000
0000
0000
0000
3M02
0000
0000
0000
2003
0000
0000
0000
3200
0000
0000
0300
,
0010
0001
0010
1000
0010
1000
0010
0001
,
0010
0001
1000
0010
1000
0010
1000
0001
,
1000
0001
1000
0001
1000
0100
0010
0001
1000
0100
0010
0001
1001
1000
0010
0100
,
0001
1000
0010
0100
0001
1000
0010
0100
0101
0001
0010
0100
1000
0001
0100
0010
,
0200
0000
0000
0000
0000
0300
0000
0000
0000
0000
0000
0000
0000
0000
0000
0000
;
