#TITLE:Death Egg Zone - Act 2;
#SUBTITLE:- Sonic & Knuckles;
#ARTIST:Sonic Team;
#TITLETRANSLIT:;
#SUBTITLETRANSLIT:;
#ARTISTTRANSLIT:;
#CREDIT:;
#BANNER:Death Egg - Banner.PNG;
#BACKGROUND:Death Egg Zone - Banner.PNG;
#LYRICSPATH:;
#CDTITLE:;
#MUSIC:Sonic & Knuckles - Death Egg Zone Act 2.mp3;
#OFFSET:1.040;
#SAMPLESTART:40.051;
#SAMPLELENGTH:12.000;
#SELECTABLE:YES;
#BPMS:0.000=149.810;
#STOPS:;
#BGCHANGES:;
// cache tags:
#FIRSTBEAT:4.000;
#LASTBEAT:230.000;
#SONGFILENAME:Songs/new cc/Sonic & Knuckles - Death Egg Zone - Act 2 (Crazylegz Edit)/Death Egg Zone.sm;
#HASMUSIC:1;
#HASBANNER:1;
#MUSICLENGTH:95.346;
// end cache tags

//---------------dance-single - ----------------
#NOTES:
     dance-single:
     :
     Challenge:
     11:
     0.936,0.905,0.482,0.472,1.000,534.000,46.000,45.000,0.000,6.000:
0000
0000
0000
0000
,
1010
0000
0000
0000
1001
0000
0000
0000
1000
0001
1000
0000
0100
0000
1100
0000
,
0000
0011
0000
2200
0000
3300
0010
0010
,
0011
0000
0000
0000
0011
0000
0000
0000
0100
0010
0100
0000
0010
0000
1000
0000
,
0000
0020
0000
2000
0000
0100
3030
0000
,
1000
0100
0010
0001
0010
0100
1000
0100
0010
0100
1000
0200
0000
0000
0010
0000
,
0010
0310
0000
0011
0000
0022
0033
0000
,
1000
0010
1000
0001
1000
0100
1000
0001
1000
0010
1000
0100
1000
0001
0200
0000
,
0301
1000
0200
0000
1300
0001
0200
0000
0301
1000
0100
0000
0010
0000
0010
0000
,
2002
0000
3003
0000
0100
0000
0000
0000
0010
0000
0000
0000
1000
0100
1000
0000
,
0010
0210
0000
0301
0000
0010
0100
1000
,
1010
0000
0000
0000
0101
0000
0000
0000
0001
1000
0001
0000
0100
0000
0100
0000
,
0000
0002
0000
2000
0000
0100
3003
0000
,
1000
0100
0010
0001
0010
0100
1000
0100
0010
0001
0010
0100
0000
0000
1000
0000
,
0110
0001
0110
1000
0101
0010
0101
0000
,
0001
0010
0100
1000
0010
0100
0001
1000
0001
0100
0001
0100
0001
0010
0001
0000
,
1000
0100
1000
0000
0010
0100
0010
0000
1000
0100
1000
0000
1000
0010
1000
0010
,
1000
0010
0100
0010
0100
0001
0100
0001
0100
0001
0100
0001
0010
0001
0010
0001
,
0100
0010
0100
0010
1000
0100
1000
0100
1000
0010
0100
0010
0100
0001
0100
0001
,
0100
0001
1000
0100
1000
0100
2000
0100
0000
0100
0000
3100
0000
1001
0000
0000
,
0010
0000
0100
0000
0001
0000
0010
0100
0000
0010
0000
0000
0001
0010
0100
1000
,
0100
0010
0001
0010
0100
1000
0100
0010
0001
0010
0001
0010
0001
1000
0100
1000
,
0100
1000
0010
0100
0010
0100
0010
0100
0001
0010
0001
1000
0010
0100
0001
1000
,
0010
0100
0001
0010
0100
0010
0002
1000
0000
1000
0000
1003
0000
1001
0000
0000
,
0001
0000
1000
0000
0100
1000
0000
0010
0000
0100
0000
0202
0000
0000
0303
0000
,
1001
0000
0000
0000
0200
0000
0000
0000
0310
0000
0000
0000
1000
0010
1000
0000
,
0001
2000
0000
0002
3003
0000
0100
0100
,
0110
0000
0000
0000
1010
0000
0000
0000
0101
0000
0000
0000
0001
0010
0001
0000
,
1000
0200
0000
2000
0000
0001
3300
0000
,
1000
0010
0100
0001
1000
0010
0100
0001
1000
0010
0100
0002
0000
0000
1000
0000
,
1000
1003
0000
1010
0000
1001
0000
0000
,
0001
0010
0100
1000
0001
0010
0100
1000
0001
0010
0100
1000
0010
0100
0001
0000
,
0010
0100
1000
0000
0010
0100
0001
0000
0010
0100
2000
0000
0001
0000
3001
0000
,
1001
0000
0000
0000
0010
0000
0000
0000
0110
0000
0000
0000
0010
1000
0010
0000
,
1000
0002
0000
0200
0303
0000
0101
0010
,
1001
0000
0000
0000
2200
0000
0000
0000
3301
0000
0000
0000
1000
0010
1000
0000
,
0010
0200
0000
0020
0000
1000
0330
0000
,
0001
1000
0010
0100
0001
1000
0010
0100
0001
1000
0010
0200
0000
0000
0001
0000
,
0001
0301
0000
1010
0000
1001
0000
0000
,
0010
1000
0010
1000
0010
1000
0001
1000
0001
1000
0001
1000
0010
1000
0010
0000
,
1000
0100
1000
0000
0010
1000
0010
0000
1000
0100
1000
0000
0010
1000
0010
1000
,
0010
1000
0001
1000
0001
1000
0001
0100
0001
0100
0001
0100
0001
0010
0001
0010
,
0001
0010
0001
0010
0100
1000
0100
0010
0100
0010
0100
0010
0001
1000
0001
1000
,
0001
0100
0001
0100
0001
1000
0020
0100
0000
0100
0000
0130
0000
1010
0000
0000
,
0100
0000
0001
0000
0010
0000
0001
0010
0000
0011
0000
0000
1000
0100
0010
0001
,
0010
0001
0010
0001
1000
0001
1000
0001
1000
0100
1000
0100
1000
0100
1000
0010
,
0100
0010
0100
0010
0100
0001
0010
0100
1000
0100
1000
0100
1000
0001
0100
0001
,
0010
0001
1000
0100
1000
0010
2000
0100
0000
0010
0000
3001
0000
1001
0000
0000
,
0001
0000
1000
0000
0001
1000
0000
0010
0000
1000
0000
2020
0000
0000
3030
0000
,
2001
0000
0000
0000
3001
0000
0000
0000
0101
0000
0000
0000
0001
0010
0001
0000
,
1000
0200
0000
2000
3300
0000
1010
0100
,
1001
0000
0000
0000
1100
0000
0000
0000
0011
0000
0000
0000
1000
0100
1000
0000
,
0010
0200
0000
0002
0000
0010
0303
0000
,
1000
0010
1000
0010
1000
0010
1000
0100
1000
0100
1000
0200
0000
0000
0010
0000
,
0010
0310
0000
0011
0000
1001
0000
0000
,
0100
0001
0100
0001
0100
0001
0010
0001
0010
0001
0010
0001
1000
0100
1000
0000
,
0001
0100
0001
0000
1000
0100
1000
0000
0001
0100
0001
0000
1000
0000
0000
0000
,
2002
0000
3003
0000
;

//---------------dance-single - Copied from----------------
#NOTES:
     dance-single:
     Copied from:
     Hard:
     9:
     0.659,0.633,0.430,0.252,0.399,375.000,41.000,24.000,0.000,0.000:
0000
0000
0000
0000
,
0010
0000
1001
0000
1000
0000
0100
1100
,
0000
0011
0000
1100
0000
0000
0010
0010
,
0011
0000
1001
0000
0100
0100
0010
1000
,
0000
0020
0000
1000
0000
0100
0030
0000
,
1000
0100
0000
0010
0000
0001
0000
0001
1000
0000
0100
0000
0200
0000
0010
0000
,
0010
0300
0000
0011
0000
0022
0033
0000
,
1000
0001
0000
0100
0000
0010
0000
1000
0001
0000
0002
0000
1000
0000
1000
0000
,
0010
0010
1000
1000
0010
0013
0000
0000
,
2002
3003
0100
0000
0010
0000
1000
0100
,
0010
0110
0000
1000
0000
0010
0100
1000
,
1001
0000
0101
0000
0001
1000
0001
0100
,
0000
0001
0000
2000
0000
0100
3000
0000
,
1000
0010
0000
0010
0000
1000
0000
0010
1000
0000
1000
0000
0000
0000
1000
0000
,
0010
0001
0010
1000
0010
0001
0100
0000
,
0001
0100
0000
0010
0000
1000
0000
0100
0010
0000
0010
0000
0001
0100
0001
0000
,
1000
0100
1000
0000
0010
0100
0010
0000
1000
0100
1000
0000
1000
0000
0010
0000
,
0100
0001
0010
0100
1000
0100
0010
0001
,
1000
0001
1000
0001
0100
0010
1000
0010
,
0100
0000
0010
0000
1000
0000
0001
0000
0001
0100
0000
0100
0000
0001
0000
0000
,
0010
0000
0100
0000
0010
0000
1000
0100
0000
0010
0000
0000
0001
0000
1000
0000
,
0001
1000
0001
0010
0100
0010
0001
1000
,
0100
0010
0100
1000
0010
0100
0010
1000
,
0010
0000
1000
0000
0001
0000
0100
0000
0100
0010
0000
0010
0000
1000
0000
0000
,
0001
0000
1000
0000
0001
1000
0000
0001
0000
0010
0000
0001
0000
0000
0000
0000
,
1001
0000
0200
0000
0310
0000
1000
1000
,
0001
2000
0000
0002
3003
0000
0100
0100
,
0110
0000
1010
0000
0101
0000
0001
0001
,
1000
0200
0000
1000
0000
1000
0300
0000
,
1000
0100
0000
1000
0000
0001
0000
0100
0001
0000
0001
0000
0000
0000
1000
0000
,
1000
1000
0000
1010
0000
1001
0000
0000
,
0001
0100
0000
0001
0000
1000
0000
0100
1000
0000
1000
0000
0010
0000
0110
0000
,
1000
0110
0001
0101
0010
0101
0000
0000
,
1001
0000
0010
0000
0110
0000
0010
0010
,
1000
0002
0000
0200
0303
0000
0101
0000
,
1001
0000
2200
0000
3300
0000
1000
1000
,
0010
0200
0000
0010
0000
0010
0300
0000
,
0001
1000
0000
0001
0000
1000
0000
0010
0100
0000
0010
0000
0000
0000
0001
0000
,
0001
0001
0000
1010
0000
1001
0000
0000
,
1000
0001
0000
1000
0000
0010
0000
1000
0100
0000
0100
0000
0010
0000
0010
0000
,
0100
0000
0100
0000
0010
0000
0010
0000
0100
0000
0100
0000
0010
0001
0010
0000
,
0001
0000
0001
0000
1000
0100
1000
0000
0010
0000
0100
0000
0001
0010
0001
0000
,
1000
0000
0100
0000
1000
0010
0100
0000
0001
0000
0001
0000
0010
0000
0100
0000
,
1000
0000
0001
0000
0100
0000
0010
0000
0100
0010
0000
0100
0000
0010
0000
0000
,
0100
0000
0001
0000
0010
0000
0001
0010
0000
0011
0000
0000
1000
0001
1000
0000
,
0001
0000
0010
0000
0001
0010
0001
0000
0010
0000
0001
0000
1000
0100
1000
0000
,
0010
0000
0100
0000
0010
0100
0010
0000
0100
0000
0100
0000
0001
0000
1000
0000
,
0010
0000
0100
0000
0001
0000
0010
0000
0100
0010
0000
0001
0000
1001
0000
0000
,
0001
0000
1000
0000
0001
1000
0000
0010
0000
1000
0000
1000
0000
0000
0000
0000
,
2001
0000
3001
0000
0101
0000
0001
0001
,
1000
0200
0000
2000
3300
0000
1010
0000
,
1001
0000
1100
0000
0011
0000
1000
0001
,
0010
0200
0000
1000
0000
0010
0300
0000
,
1000
0010
0000
0100
0000
0001
0000
1000
0001
0000
0001
0000
2000
0000
0000
0000
,
0000
3000
0000
0011
0000
1001
0000
0000
,
0100
0000
0100
0000
0100
0000
0010
0000
0010
0000
0010
0000
0001
0010
0001
0000
,
1000
0100
1000
0000
0001
0010
0001
0000
1000
0100
1000
0000
1001
0000
0000
0000
,
2002
0000
3003
0000
;

//---------------dance-single - ----------------
#NOTES:
     dance-single:
     :
     Medium:
     7:
     0.499,0.478,0.441,0.220,0.000,270.000,42.000,21.000,0.000,0.000:
0000
0000
0000
0000
,
1000
0000
0001
0000
1000
0000
0010
1000
,
0000
0002
0000
1003
0000
0000
1010
0000
,
1001
0000
0101
0000
0010
0000
0100
1000
,
0000
0001
0000
1000
0000
1001
0000
0000
,
1000
0001
1000
0001
1000
0001
0000
0000
,
1010
1010
1100
1100
,
1000
0100
1000
0100
1000
0100
2000
0000
,
0010
0001
0100
3010
,
1001
0000
1000
0000
0010
0000
0100
0001
,
0000
0002
0000
1003
0000
0000
1001
0000
,
0001
0000
1000
0000
0010
0000
0100
0010
,
0000
0200
0000
0320
0000
2030
0000
3000
,
0010
1000
0010
0100
0010
1000
0000
0000
,
0001
0101
0001
1001
,
1000
0010
1000
0001
1000
0100
1000
0000
,
1010
1001
1100
1001
,
0100
0001
0010
0000
0100
1000
0010
0000
,
0100
0001
0010
0000
0100
1000
0100
0000
,
0010
0000
0001
0000
0200
0010
0310
0000
,
2002
0000
0000
0000
0000
3003
1001
0000
,
1000
0010
0100
0000
0001
0010
0100
0000
,
1000
0010
0100
0000
0001
0010
0100
0000
,
1000
0000
0001
0100
0001
0000
0202
0000
,
0000
0000
0303
1001
,
0010
0000
0100
0000
0010
0000
1000
0001
,
1000
0001
0000
1000
0000
0000
1010
0000
,
1001
0000
1001
0000
0100
0000
0001
0010
,
0001
0010
0000
0002
0000
1003
0000
0000
,
1000
0010
1000
0010
1000
0010
0000
0000
,
1001
0000
0000
0200
0000
0301
0000
0000
,
0010
0100
1000
0001
0010
0100
1000
0010
,
1000
0100
1000
0010
1000
0100
1000
0000
,
0002
0000
0103
0000
0001
0000
1000
0100
,
0010
0001
0000
1000
0000
0000
1001
0000
,
0020
0000
0130
0000
0010
0000
1000
0010
,
0100
0001
0000
0001
0000
0001
0000
0000
,
1000
0010
0100
0001
1000
0010
0000
1001
,
0000
1001
0000
2000
0000
3001
0000
0000
,
0001
0010
0100
1000
0001
0010
0100
1000
,
0100
1000
0100
1000
0100
1000
0100
0000
,
1001
0010
1001
0100
,
0011
0100
1010
0010
,
1001
0000
0001
1000
0001
1000
0001
0000
,
2002
0000
0000
0000
0000
3003
0010
0000
,
1001
0100
1001
0010
,
1010
0000
0100
0000
0101
0000
0001
0010
,
0100
1000
0100
0010
0001
0010
0200
0000
,
0000
0000
0000
0000
0000
0300
0010
0000
,
1001
0000
0101
0000
0010
0000
1000
0001
,
1000
0001
0000
1000
0000
0000
1001
0000
,
0010
0000
1001
0000
0100
0000
0010
0100
,
0010
0100
0000
0020
0000
1030
0000
0000
,
1000
0100
1000
0100
1000
0100
0000
1000
,
0000
1000
0000
0002
0000
0103
0000
0000
,
0001
0100
0001
0100
0001
0100
0000
0000
,
1000
0001
1000
0100
1000
0100
0000
0000
,
1001
0000
0000
0000
;

//---------------dance-single - Copied from----------------
#NOTES:
     dance-single:
     Copied from:
     Easy:
     5:
     0.370,0.359,0.325,0.084,0.000,208.000,31.000,8.000,0.000,0.000:
0000
0000
0000
0000
,
1000
0000
0001
0000
1000
0000
0010
0100
,
0000
0001
0000
0001
0000
0000
0010
0000
,
1001
0000
0100
0000
0010
0000
0100
0001
,
0000
0010
0000
0100
0000
1000
0000
0000
,
1000
0001
1000
0000
,
1001
1001
0010
0100
,
1000
0100
1000
0000
,
0010
0001
0100
0010
,
1001
0000
1000
0000
0010
0000
0100
0001
,
0000
1000
0000
0001
0000
0000
1001
0000
,
0001
0000
1000
0000
0010
0000
0100
0010
,
0000
1000
0000
0100
0000
0010
0000
0000
,
0010
0001
1000
0000
,
1010
1000
0001
1001
,
0001
1000
1000
1100
,
1000
0101
0001
1001
,
0100
0100
0010
0010
,
1000
1000
0100
0100
,
0010
0000
0001
0000
2000
0010
3010
0000
,
1001
0000
0000
1001
,
1000
0100
0001
0100
,
1000
0010
0001
0010
,
1000
0001
0001
0202
,
0000
0000
0303
1001
,
0010
0000
0100
0000
0010
0000
1000
0001
,
1000
0001
0000
1000
0000
0000
0010
0000
,
1001
0000
1001
0000
0100
0000
0001
0010
,
0001
0010
0000
0001
0000
1000
0000
0000
,
1000
1001
0001
1001
,
0000
0010
0010
0100
,
0100
0001
0010
1000
,
0010
0001
1000
0000
,
0002
0000
0103
0000
0001
0000
1000
0010
,
1000
0010
0000
1000
0000
0000
1001
0000
,
0020
0000
0130
0000
0010
0000
1000
0100
,
0000
0010
0000
0001
0000
0010
0001
0000
,
0001
0000
1000
0010
,
0100
0000
0001
0010
,
0100
0000
1000
0010
,
1000
0001
0100
0010
,
1001
0010
1001
0100
,
0110
0100
0110
0010
,
1000
0001
1000
2002
,
0000
0000
3003
0010
,
1001
0100
1001
0010
,
0100
0010
1000
0001
,
0100
0100
0001
0200
,
0000
0000
0000
0000
0000
0300
0010
0000
,
1001
0000
0001
0000
0010
0000
0001
1000
,
0000
0001
0000
1000
0000
0000
1001
0000
,
0010
0000
1001
0000
0100
0000
0010
0100
,
0000
0010
0000
0100
0000
0010
0000
0000
,
1000
0001
0100
0010
,
1000
1001
0000
0000
,
0001
0100
0001
0100
,
0010
1000
0001
0000
,
0110
0000
0000
0000
;
