#TITLE:Brandish Headless;
#SUBTITLE:;
#ARTIST:S.S.H.;
#TITLETRANSLIT:;
#SUBTITLETRANSLIT:;
#ARTISTTRANSLIT:;
#CREDIT:;
#BANNER:../bn.png;
#BACKGROUND:../veyron.png;
#LYRICSPATH:;
#CDTITLE:;
#MUSIC:Brandish Headless.ogg;
#OFFSET:0.000;
#SAMPLESTART:79.600;
#SAMPLELENGTH:17.400;
#SELECTABLE:YES;
#BPMS:0.000=220.081;
#STOPS:;
#BGCHANGES:;
// cache tags:
#FIRSTBEAT:8.000;
#LASTBEAT:581.000;
#SONGFILENAME:Songs/Cirque du Veyron/Zaia - Brandish Headless/Brandish Headless.sm;
#HASMUSIC:1;
#HASBANNER:1;
#MUSICLENGTH:161.997;
// end cache tags

//---------------dance-single - Zaia----------------
#NOTES:
     dance-single:
     Zaia:
     Challenge:
     13:
     1.000,1.000,0.068,0.661,0.670,1148.000,11.000,107.000,32.000,0.000:
0000
0000
0000
0000
,
0000
0000
0000
0000
,
0001
0100
0100
0001
1000
1000
0100
0010
,
0010
0001
1000
1000
0010
0100
0101
0001
,
1000
0100
0100
0010
0001
0001
0010
0100
,
0100
1000
0001
0001
1000
0100
1000
0010
,
0100
0001
0001
1000
0001
0001
0100
0010
,
0010
1000
0100
0100
1000
0010
0100
0001
,
1001
0000
0000
1100
0000
0000
0110
0000
,
0011
0000
0001
0000
1000
0000
1010
0000
1000
0000
0001
0000
0010
0001
0010
0000
,
0001
0100
0001
1000
0001
0010
0001
0100
,
0001
0010
0001
1000
0010
0100
0010
1000
,
0100
1000
0001
1000
0010
1000
0100
1000
,
0010
1000
0001
1000
0100
0010
0001
0100
,
0010
1000
0010
0100
0001
1000
0001
0100
,
0010
1000
0010
0100
0001
0010
0100
0010
,
0002
1003
0002
0013
0002
0103
0002
1003
,
0200
0000
0310
0000
0200
0000
1300
0000
0002
0000
0103
0000
0010
1000
0010
1000
,
0002
0100
1000
0010
,
2003
0100
0001
0010
,
3002
0100
1000
0010
,
1003
0100
0010
0100
0010
0001
1000
0100
0010
0100
0010
0001
1000
0001
0010
0001
,
1000
0010
0100
0001
0100
0010
1000
0001
1000
0001
0100
0010
1000
0001
1000
0001
,
0100
0010
0100
0000
0001
0000
1000
0100
1000
0000
0001
0000
1000
0000
0001
0000
,
0010
0100
0010
0000
0001
0000
1000
0000
0010
0100
0001
0000
0100
0000
0010
0000
,
1000
0001
1000
0001
1000
0010
1000
0001
,
0100
0000
0001
0000
0100
0000
0001
0000
0100
0000
0001
0100
0001
0000
1000
0001
,
1000
0001
1000
0001
1000
0010
1000
0010
,
0100
0000
0010
0000
0100
0000
0010
0000
0100
0010
0100
0000
0001
0000
0100
0000
,
0010
1000
0010
1000
0010
1000
0010
1000
,
0001
1000
0001
1000
0100
1000
0100
1000
,
0100
0010
0001
0010
0100
1000
0001
1000
,
0010
0100
0010
1000
0001
0100
0010
0100
0010
1000
0001
0100
0010
1000
0010
0100
,
0001
1000
0001
1000
0001
0100
0001
1000
,
0010
0000
1000
0000
0010
0000
1000
0000
0010
0000
1000
0010
1000
0000
0001
1000
,
0001
1000
0001
1000
0001
0100
0001
0100
,
0010
0000
0100
0000
0010
0000
0100
0000
0010
0100
0010
0000
1000
0000
0010
0000
,
0100
0001
0100
0001
0100
0001
0100
0001
,
1000
0001
1000
0001
0100
0001
0010
0001
,
0010
0100
1000
0100
0010
0001
1000
0001
,
1000
0001
0010
0100
1000
0001
1000
0001
0010
0100
1000
0001
1000
0010
0100
0001
,
0010
0100
0010
0100
0010
0100
1000
0001
,
0100
0000
0001
0000
0100
0000
0001
0000
0100
0000
0001
0100
0001
0000
1000
0000
,
0100
0010
0100
0010
0100
1000
0001
0100
,
0010
0000
0100
0000
0010
0000
0100
0000
0010
0100
0010
0000
1000
0000
0010
0000
,
0100
0001
0100
0001
0100
0001
0100
0001
,
1000
0001
1000
0001
1000
0100
1000
0100
,
0010
0001
1000
0001
0100
0010
1000
0100
,
0010
0001
1000
0100
0010
0100
1000
0001
1000
0001
0100
0010
1000
0010
0100
0001
,
0100
0010
0100
0010
0100
0010
1000
0001
,
0010
0000
0001
0000
0010
0000
0001
0000
0010
0000
0001
0010
0001
0000
1000
0010
,
0100
0010
0100
0010
0100
0001
1000
0100
,
0010
0000
0100
0000
0010
0000
0100
0000
0010
0100
0010
0000
0001
0000
0010
0000
,
0100
1000
0100
1000
0100
1000
0100
1000
,
0001
1000
0001
1000
0001
0100
0001
0100
,
0010
1000
0001
1000
0100
0010
0001
0100
,
0010
1000
0001
0100
0010
0100
0001
1000
0001
1000
0100
0010
0001
1000
0010
1000
,
0002
0000
0200
0300
,
1003
0200
0000
0320
0000
0130
1000
0001
,
2000
0000
0020
0030
,
3002
0000
0000
2003
0000
0000
0000
0000
,
3200
0000
0320
0000
,
0032
0000
2003
0000
,
3001
0000
0100
0020
0000
0000
0030
0000
,
2020
3030
0000
0000
0000
0000
0000
0000
2000
3000
0000
0000
2002
0000
0000
0000
0000
0000
0000
0000
0000
0000
0000
0000
0003
0000
0000
0000
0000
0000
0000
0000
,
3002
0000
0023
0000
,
0130
1000
0010
0100
0001
0010
0001
0100
,
0020
0000
2030
0000
,
3002
0000
0000
0023
0000
0000
0000
0000
,
0031
0100
0001
0000
1000
0100
1000
0000
,
0001
0100
0001
0000
1000
0000
0000
0000
0001
0010
0001
0000
1000
0000
0000
0000
,
0001
0010
0001
0000
1000
0010
1000
0000
,
0002
1000
1003
0020
0100
0130
0001
1000
,
0100
0010
0100
1000
0100
0010
0100
1000
,
0100
0010
0100
0010
0001
0010
0001
1000
,
0001
0100
0001
0010
0001
1000
0001
0100
,
0010
1000
0010
1000
0001
1000
0001
0010
,
0001
1000
0100
1000
0001
0010
0001
1000
,
0010
0100
0001
0010
0001
0100
0001
0010
,
0200
0300
0000
0000
1000
0000
0000
0000
0020
0030
0000
0000
1000
0000
0000
0000
0002
0003
0000
0000
1000
0000
0000
0000
0200
0300
0000
0000
1000
0000
0000
0000
,
0002
0003
0000
0000
0100
0000
0000
0000
0020
0030
0000
0000
0100
0000
0000
0000
0002
0003
0000
0000
0010
0000
0000
0000
0001
0000
1000
0000
0010
0000
1000
0000
,
0001
0000
0100
M00M
0100
0000
1000
0000
0100
M00M
0100
0000
0010
0000
0100
M00M
,
0100
0000
1000
0000
0100
M00M
0100
0000
0001
0000
0010
0000
0100
0000
1000
0000
,
0001
0000
0010
M00M
0010
0000
1000
0000
0010
M00M
0010
0000
0100
0000
0010
M00M
,
0010
0000
1000
0000
0010
M00M
0010
0000
0001
0000
0010
0000
0100
0000
1000
0000
,
0010
0000
0100
M00M
0100
0000
1000
0000
0100
M00M
0100
0000
0010
0000
0100
M00M
,
0100
0000
1000
0000
0100
M00M
0100
0000
0001
0000
0010
0000
0100
0000
1000
0000
,
0001
0000
0000
0000
0020
0030
0000
0000
0001
0000
0000
0000
0200
0300
0000
0000
0001
0000
0000
0000
2000
3000
0000
0000
0001
0000
0000
0000
0200
0300
0000
0000
,
0010
1010
0000
0000
0001
0010
0100
1000
,
0001
0010
0100
0010
0100
1000
0001
0100
0010
0100
0010
1000
,
0010
0100
0001
1000
0001
1000
0010
0100
0001
1000
0001
1000
,
0100
0010
0100
0000
1000
0000
0100
0010
0100
0000
1000
0000
0001
0000
1000
0000
,
0010
0100
0010
0000
1000
0000
0100
0000
1000
0010
0100
0000
0010
0000
0100
0000
,
0002
0000
0000
0203
0000
0000
0302
0000
,
0000
1003
0010
1000
0001
0100
0001
1000
,
0001
0010
0100
1000
0000
0000
0001
0000
,
0010
0000
0000
0000
0001
0000
1000
0000
0000
0000
0010
0100
0001
0000
1000
0000
,
0100
1000
0010
1000
0001
1000
0100
1000
,
0020
0230
0302
2003
,
3200
0000
0000
0320
0000
0130
1000
0001
,
0100
0010
1000
0010
0100
0001
1000
0010
0100
0001
1000
0100
0010
0001
1000
0001
,
0100
0000
0000
0000
0001
0000
0000
0000
1000
0000
0000
0000
0200
0300
0000
0000
M00M
0000
0000
0000
0100
0000
0000
0000
0001
0000
0000
0000
1000
0000
0000
0000
,
0020
0030
0000
0000
M00M
0000
0000
0000
0010
0000
0000
0000
0001
0000
0000
0000
1000
0000
0000
0000
0200
0300
0000
0000
M00M
0000
0000
0000
0100
0000
0000
0000
,
0001
0000
0000
0000
1000
0000
0000
0000
0020
0030
0000
0000
M00M
0000
0000
0000
0010
0000
0000
0000
0001
0000
0000
0000
1000
0000
0000
0000
0200
0300
0000
0000
,
0000
1000
0001
1000
0010
0100
0001
0010
,
0200
0000
1300
0200
0000
1300
0001
1000
,
0010
0000
0000
0000
0100
0000
0000
0000
0001
0000
0000
0000
0020
0030
0000
0000
0100
0000
0000
0000
1000
0000
0000
0000
0100
0000
0000
0000
0010
0000
0000
0000
,
0002
0000
0000
0000
,
1003
0010
1000
0001
1000
0100
1000
0001
0010
0100
1000
0001
0010
0001
1000
0001
,
0100
0010
1000
0001
0010
0100
0010
0001
,
1000
0000
0010
0000
0100
0000
0001
0000
0100
0001
1000
0000
0100
0000
0010
0000
,
0001
0000
0100
0000
0010
0000
1000
0000
0000
0000
0010
0100
0001
0000
1000
0000
,
0100
0000
0010
0000
0100
0000
1000
0000
0000
0000
0001
0010
0100
0000
1000
0000
,
0010
0100
0001
0100
0010
1000
0001
1000
0001
0010
0100
1000
,
0002
0000
1003
0020
0000
0230
0000
0000
,
0302
0000
0000
0000
0203
0320
2030
3001
,
1000
0001
0010
0100
0010
0100
1000
0001
0010
0100
0010
0100
1000
0001
1000
0010
,
0100
0001
1000
0010
0100
0001
1000
0001
0100
0010
1000
0001
1000
0100
0010
0001
,
1000
0010
0100
0001
1000
0100
0010
0001
1000
0001
1000
0010
0100
0001
1000
0001
,
1000
0010
0100
0001
0100
0010
1000
0010
0100
0001
1000
0001
1000
0100
1000
0001
,
0010
0100
1000
0001
1000
0100
0010
0001
2000
0000
0000
0000
0000
0000
0000
0000
,
3001
0100
0010
1000
0001
1000
0001
0100
0010
1000
0001
1000
0001
0100
0010
1000
,
0001
0010
0100
1000
0001
1000
0100
1000
0001
0010
0100
0010
0001
0010
0100
1000
,
0100
0010
0100
1000
0001
0010
0200
0000
0000
0000
0000
0000
0000
0000
0000
0000
,
1300
0000
0001
0010
0001
0000
1000
0000
0001
0010
0001
0000
0010
0100
0010
0100
,
1000
0001
0010
0100
1000
0001
0100
0010
0100
0001
1000
0010
0100
0001
1000
0001
,
0100
0000
0010
0100
0001
0000
1000
0000
0001
0010
0100
0000
1000
0100
0010
0000
,
0002
0000
0000
0000
,
2003
0000
3020
0000
,
0230
0000
0000
0000
0000
0000
0302
0000
0000
0000
0000
0000
0203
0000
0000
0000
0000
0300
0020
0000
0000
0000
0000
0030
2000
0000
0000
3000
0000
0000
0020
0000
0000
0030
0000
0000
0200
0000
0300
0000
0000
0000
0020
0000
0030
0000
0000
0000
,
2000
3000
0000
0000
0000
0000
0200
0300
0000
0000
0000
0000
0020
0000
0000
0030
0000
0000
0002
0000
0000
0000
0000
0000
0000
0000
0000
0000
0000
0000
2003
0000
0000
0000
0000
0000
0000
0000
0000
0000
0000
0000
3010
0000
0000
0000
0000
0000
,
0200
0000
0301
0020
0000
0000
0030
0000
,
2200
3300
0000
0000
0000
0000
0000
0000
2000
3000
0000
0000
2002
0000
0000
0000
0000
0000
0000
0000
3000
0000
0000
0000
0000
0000
0000
0000
0000
0000
0000
0000
,
2003
0000
0000
0000
3020
0000
0000
0130
,
0001
0010
0001
0100
0010
1000
0100
0010
,
0200
0000
0000
0000
2300
0000
0000
3002
,
0000
0000
2003
0000
,
3001
0010
0001
0000
1000
0010
1000
0000
,
0001
0100
0001
0000
1000
0000
0000
0000
0001
0010
0001
0000
1000
0000
0000
0000
,
0001
0100
0001
0000
1000
0100
1000
0000
,
0002
0010
0013
0200
1000
1300
0010
0100
,
0010
0100
0001
1000
0001
1000
0100
0010
0001
1000
0001
1000
0010
0100
0001
1000
,
0010
0000
0100
0000
0010
0000
0100
0000
0010
0100
0001
0000
0100
0000
0010
0000
,
2000
0000
0000
0000
,
3001
0100
0010
1000
0001
1000
0001
0010
0100
1000
0001
1000
0020
0000
0000
0000
,
0000
0030
0000
0000
;
