#TITLE:Simply Being Loved;
#SUBTITLE:;
#ARTIST:BT;
#TITLETRANSLIT:;
#SUBTITLETRANSLIT:;
#ARTISTTRANSLIT:;
#CREDIT:Brother Mojo for the ogg;
#BANNER:simplyBAN.png;
#BACKGROUND:simplyBG.png;
#LYRICSPATH:;
#CDTITLE:;
#MUSIC:Somnambulist.ogg;
#OFFSET:-0.113;
#SAMPLESTART:44.879;
#SAMPLELENGTH:12.000;
#SELECTABLE:YES;
#DISPLAYBPM:136.000;
#BPMS:0.000=136.000,28.000=816.000,31.000=136.000,59.000=816.000,60.000=136.000,63.500=816.000,65.000=136.000,78.500=816.000,79.500=136.000,86.500=136.000,148.500=816.000,152.500=136.000,162.500=816.000,166.000=136.000,174.500=816.000,175.500=136.000,181.250=816.000,184.250=136.000,204.000=100000.000,208.000=136.000,220.500=68.000,225.000=272.000,226.000=68.000,231.000=816.000,234.000=136.000,259.000=100000.000,262.000=136.000;
#STOPS:28.000=0.120
,28.333=0.120
,28.667=0.120
,29.000=0.120
,29.333=0.120
,29.667=0.120
,30.000=0.120
,30.333=0.120
,30.667=0.120
,59.000=0.020
,59.083=0.040
,59.167=0.020
,59.250=0.040
,59.333=0.020
,59.417=0.040
,59.500=0.020
,59.583=0.040
,59.667=0.020
,59.750=0.040
,59.833=0.020
,59.917=0.040
,63.500=0.060
,63.750=0.060
,64.000=0.060
,64.250=0.060
,64.500=0.060
,64.750=0.060
,78.500=0.060
,78.667=0.060
,78.833=0.060
,79.000=0.060
,79.167=0.060
,79.333=0.060
,79.500=0.020
,148.500=0.120
,148.833=0.120
,149.167=0.120
,149.500=0.120
,149.833=0.120
,150.167=0.120
,150.500=0.120
,150.833=0.120
,151.167=0.120
,151.500=0.360
,162.500=0.060
,162.667=0.060
,162.833=0.060
,163.000=0.060
,163.167=0.060
,163.333=0.060
,163.500=0.240
,164.000=0.060
,164.167=0.060
,164.333=0.060
,164.500=0.060
,164.667=0.060
,164.833=0.060
,165.000=0.060
,165.167=0.060
,165.333=0.060
,165.500=0.060
,165.667=0.060
,165.833=0.060
,174.500=0.040
,174.625=0.040
,174.750=0.040
,174.875=0.040
,175.000=0.040
,175.125=0.040
,175.250=0.080
,181.250=0.180
,181.750=0.180
,182.250=0.180
,182.750=0.180
,183.250=0.180
,183.750=0.180
,184.250=0.060
,225.000=0.040
,225.167=0.040
,225.333=0.040
,225.500=0.040
,225.667=0.040
,225.833=0.040
,231.000=0.120
,231.333=0.120
,231.667=0.120
,232.000=0.120
,232.333=0.120
,232.667=0.120
,233.000=0.120
,233.333=0.120
,233.667=0.120
,262.000=0.420
;
#BGCHANGES:;
// cache tags:
#FIRSTBEAT:16.000;
#LASTBEAT:262.500;
#SONGFILENAME:Songs/Rodd's Revival/Simply Being Loved (Rodd Steps)/Somnanmbulist.sm;
#HASMUSIC:1;
#HASBANNER:1;
#MUSICLENGTH:119.902;
// end cache tags

//---------------dance-single - R. Farias----------------
#NOTES:
     dance-single:
     R. Farias:
     Challenge:
     10:
     0.697,0.848,0.158,0.492,0.876,507.000,19.000,59.000,130.000,0.000:

0000
0000
0000
0000
,
0000
0000
0000
0000
,
0000
0000
0000
0000
,
0000
0000
0000
0000
,
1000
0000
0100
0000
0010
0000
0011
0000
0000
0000
0001
0100
0020
0000
0000
0000
,
0130
0000
0001
0000
1000
0100
2000
0000
3000
0000
0100
0000
0010
0001
0000
0001
,
0100
0010
1000
0200
0300
0010
0012
0000
,
0103
0010
1000
0100
0010
0001
0100
0010
0100
0002
0000
0000
,
1003
0100
0010
0001
0000
0100
0010
0100
0000
0010
1000
0100
0000
0010
0001
0100
,
0000
0100
0010
1000
0000
0100
0010
0001
0010
0100
1000
0001
0000
0100
0010
1000
,
0100
0010
0001
1000
0100
0010
0100
1000
0001
0100
0010
1000
0000
0100
0010
0100
,
0010
0001
0100
0001
0000
0100
0010
1000
0100
0010
0100
1000
0000
0001
0100
0010
,
1000
0100
1000
0100
1000
0100
0010
0001
0100
0010
1000
0100
0000
0010
0001
0010
,
0001
0100
0001
0100
0000
0010
1000
0010
1000
0010
1000
0100
0000
0010
0001
0000
,
0001
0000
0000
0100
0000
0000
0010
0000
0000
1000
0000
0000
0001
0000
0000
0100
0000
0000
0010
0000
0000
1000
0000
0000
0100
0000
0000
0010
0000
0000
0100
0000
0000
1000
0000
0000
0001
0000
0100
0000
0001
0000
0100
0000
0001
0000
0100
0000
,
0010
1000
0100
0020
0000
0030
0000
0000
0002
0000
0003
0100
0020
0030
1000
0100
,
1000
0100
1000
0100
0010
0000
0001
0000
0100
0000
0010
0000
1000
0000
0100
0000
,
1000
0002
0000
0003
0000
0100
0010
1000
,
0100
0000
0010
0001
1000
0001
0100
0010
,
1000
0000
0000
0200
0000
0000
0000
0000
0000
0300
0000
0000
0010
0000
0000
0001
0010
0100
1000
0100
0010
0001
0000
0000
,
0200
0000
0000
0300
0010
0000
1000
0000
0100
0000
0110
0000
0010
0000
0001
0000
,
0100
0000
0010
0000
1000
0000
0100
0000
0010
0001
0100
0000
0010
0000
1000
0000
,
0100
0000
0010
0000
0000
0000
0011
0000
0000
0001
0100
0000
0000
0000
0101
0000
,
0000
0100
0010
0000
0000
0000
0110
0000
0000
0010
1000
0000
0100
0000
0001
0000
,
0100
0000
0000
0010
0000
0000
0001
0000
0000
0100
0000
0000
0010
0000
0000
1000
,
0000
0000
0000
0000
0000
0000
1100
0000
0000
0000
0000
0000
0000
0000
0000
0110
0000
0000
0000
0000
0000
0000
0000
0000
0011
0000
0000
0000
0000
0000
0001
0000
0000
0000
0100
0000
0000
0000
0010
0000
0000
0000
1000
0000
0000
0000
0000
0000
,
0000
2100
0000
3100
0010
0110
0000
0010
,
0001
0100
0000
0100
0010
0000
0010
1000
0000
1000
0100
0000
0010
0000
0001
0000
,
0100
0101
0000
0100
0010
0210
0000
0310
,
1000
0100
0000
0100
1000
0000
1000
0001
0000
0001
0100
0000
0010
0000
0100
0000
,
0001
1001
0000
1000
0100
1100
0000
0010
,
0001
0100
0000
0010
1000
0000
0100
0010
0000
0001
0100
0000
0010
0000
0100
0000
,
0002
0000
0000
0000
0003
0000
1001
0000
0000
1000
0100
0000
0100
0010
0000
0010
,
0001
0000
0101
0000
0100
0010
0000
0010
1000
0000
0100
0000
0010
0000
0001
0000
,
1000
0000
0002
M000
00M0
0000
M000
00M0
0000
M000
0203
00M0
0000
M000
0000
000M
,
0000
0000
M32M
0000
0M00
0000
000M
0000
0M00
0000
1030
0000
0100
0000
0010
0001
,
0000
0000
0201
0000
0000
0000
0000
0300
0001
0100
0001
0000
0000
0000
0100
0000
,
0000
0000
0000
0010
0000
1000
0000
0001
0000
0100
0000
0010
0000
1000
0000
0100
0000
0010
0000
0001
0000
0020
0000
0000
,
0030
0001
0100
0010
0100
0001
1000
0100
,
0010
0002
0200
0003
0320
1000
1030
1000
,
1000
0000
0000
0000
0000
0000
0100
0000
0000
0000
0000
0000
0010
0000
0000
0001
0000
0000
0100
0000
0000
0010
0000
0000
1000
0000
0000
0000
0000
0000
0100
0000
10M0
0000
010M
0000
1000
0000
01M0
0000
100M
0000
010M
0000
0000
0000
0000
0000
,
0010
0001
M010
0002
0M00
0000
M000
0000
0M00
0000
M003
M000
0100
0000
0000
0010
0000
0000
1000
0000
0000
0001
0000
0000
,
0100
0110
0010
1000
0001
1000
0100
0010
,
0001
0000
0200
0000
0000
0000
0300
0000
0010
1000
0200
0000
0000
0000
0310
0000
,
0001
0000
0200
0000
0000
0000
0000
0000
0310
1000
0001
0100
0010
0000
0100
0000
,
0002
0003
2000
0000
0000
3002
0003
0200
0300
0020
0030
2000
3000
0002
0003
2000
,
3000
0000
0000
0200
0000
0000
0300
0000
0000
0000
0000
0000
0010
0000
0000
0000
0000
0000
0001
0000
0000
0000
0000
0000
0100
0000
0000
0000
0000
0000
0010
0000
0000
0000
0000
0000
1000
0000
0001
0000
1000
0000
0001
0000
0000
0000
0000
0000
,
1000
0200
0000
0300
0010
0001
0100
0010
,
1000
0000
0000
0000
0000
0000
0100
0000
0000
0010
0000
0000
0010
0000
0000
0001
0000
0000
0100
0001
0100
0001
0100
0001
,
0100
0010
2000
0000
3100
0100
0100
0100
,
0100
0000
0010
0001
1000
0001
0100
0010
,
2MM0
0000
0000
0000
0000
0000
0000
0000
0000
0000
0000
0000
0MM0
0000
0000
0000
0MM0
0000
0MM0
0000
0000
0000
0000
0000
0000
0000
0000
0000
0000
0000
0000
0000
0MM0
0000
0000
0000
0MM0
0000
0000
0000
0000
0000
0MM0
0000
0000
0000
0000
0000
0MM0
0000
0000
0000
0000
0000
0MM0
0000
0000
0000
0000
0000
0000
0000
0000
0000
0MM0
0000
0000
0000
0000
0000
0000
0000
0MM0
0000
0000
0000
0000
0000
0000
0000
0MM0
0000
0000
0000
0000
0000
0000
0000
0000
0000
0MM0
0000
0000
0000
0000
0000
0MM0
0000
0000
0000
0000
0000
0000
0000
0000
0000
0000
0000
0000
0000
0000
0000
0MM0
0000
0MM0
0000
0000
0000
0000
0000
0000
0000
0000
0000
0000
0000
0000
0000
0MM0
0000
0000
0000
0MM0
0000
0000
0000
0000
0000
0000
0000
0000
0000
0000
0000
0MM0
0000
0000
0000
0000
0000
0MM0
0000
0000
0000
0000
0000
0000
0000
0000
0000
0MM0
0000
0000
0000
0000
0000
0000
0000
0MM0
0000
0000
0000
0000
0000
0000
0000
0MM0
0000
0000
0000
0000
0000
0000
0000
0000
0000
0MM0
0000
0000
0000
0000
0000
,
0MM0
3001
0000
0000
0100
0010
1000
0100
,
0010
0002
0000
0203
0000
0320
0000
2030
,
0000
3200
0000
0320
0000
0031
0100
0010
,
1000
0000
0000
0000
0000
0000
0002
0000
00M0
0000
M000
0000
0M00
0000
0000
0000
M000
0000
0203
0000
0000
0000
0000
0000
0000
0000
M000
0320
0000
0000
000M
0000
0000
0000
0M00
0000
1030
0000
0000
0000
000M
0000
0100
0000
0000
0010
0000
0000
,
0001
0000
0000
0000
0000
0000
0100
0000
0000
0000
0000
0000
0010
0000
0000
0000
0000
0000
0000
0000
0000
0000
0000
0000
1000
0000
0000
0000
0100
0000
0000
0000
1000
0000
0000
0000
0200
0000
0000
0000
0000
0000
0000
0000
0000
0000
0000
0000
0000
0000
0000
0000
0000
0000
0000
0000
00M0
0000
0000
0000
0000
0000
0000
0000
0000
0000
0000
0000
0000
0000
0000
0000
000M
0000
0000
0000
0000
0000
0000
0000
0000
0000
0000
0000
0000
0000
0000
0000
0000
0000
0000
0000
0000
0000
0000
0000
M320
0000
0000
0000
0000
0000
0000
0000
0000
0000
0000
0000
0000
0000
0000
0000
0000
0000
0000
0000
0000
0000
0000
0000
0000
0000
0000
0000
0000
0000
0000
0000
0M00
0000
0000
0000
0000
0000
0000
0000
0000
0000
0000
0000
0000
0000
0000
0000
M032
0000
0000
0000
0000
0000
0000
0000
0000
0000
0000
0000
0000
0000
0000
0000
0000
0000
0000
0000
0000
0000
0000
0000
0000
0000
0000
0000
0000
0000
0000
0000
0000
0000
0000
0000
0003
0000
0000
0000
0000
0000
0000
0000
0000
0000
0000
0000
,
0100
0000
0000
0000
0000
0000
0000
0000
0000
0000
0000
0000
0010
0000
0000
0000
000M
0000
0000
0000
0000
0000
0000
0000
1000
0000
0000
0000
0000
0000
0100
0000
0000
0000
0000
0000
1000
0000
0000
0000
0000
0000
0000
0000
0000
0000
0000
0000
0200
0000
0000
0000
0000
0000
0000
0000
0000
0000
0000
0000
0000
0000
0000
0000
00M0
0000
0000
0000
0000
0000
0000
0000
0000
0000
0000
0000
0000
0000
0000
0000
000M
0000
0000
0000
0000
0000
0000
0000
0000
0000
0000
0000
0000
0000
0000
0000
0320
0000
0000
0000
0000
0000
0000
0000
M000
0000
0000
0000
0000
0000
0000
0000
0000
0000
0000
0000
0000
0000
0000
0000
0000
0000
0000
0000
0000
0000
0000
0000
0000
0000
0000
0000
0000
0000
0000
0000
0000
0000
0000
0000
0000
0000
0000
0000
0031
0000
0000
0000
0000
0000
0000
0000
0000
0000
0000
0000
0000
0000
0000
0000
0100
0000
0000
0000
0000
0000
0000
0000
0000
0000
0000
0000
0000
0000
0000
0000
0010
0000
0000
0000
0000
0000
0000
0000
0000
0000
0000
0000
0000
0000
0000
0000
,
1000
0000
0100
0000
0010
0000
0001
0000
0100
0000
0010
0000
1000
0000
0000
0100
0000
0000
0020
0000
0000
0000
0000
0000
,
0031
0000
0100
0000
0020
0000
0000
0000
1030
0000
0100
0010
0000
0010
0100
0000
,
0100
1000
0000
1000
0001
0000
0100
0000
0010
0000
1000
0000
0200
0000
0000
0000
,
0310
0000
0001
0000
0200
0000
0000
0000
0310
0000
1000
0100
0000
0010
0001
0000
,
0100
0010
0000
1000
0100
0000
0010
0000
0001
0000
0100
0000
0020
0000
0000
0000
,
0130
0000
0001
0000
2000
0000
0000
0000
3100
0000
0010
0001
0000
0001
0100
0000
,
0010
1000
0000
1000
0100
0000
0010
0000
0001
0000
1000
0000
MMM2
MMM0
MMM0
MMM0
,
MMM0
MMM0
MMM0
MMM0
MMM0
MMM0
MMM0
MMM0
MMM0
0000
0003
0000
0000
0000
0000
0000
;
