#TITLE:PARAVE;
#SUBTITLE:;
#ARTIST:Cranky;
#TITLETRANSLIT:;
#SUBTITLETRANSLIT:;
#ARTISTTRANSLIT:;
#CREDIT:owenviau1;
#BANNER:../BN.png;
#BACKGROUND:;
#LYRICSPATH:;
#CDTITLE:../CDTitleOV1.png;
#MUSIC:PARAVE.ogg;
#OFFSET:-1.080;
#SAMPLESTART:76.966;
#SAMPLELENGTH:29.999;
#SELECTABLE:YES;
#DISPLAYBPM:175.000;
#BPMS:0.000=90.000,48.000=87.500,64.000=175.000,600.000=125.000,601.000=126.000,602.000=126.998,603.000=127.999,604.000=128.998,606.000=129.004,607.000=128.998,608.000=129.999,609.000=131.003,610.000=130.997,611.000=131.003,612.000=132.003,613.000=132.998,614.000=134.002,615.000=135.000,616.000=135.999,617.000=136.999,618.000=137.999,621.000=139.000,622.000=140.000,626.000=141.000,628.000=141.999,629.000=143.004,630.000=144.000,631.000=145.002,632.000=146.002,633.000=147.000,634.000=148.003,635.000=149.003,636.000=150.000,637.000=151.999,638.000=153.998,639.000=155.996,640.000=156.995,641.000=157.005,642.000=157.998,644.000=160.005,645.000=162.003,646.000=164.001,647.000=165.997,650.000=167.003,651.000=168.000,652.000=169.997,653.000=171.997,654.000=173.999,655.000=176.001,657.000=178.002,658.000=179.001,659.000=180.000,662.000=140.000,664.000=175.000;
#STOPS:;
#BGCHANGES:;
// cache tags:
#FIRSTBEAT:4.000;
#LASTBEAT:664.000;
#SONGFILENAME:Songs/owenviau1 Simfiles 07_final/PARAVE - [owenviau1] v1.0.5/PARAVE.sm;
#HASMUSIC:1;
#HASBANNER:1;
#MUSICLENGTH:260.702;
// end cache tags

//---------------dance-single - 15+ (owenviau1)----------------
#NOTES:
     dance-single:
     15+ (owenviau1):
     Challenge:
     16:
     1.000,1.000,0.061,0.522,1.000,2202.000,16.000,136.000,5.000,4.000:

0000
0000
0000
0000
,
2001
0000
3020
0230
0302
0000
2003
3020
,
0231
0000
0000
0000
0000
0320
0000
2030
3002
0000
0000
0000
0023
0000
0230
0000
,
2301
3020
0230
0302
,
2003
0000
0000
0000
3004
0000
0000
0000
0203
0000
0000
0000
0000
0300
0002
0000
,
2003
3200
032M
M032
,
2003
0000
3002
0000
0M03
2000
3020
0230
,
0302
0000
0213
0000
,
0320
0000
0000
0000
0000
0000
0000
0000
0000
0000
0000
0000
200M
0000
0000
0030
0000
0000
0000
0000
0000
3001
0100
0001
,
0200
0000
0000
0000
,
0000
0000
0000
0000
,
0300
0000
0000
0000
,
0010
0000
0000
0000
1000
0000
0000
0000
1010
0000
0000
0000
0010
0000
0000
0000
0200
0000
0000
0000
0302
0000
0000
0003
2001
0000
0000
0000
3000
0000
0000
0000
,
2000
0000
0000
3000
0020
0000
0000
0030
0210
0000
0000
0300
0002
0003
2000
0000
0000
3000
0002
0003
0200
0000
0000
0300
0020
0000
0000
0000
0030
2000
3000
0000
,
0002
0000
0003
0000
0020
0000
0000
0030
0210
0000
0000
0300
1000
0000
0001
0000
2000
0000
0000
3000
0020
0000
0030
0000
0200
0000
0000
0000
0000
0300
0000
0000
,
0002
0000
0000
0003
2000
0000
0000
3000
1020
0000
0000
0030
0200
0300
0002
0000
0000
0003
2000
3000
0020
0000
0000
0000
0130
0000
0001
0000
1000
0000
0001
0000
,
0100
0000
0010
0000
1000
0000
0001
0000
1000
0010
1000
0001
0100
0000
0010
0000
,
0100
0000
0000
0000
0000
0000
0001
0000
1000
0000
0001
0000
1000
0000
0000
0000
0000
0000
0100
0000
0000
0000
0000
0000
0010
0000
0000
0000
0000
0000
0001
0000
0000
1000
0000
0000
0010
0000
0000
0000
0000
0000
0100
0000
0000
0000
0000
0000
,
0020
0000
1030
0000
0002
0000
0013
0000
0200
0000
1300
0001
2000
3000
0020
0030
,
0100
0000
0000
0000
0000
0000
0002
0000
0013
0000
0001
0000
0020
0000
0000
0030
0000
0000
0100
0000
0000
0000
0000
0000
2000
0000
0000
0000
0000
0000
3010
0000
0000
0100
0000
0000
0010
0000
0000
0000
0000
0000
1000
0000
0000
0000
0000
0000
,
1M01
0000
0001
0000
0010
0000
0100
0000
1000
0000
0010
0100
0010
0000
1000
0000
,
0001
0000
0000
0000
0000
0000
1000
0000
0100
0000
1000
0000
0100
0000
0000
0000
0000
0000
0010
0000
0000
0000
0000
0000
0001
0000
0000
0000
0000
0000
1000
0000
0000
0010
0000
0000
0100
0000
0000
0000
0000
0000
0001
0000
0000
0000
0000
0000
,
2000
0000
3001
0000
0020
0000
0130
0000
2000
0000
3001
0100
0002
1003
0020
0130
,
0010
0000
0000
0000
0000
0000
2000
0000
0000
3000
0000
0000
0002
0000
0000
0000
0000
0000
0003
0000
0000
0000
0000
0000
2000
0000
0000
0000
0000
0000
3010
0000
0000
0000
0000
0000
0100
0000
0001
0000
1000
0000
0001
0000
0000
0010
0000
0000
,
0100
1000
0001
0100
0010
1000
0010
0100
0001
1000
0001
0010
0100
1000
0001
0010
,
0001
0100
0010
1000
0001
0100
0010
1000
0001
0010
0100
1000
0010
0100
0001
1000
,
0010
1000
0001
0100
0010
1000
0001
0010
0100
1000
0010
0100
0001
0100
0010
1000
,
0001
1000
0100
0010
0001
0100
0001
1000
0010
0100
0001
1000
0100
0010
0001
1000
,
0100
1000
0001
0100
0010
0100
0001
1000
0001
0010
0100
1000
0001
0010
0001
0100
,
0010
1000
0010
0100
0001
1000
0001
0100
0010
1000
0001
0010
0100
1000
0001
0010
,
0001
0100
0010
1000
0010
0100
0001
1000
0001
0100
0010
1000
0001
0010
0100
1000
,
0020
0000
0030
0000
0200
0000
0000
0300
0002
0003
2000
3000
0200
0300
2000
3000
,
0001
0010
0001
1000
0010
0100
0001
1000
0100
1000
0010
0100
0001
1000
0100
0010
,
0001
1000
0001
0100
0010
1000
0001
0100
0001
1000
0010
0100
0010
1000
0001
0100
,
0001
0010
0100
1000
0001
0010
0001
1000
0100
0010
0001
1000
0100
1000
0001
0100
,
0001
1000
0010
0100
0001
1000
0100
1000
0001
0100
0010
0100
0001
1000
0010
0100
,
0001
1000
0010
1000
0100
0010
0001
0100
0001
1000
0010
0100
0001
0010
0001
1000
,
0100
1000
0001
0100
0010
1000
0001
0100
0001
1000
0010
0100
0010
1000
0001
0010
,
0100
1000
0001
0010
0001
0100
0010
1000
0010
0100
0001
1000
0001
0010
0100
1000
,
0001
0010
0001
0100
0010
0100
0001
1000
0010
1000
0100
0010
0001
0100
0010
1000
,
0010
0100
0001
1000
0001
0010
0100
1000
0001
0010
0001
0100
0010
0100
0001
1000
,
0001
0100
0010
1000
0001
0100
0001
0010
0100
1000
0100
0010
0001
1000
0100
1000
,
0001
0100
0010
1000
0001
0100
0001
1000
0010
0100
0010
1000
0001
0100
0001
0010
,
0100
1000
0001
0010
0001
0100
0010
1000
0010
0100
0001
1000
0001
0100
0010
1000
,
0001
0010
0100
1000
0001
0010
0001
0100
0010
0100
0001
1000
0010
1000
0100
0010
,
0001
0100
0001
1000
0010
1000
0001
0100
0010
1000
0001
0010
0001
0100
0010
1000
,
0010
0100
0001
1000
0001
0010
0100
1000
0001
0100
0010
1000
0100
1000
0001
0100
,
0010
0000
0000
0100
0000
0000
0001
0000
1000
0000
0001
0000
1000
0000
0000
0010
0000
0000
0100
0000
0001
0000
0100
0000
0001
0000
0000
1000
0000
0000
0010
0000
0000
0100
0000
0000
0001
0000
0000
1000
0000
0000
0100
0000
0000
1000
0000
0000
,
0001
0010
0100
1000
0010
0100
0001
1000
0010
1000
0100
0010
0001
1000
0100
1000
,
0001
0100
0001
0010
0100
1000
0001
0010
0001
0100
0010
0100
0001
1000
0010
1000
,
0100
0010
0001
1000
0100
1000
0001
0010
0001
1000
0010
1000
0001
0100
0001
1000
,
0010
0100
0001
0100
0010
1000
0001
0010
0100
1000
0001
0010
0001
0100
0010
0100
,
0001
1000
0100
1000
0010
0100
0001
0100
0010
1000
0001
1000
0100
0010
0001
1000
,
0100
1000
0010
0100
0001
0100
0010
1000
0001
0010
0100
1000
0001
0010
0001
1000
,
0100
1000
0001
0100
0010
1000
0010
0100
0001
0000
1000
0000
0010
0000
0100
0001
,
1000
0100
0010
0001
0100
0001
1000
0010
0100
0010
1000
0001
0010
0001
0100
0010
,
1000
0010
0100
0001
1000
0001
0010
0100
1000
0001
0010
0001
0100
0010
0100
0001
,
1000
0010
1000
0001
0100
0010
0100
0001
1000
0100
1000
0001
0010
0100
1000
0001
,
0010
0001
0100
0010
0100
0001
1000
0010
1000
0001
0100
0001
1000
0100
0010
0001
,
0100
0001
1000
0010
0100
0010
1000
0001
0000
0000
4000
0000
0000
0000
3010
0000
,
0100
0001
1000
0100
0010
0001
0100
0001
1000
0010
0100
0001
0100
0010
1000
0001
,
0010
0100
1000
0001
0010
0001
0100
0010
0100
0001
1000
0010
1000
0001
0100
0001
,
1000
0010
0100
0001
0100
0010
1000
0001
0010
0100
1000
0001
0100
0001
0010
0100
,
1000
0001
0010
0001
1000
0100
1000
0010
0100
0010
1000
0001
0100
0001
1000
0010
,
1000
0100
0010
0001
0100
0001
0010
0100
1000
0001
1000
0010
0100
0001
0100
0010
,
1000
0001
1000
0100
0010
0001
1000
0100
1000
0010
0100
0001
0010
0001
1000
0100
,
1000
0001
0100
0010
0100
0001
1000
0001
0100
0010
1000
0001
0010
0001
0100
0010
,
0100
0000
0000
0001
0000
0000
1000
0000
0000
0010
0000
0000
0100
0000
0000
0001
0000
0000
0100
0000
0000
0010
0000
0000
4000
0000
0000
0000
3000
0000
0004
0000
0000
0003
0000
0000
4000
0000
0000
0000
3000
0000
0004
0000
0000
0003
0000
0000
,
0100
0010
0100
0001
1000
0010
1000
0100
0010
0001
0100
0001
1000
0010
0100
0001
,
0100
0010
1000
0001
0010
0100
1000
0001
0010
0001
0100
0010
0100
0001
1000
0010
,
1000
0001
0100
0001
0010
0100
1000
0001
0010
0001
1000
0100
1000
0001
0100
0010
,
2000
0000
3010
0000
0200
0000
0301
0000
4000
0000
0000
3010
0100
0000
0001
0000
,
1000
0100
0010
0001
0100
0001
1000
0010
0100
0010
1000
0001
0010
0001
0100
0010
,
0100
0000
0000
0001
0000
0000
1000
0000
0000
0010
0000
0000
1000
0000
0000
0001
0000
0000
0100
0000
0000
0010
0000
0000
1000
0000
0001
0000
1000
0000
0001
0000
0000
0010
0000
0000
0100
0000
0000
1000
0000
0000
0001
0000
0000
0010
0000
0000
,
0001
0100
0010
1000
0010
0100
0001
1000
0001
0010
0100
1000
0001
0100
0001
1000
,
0010
0000
0000
1000
0000
0000
0001
0000
0000
0100
0000
0000
0010
0000
0000
0100
0000
0000
0001
0000
0000
1000
0000
0000
0010
0000
0100
0000
0010
0000
0100
0000
0000
0001
0000
0000
1000
0000
0000
0010
0000
0000
1000
0000
0000
0001
0000
0000
,
0100
0001
0010
0100
1000
0001
0010
0001
0100
0010
0100
0001
1000
0010
1000
0001
,
0100
0000
0000
0010
0000
0000
0100
0000
0000
0001
0000
0000
1000
0000
0000
0100
0000
0000
0010
0000
0000
0001
0000
0000
1000
0000
0010
0000
1000
0000
0010
0000
1000
0000
0000
0000
0001
0000
0000
0100
0000
0000
0010
0000
0000
0100
0000
0000
,
0001
1000
0100
1000
0010
0100
0010
1000
0001
0100
0001
0010
0100
1000
0001
0100
,
0010
0000
0000
1000
0000
0000
0010
0000
0000
0100
0000
0000
0001
0000
0000
1000
0000
0000
0100
0000
0000
0010
0000
0000
0001
0000
0000
0010
0000
0000
0100
0000
0000
1000
0000
0000
0010
0000
0100
0000
0010
0000
1000
0000
0001
0000
0100
0000
,
0001
1000
0010
0100
0001
1000
0100
1000
0010
0100
0001
0100
0010
1000
0001
0010
,
0001
0000
0100
0000
0010
0000
1000
0000
0001
0000
0100
0000
0001
0000
0010
0000
0200
0300
2000
3000
0002
0003
0020
0030
0001
0000
1000
0000
0100
0000
1000
0000
,
0010
0100
0001
0100
0010
1000
0001
0100
0010
0100
0001
1000
0100
1000
0001
0010
,
0100
0000
1000
0000
0001
0000
0010
0000
0001
0000
0100
0000
0010
0000
1000
0000
0002
0003
0020
0030
0100
0000
2000
3000
0001
0000
0040
0030
0001
0000
0100
0000
,
0020
1030
0010
0100
0001
1000
0001
0100
0010
0100
0001
1000
0010
0100
0010
1000
,
0001
0100
0001
0010
0100
1000
0001
0010
0001
0100
0010
1000
0001
0100
0001
1000
,
0010
1000
0001
0010
0100
1000
0001
0010
0001
0100
0010
1000
0010
0100
0001
1000
,
0100
0000
0000
0010
0000
0000
0001
0000
0000
1000
0000
0000
0010
0000
0000
0100
0000
0000
0010
0000
0000
1000
0000
0000
0001
0000
0000
0100
0000
0000
0001
0000
0000
1000
0000
0000
0010
0000
0100
0000
0010
0000
0100
0000
0010
0000
0100
0000
,
0040
0000
0000
0000
0030
0000
0000
0000
4020
0000
0000
0000
3030
0000
0000
0000
4020
0000
0000
0000
3030
0000
0000
0000
4000
0000
0000
0000
0000
3000
0001
0000
,
0400
0000
0300
0000
0204
0000
0303
0000
0204
0000
0303
0000
1000
0010
0100
0001
,
4000
3000
2004
3003
0240
0330
2040
3030
,
0204
0000
0000
0000
0303
0000
0000
0000
0024
0000
0000
0000
0033
0000
0000
0000
2400
0000
0000
0000
3300
0000
0000
0000
0004
0000
0000
0000
0000
0000
0000
0003
,
4020
3030
0240
0330
0402
0303
4000
0000
,
3004
0000
0003
0000
0042
0000
0033
0000
0024
0000
0033
0000
0100
0010
1000
0010
,
0200
0300
0204
0303
0240
0330
2040
3030
,
0001
0000
0000
0000
0000
0000
0000
0000
0000
0000
0000
0000
0010
0000
0000
0000
0000
0000
0000
0000
0000
0000
0000
0000
0100
0000
0000
0000
0000
0000
0000
0000
0000
0000
0000
0000
2000
0000
0000
0000
0000
0000
0000
0000
0000
0000
0000
0000
3002
0000
0000
0000
0000
0000
0000
0000
0000
0000
0000
0000
0000
0000
0000
0000
0000
0000
0000
0000
0000
0000
0000
0000
0000
0000
0000
0000
0000
0000
0000
0000
0000
0000
0000
0000
0203
0000
0000
0000
0000
0000
0300
0000
0000
0000
0000
0000
0020
0000
0000
0000
0030
0000
0000
0000
0000
0000
0000
0000
0200
0000
0000
0000
0300
0000
0000
0000
0000
0000
0000
0000
0002
0000
0000
0000
0003
0000
0000
0000
0000
0000
0000
0000
2000
0000
0000
0000
3000
0000
0000
0000
0000
0000
0000
0000
0002
0000
0000
0000
0000
0000
0000
0000
0000
0000
0000
0000
0000
0000
0000
0000
0000
0000
0000
0000
0000
0000
0000
0000
0000
0000
0000
0000
0000
0000
0000
0000
0000
0000
0000
0000
0000
0000
0000
0000
0000
0000
0000
0000
0000
0000
0000
0000
,
1003
0100
0010
0001
1000
0010
0100
0010
1000
0001
0100
0001
0010
0100
1000
0001
,
0010
0001
0100
0010
0100
0001
1000
0010
1000
0001
0010
0001
0100
0010
0100
0001
,
1000
0010
1000
0001
0010
0100
1000
0001
0010
0001
0100
0010
0100
0001
1000
0010
,
1000
0001
0100
0010
0100
0001
1000
0100
0010
0001
1000
0100
1000
0001
0010
0001
,
0100
0010
1000
0001
0010
0100
1000
0001
0010
0001
0100
0010
0100
0001
1000
0010
,
1000
0001
0100
0001
0010
0100
1000
0001
0010
0001
0100
0010
0100
0001
1000
0010
,
1000
0001
0010
0100
1000
0001
0010
0001
0100
0010
0100
0001
1000
0010
1000
0001
,
0100
0001
0010
0100
1000
0001
0010
0001
0100
0010
0100
0001
1000
0010
1000
0001
,
0010
0100
1000
0001
0010
0001
0100
0010
0100
0001
1000
0010
1000
0001
0100
0001
,
1000
0010
0100
0010
1000
0001
0010
0100
1000
0001
0010
0001
0100
0010
0100
0001
,
1000
0100
1000
0010
0100
0010
1000
0001
0100
0001
1000
0010
0100
0001
0100
0010
,
1000
0001
0010
0100
1000
0001
0010
0001
0100
0010
0100
0001
1000
0100
1000
0010
,
0100
0010
1000
0001
0100
0001
0010
0100
1000
0001
0010
0001
0100
0010
0100
0001
,
1000
0010
1000
0001
0010
0001
0100
0010
0100
0001
1000
0010
1000
0001
0100
0001
,
1000
0100
0010
0001
0100
0001
1000
0010
0100
0010
1000
0001
0010
0001
0100
0010
,
2000
0000
3000
0000
0002
0000
0000
0003
2000
3000
0200
0300
0020
0030
0002
0003
,
1000
0010
0100
0001
1000
0001
0100
0010
1000
0010
0100
0001
0100
0010
1000
0001
,
0100
0001
0010
0100
1000
0001
0100
0001
1000
0010
0100
0010
1000
0001
0100
0001
,
0010
0100
1000
0001
0010
0001
1000
0100
0010
0001
1000
0100
1000
0001
0100
0001
,
1000
0010
0100
0001
1000
0100
1000
0001
0100
0010
0100
0001
1000
0010
0100
0001
,
1000
0010
1000
0100
0010
0001
0100
0001
1000
0010
0100
0001
0010
0001
1000
0100
,
1000
0001
0100
0010
1000
0001
0100
0001
1000
0010
0100
0010
1000
0001
0010
0100
,
1000
0001
0010
0001
0100
0010
1000
0010
0100
0001
1000
0001
0010
0100
1000
0001
,
0010
0001
0100
0010
0100
0001
1000
0010
1000
0100
0010
0001
0100
0010
1000
0010
,
0100
0001
1000
0001
0010
0100
1000
0001
0010
0001
0100
0010
0100
0001
1000
0001
,
0100
0010
1000
0001
0100
0001
0010
0100
1000
0100
0010
0001
1000
0100
1000
0001
,
0100
0010
1000
0001
0100
0001
1000
0010
0100
0010
1000
0001
0100
0001
0010
0100
,
1000
0001
0010
0001
0100
0010
1000
0010
0100
0001
1000
0001
0100
0010
1000
0001
,
0010
0100
1000
0001
0010
0001
0100
0010
0100
0001
1000
0010
1000
0100
0010
0001
,
0100
0001
1000
0010
1000
0001
0100
0010
1000
0001
0010
0001
0100
0010
1000
0010
,
0100
0001
1000
0001
0010
0100
1000
0001
0100
0010
1000
0100
1000
0001
0100
0010
,
0100
0001
1000
0010
0100
0001
1000
0100
1000
0010
0100
0001
1000
0100
0010
0001
,
1000
0001
0100
0010
1000
0001
0100
0001
1000
0010
0100
0010
1000
0001
0100
0001
,
0010
0100
1000
0001
0010
0001
1000
0100
0010
0001
1000
0100
1000
0001
0100
0001
,
1000
0010
0100
0001
1000
0100
1000
0001
0100
0010
0100
0001
1000
0010
0100
0001
,
1000
0010
1000
0100
0010
0001
0100
0001
1000
0010
0100
0001
0010
0001
1000
0100
,
1000
0001
0100
0010
1000
0001
0100
0001
1000
0010
0100
0010
1000
0001
0010
0100
,
1000
0001
0010
0001
0100
0010
1000
0010
0100
0001
1000
0001
0010
0100
1000
0001
,
0010
0001
0100
0010
0100
0001
1000
0010
1000
0100
0010
0001
0100
0010
1000
0010
,
0100
0001
1000
0001
0010
0100
1000
0001
0010
0001
0100
0010
0100
0001
1000
0001
,
0100
0010
1000
0001
0100
0001
0010
0100
1000
0100
0010
0001
1000
0100
1000
0001
,
0100
0010
1000
0001
0100
0001
1000
0010
0100
0010
1000
0001
0100
0001
0010
0100
,
1000
0001
0010
0001
0100
0010
1000
0010
0100
0001
1000
0001
0100
0010
1000
0001
,
0010
0100
1000
0001
0010
0001
0100
0010
0100
0001
1000
0010
1000
0100
0010
0001
,
0100
0001
1000
0010
1000
0001
0100
0010
1000
0001
0010
0001
0100
0010
1000
0010
,
0100
0001
1000
0001
0010
0100
1000
0001
0100
0010
1000
0100
1000
0001
0100
0010
,
2000
0000
0000
0000
,
3022
0033
0220
0330
2000
0000
3002
0000
,
0203
0000
0020
0030
0000
0300
2002
3003
,
1000
0000
0010
0000
1000
0000
0010
0000
0000
0100
0000
0000
0001
0000
0000
0000
0000
0000
1000
0000
0000
0000
0000
0000
0200
0000
0000
0000
0000
0000
0000
0000
0000
0310
0000
0000
0001
0000
0000
0000
0000
0000
1000
0000
0000
0000
0000
0000
,
0010
0100
0010
1000
0001
0100
0001
0010
0100
1000
0001
0100
0010
0100
0001
1000
,
0010
1000
0100
0010
0001
0010
0100
1000
0001
1000
0010
0100
0010
1000
0001
0100
,
0001
1000
0010
1000
0001
0010
0001
1000
0100
1000
0001
0100
0001
1000
0010
1000
,
0001
0000
0000
0010
0000
0000
0100
0000
1000
0000
0100
0000
1000
0000
0000
0001
0000
0000
0100
0000
0010
0000
0100
0000
0010
0000
0000
1000
0000
0000
0001
0000
0000
0010
0000
0000
0001
0000
0000
0100
0000
0000
0010
0000
0000
1000
0000
0000
,
0001
0000
0000
0010
0000
0000
0100
0000
0000
1000
0000
0000
0001
0000
0000
0000
0000
0000
0010
0000
0000
0100
0000
0000
0000
0000
0000
1000
0000
0000
0010
0000
0000
0000
0000
0000
1000
0000
0000
0000
0001
0000
0100
0000
0000
0000
0100
0000
,
0010
0000
1000
0001
0000
1000
0000
0000
0010
0100
0000
0000
0001
0000
0000
1000
0100
1000
0100
1000
0100
1000
0000
0000
,
0010
0000
0000
0100
0000
0000
0010
0000
0000
1000
0000
0000
0001
0000
0000
0000
0000
0000
0010
0000
0000
0000
0001
0000
0000
0000
0000
0000
1000
0000
0010
0000
0000
0000
0000
0000
1000
0000
0000
0000
0001
0000
0100
0000
0000
0000
0010
0000
,
0100
0000
0010
1000
0000
1000
0001
0000
0100
0001
0000
1000
0010
0000
0000
1000
0001
1000
0001
1000
0001
1000
0000
0000
,
0100
0000
0000
0010
0000
0000
0001
0000
0000
1000
0000
0000
0100
0000
0000
0000
0000
0000
0010
0000
0000
0000
0001
0000
0000
0000
0000
0000
1000
0000
0010
0000
0000
0000
0000
0000
0100
0000
0000
0000
0001
0000
1000
0000
0000
0000
0010
0000
,
1000
0000
0000
0000
0100
0000
0010
0000
0000
0000
0001
0000
0100
0000
0000
0000
0010
0000
1000
0000
0000
0000
0000
0000
0001
0000
0100
0000
0001
0000
0100
0000
0001
0000
0100
0000
0001
0000
0000
0000
0000
0000
1000
0000
0000
0100
0000
0000
,
0010
0001
0100
0001
1000
0010
0100
0000
0010
1000
0000
0001
0000
0100
0001
0000
,
1000
0000
0000
0100
0000
0000
0000
0000
0000
0010
0000
0000
0000
0000
0000
0001
0000
0000
1000
0000
0000
0000
0000
0000
0010
0000
0000
0000
0000
0000
0100
0000
0001
0000
0100
0000
0002
0000
0000
0000
0000
0000
0000
0000
0000
0000
0000
0000
,
1003
0010
0100
0001
0100
0000
0010
1000
0000
0001
1000
0000
0100
0000
0010
0000
,
0001
0000
0000
0000
0000
0000
1000
0000
0000
0010
0000
0000
0000
0000
0000
0100
0000
0000
0001
0000
0000
1000
0000
0000
0000
0000
0000
0000
0000
0000
0010
0000
0100
0000
0010
0000
0100
0000
0000
0000
0000
0000
0001
0000
0000
0000
0000
0000
,
1000
0000
0000
0000
0000
0000
0100
0000
0000
0010
0000
0000
0000
0000
0000
0001
0000
0000
0000
0000
0000
1000
0000
0000
0000
0000
0000
0000
0000
0000
0001
0000
0010
0000
0001
0000
0010
0000
0000
0000
0000
0000
0100
0000
0000
0000
0000
0000
,
1000
0000
0000
0000
0000
0000
0010
0000
0000
0100
0000
0000
0000
0000
0000
0001
0000
0000
1000
0000
0000
0001
0000
0000
0100
0000
0000
0010
0000
0000
1000
0000
0000
0000
0000
0000
0001
0000
0000
0000
0000
0000
0010
0000
0100
0000
0000
0000
,
1000
0001
1000
0010
0100
0000
0001
1000
0000
0010
1000
0000
0100
0000
0010
0000
,
0001
0000
0000
0000
0000
0000
0100
0000
0000
0010
0000
0000
0100
0000
0000
0001
0000
0000
1000
0000
0000
0100
0000
0000
0010
0000
0000
0000
0000
0000
0001
0000
1000
0000
0001
0000
1000
0000
0001
0000
1000
0000
0001
0000
0000
0000
0000
0000
,
0010
0000
0100
1000
0000
0001
0000
1000
0000
0010
0100
0000
0001
0000
1000
0000
,
0100
0000
0000
1000
0000
0000
0000
0000
0000
0010
0000
0000
0000
0000
0000
0100
0000
0000
0000
0000
0000
0010
0000
0000
1000
0000
0001
0000
1000
0000
0001
0000
1000
0000
0001
0000
1000
0000
0001
0000
1000
0000
0001
0000
1000
0000
0001
0000
,
1000
0000
0000
0000
;
