#TITLE:Pa Frontearle A Cualquiera;
#SUBTITLE:;
#ARTIST:Arcangel ft. Yaga & Mackie;
#TITLETRANSLIT:;
#SUBTITLETRANSLIT:;
#ARTISTTRANSLIT:;
#CREDIT:;
#BANNER:banner.JPG;
#BACKGROUND:;
#LYRICSPATH:;
#CDTITLE:!tizaTitle.png;
#MUSIC:Arcangel Ft Yaga & Mackie Ranks - Pa Frontearle A Cualquiera (Www.FlowHoT.NeT).ogg;
#OFFSET:-0.040;
#SAMPLESTART:64.561;
#SAMPLELENGTH:18.060;
#SELECTABLE:YES;
#BPMS:0.000=93.000;
#STOPS:291.500=0.280
,326.000=0.640
,354.333=2.560
;
#BGCHANGES:;
// cache tags:
#FIRSTBEAT:4.000;
#LASTBEAT:354.417;
#SONGFILENAME:Songs/Reggaeton and more/Pa Frontearle A Cualquiera/Pa Frontearle a Cualquiera.sm;
#HASMUSIC:1;
#HASBANNER:1;
#MUSICLENGTH:231.858;
// end cache tags

//---------------dance-single - ----------------
#NOTES:
     dance-single:
     :
     Challenge:
     12:
     0.708,0.936,0.487,0.009,1.000,1034.000,113.000,2.000,0.000,0.000:

0000
0000
0000
0000
,
1100
0000
0000
0000
0000
0010
0000
0000
0000
0101
0000
0000
0000
0000
0000
1001
0000
0000
0000
0000
0000
1100
0000
1000
,
0010
0000
0000
0000
0000
1010
0000
0000
0000
1000
0000
0000
0000
0000
0000
1100
0000
0000
0000
0000
0000
0110
0000
0001
,
0200
0000
0000
0010
1000
0010
0001
0300
,
0101
0000
0000
0000
0000
0000
1001
0000
0000
1000
0000
0000
0100
0000
0000
0010
0000
0001
0000
0000
0001
0100
0000
0001
,
0100
0000
0000
0000
0000
0100
0010
0000
0000
0101
0000
0000
0010
0000
0000
1000
0000
0100
0000
0000
0010
0001
0000
0001
,
1000
0000
0000
0000
0000
1000
0010
0000
0000
0100
0000
0000
0001
0000
0000
0010
0000
0100
0000
0000
1000
0100
0000
0010
,
0001
0000
0000
0000
0000
1000
1100
0000
0000
0010
0000
0000
0100
0000
0000
0010
0000
0001
0000
0000
0001
0010
0000
0000
,
1010
0000
0000
0000
0000
0000
1001
0000
0000
0001
0000
0000
0010
0000
0000
0100
0000
1000
0000
0000
1000
0010
0000
1000
,
0010
0000
0000
0000
0000
0010
0100
0000
0000
1010
0000
0000
0100
0000
0000
0001
0000
0010
0000
0000
0100
1000
0000
1000
,
0001
0000
0000
0000
0000
0001
0100
0000
0000
0010
0000
0000
1000
0000
0000
0100
0000
0010
0000
0000
0001
0010
0000
0100
,
1000
0000
0000
0000
0000
0001
0011
0000
0000
0100
0000
0000
0010
0000
0000
0100
0000
1000
0000
0000
1000
0100
0000
0000
,
1001
0000
1000
0100
0010
0001
0010
0100
0010
0001
0010
0100
1000
0100
0010
0100
,
1000
0100
1000
0010
0100
0001
0010
0001
0100
0010
1000
0100
0010
0100
1000
0000
,
1001
1000
0100
0010
0100
1000
0001
0100
0010
1000
0010
0100
0010
1000
0010
0100
0001
0010
0100
0010
0001
0010
0100
1000
,
0100
0010
0100
1000
0010
0100
0010
1000
0010
0100
0010
0001
0010
0100
0001
0100
1000
0010
0100
0010
1000
0001
0000
0000
,
1000
0000
0000
0000
0000
0000
0100
0000
0000
0000
0000
0000
1000
0000
0000
0000
0000
0000
0100
0000
0000
0000
0000
0000
1000
0000
0000
0000
0000
0000
0100
0000
0000
0000
0000
0000
1000
0000
0000
0000
0000
0000
0000
0000
0000
0000
0000
0000
0000
0000
0000
0000
0000
0000
0000
0000
0000
0000
0000
0000
0000
0000
0000
0000
0000
0000
0000
0000
0000
0000
0000
0000
1000
0000
0000
0000
0000
0000
0000
0000
0000
0000
0000
0000
0000
0000
0000
0000
0000
0000
0000
0000
0000
0000
0000
0000
0100
0000
0000
0000
0000
0000
0000
0000
0000
0000
0000
0000
0000
0000
0000
0000
0000
0000
0000
0000
0000
0000
0000
0000
0010
0000
0000
0000
0000
0000
0000
0000
0000
0000
0000
0000
0000
0000
0000
0000
0000
0000
0000
0000
0000
0000
0000
0000
1001
0000
0000
0000
0000
0000
0000
0000
0000
0000
0000
0000
0000
0000
0000
0000
0000
0000
0000
0000
0000
0000
0000
0000
1010
0000
0000
0000
0000
0000
0000
0000
0000
0000
0000
0000
0000
0000
0000
0000
1000
0000
0000
0000
0000
0000
0000
0000
,
0001
0000
1000
0100
0000
0010
0001
0000
0001
0100
0000
0010
1000
0000
1000
0100
0000
0010
0001
0000
0001
0100
0000
0010
,
1000
0000
0000
1100
0000
0000
0110
0000
0010
0001
0000
0001
1000
0000
0000
1100
0000
0000
0110
0000
0001
0000
0000
1000
,
0010
0000
0010
0100
0000
0001
0000
0010
0000
0100
0000
0000
1100
0000
1000
0100
0000
0010
0000
0001
0000
1001
0000
0000
,
1000
0000
0000
0000
0000
0000
0100
0000
0000
0000
0000
0000
1000
0000
0000
0000
0000
0000
0100
0000
0000
0000
0000
0000
0000
0000
0000
0000
0000
0000
0000
0000
0000
0000
0000
0000
1000
0000
0000
0000
0000
0000
0000
0000
0000
0000
0000
0000
0000
0000
0000
0000
0100
0000
0000
0000
0000
0000
0000
0000
0000
0000
0000
0000
0000
0000
0000
0000
0010
0000
0000
0000
0000
0000
0000
0000
0000
0000
0000
0000
0000
0000
0000
0000
0001
0000
0000
0000
0000
0000
0000
0000
0000
0000
0000
0000
0000
0000
0000
0000
0100
0000
0000
0000
0000
0000
0000
0000
0000
0000
0000
0000
0000
0000
0000
0000
1000
0000
0000
0000
0000
0000
0000
0000
0000
0000
0000
0000
0000
0000
0000
0000
0010
0000
0000
0000
0000
0000
0000
0000
0000
0000
0000
0000
0000
0000
0000
0000
0100
0000
0000
0000
0000
0000
0000
0000
0000
0000
0000
0000
0000
0000
0000
0000
0000
0000
0000
0000
1001
0000
0000
0000
0000
0000
0000
0000
0000
0000
0000
0000
0000
0000
0000
0000
0000
0000
0000
0000
0000
0000
0000
0000
,
1000
0100
0010
0001
1000
0100
0010
0001
1000
0100
0010
0001
1000
0100
0010
0001
,
1001
0000
0000
0000
0000
0000
0000
0000
0000
1000
0000
0000
0000
0100
0000
0000
0000
0010
0000
0000
0000
0001
0000
0000
0000
0100
0000
0000
0000
0010
0000
0000
0000
1000
0000
0000
0000
0100
0000
0000
0000
0000
1001
0000
0000
0000
0000
0000
,
1000
0000
0000
0000
0010
0000
0000
0000
0000
0000
0100
0000
0000
0001
0000
0000
0000
0000
1001
0000
0000
0000
0100
0000
0010
0000
0000
0000
0010
0000
0100
0000
0000
0000
1000
0000
0000
0000
0100
0000
0000
0000
1100
0000
0000
0000
0000
0000
,
1000
0010
0100
0001
1000
0010
0100
0001
1000
0010
0100
0001
1000
0010
0100
0001
,
1001
0000
0000
1010
0000
0000
0101
0000
1000
0100
0000
0100
0010
0000
0000
0001
0000
0000
1000
0000
0010
0000
0000
0000
,
1000
0100
0010
0001
1000
0100
0010
0001
1000
0100
0010
0001
1000
0010
0100
0001
1000
0010
0100
0001
1000
0010
0100
0001
,
1000
0000
0000
0000
,
0011
0000
0000
0000
0000
0010
0110
0000
0000
0100
0000
0000
0001
0000
0000
1000
0000
0010
0000
0000
0010
0001
0000
0010
,
0001
0000
0000
0000
0000
0001
1000
0000
0000
0011
0000
0000
1000
0000
0000
0100
0000
0001
0000
0000
1000
0010
0000
0010
,
0100
0000
0000
0000
0000
0100
1000
0000
0000
0001
0000
0000
0010
0000
0000
1000
0000
0001
0000
0000
0100
0001
0000
1000
,
0010
0000
0000
0000
0000
0100
0101
0000
0000
1000
0000
0000
0001
0000
0000
1000
0000
0010
0000
0000
0010
1000
0000
0000
,
1100
0000
0000
0000
0000
0100
0110
0000
0000
0010
0000
0000
1000
0000
0000
0001
0000
0100
0000
0000
0100
1000
0000
0100
,
1000
0000
0000
0000
0000
1000
0001
0000
0000
1100
0000
0000
0001
0000
0000
0010
0000
1000
0000
0000
0001
0100
0000
0100
,
0010
0000
0000
0000
0000
0010
0001
0000
0000
1000
0000
0000
0100
0000
0000
0001
0000
1000
0000
0000
0010
1000
0000
0001
,
0100
0000
0000
0000
0000
1000
1000
0000
0000
0010
0000
0000
0100
0000
0000
0001
0000
0100
0000
0000
0010
1000
0000
0001
,
1000
0100
1000
0100
1000
0100
0010
0100
0010
0100
0010
0100
0010
0001
0010
0001
,
0010
0001
0100
0010
1000
0100
1000
0010
0100
0001
1000
0010
0100
0001
1000
0100
,
0010
0001
1000
0100
0010
0001
1000
0100
0001
0100
1000
0100
0001
0100
1000
0010
,
0100
0010
1000
0010
0100
0010
1000
0001
0100
0001
1000
0001
0100
0001
1000
0010
,
0001
0010
1000
0100
0010
0100
1000
0010
1000
0010
1000
0100
0010
0001
1000
0100
,
1000
0100
1000
0010
0100
0001
0010
0001
0010
0001
0010
0001
0100
0010
1000
0000
,
0010
0000
1000
0000
1000
0010
1000
0100
0010
0001
0010
0100
1000
0100
0010
0100
,
1000
0100
0010
0001
0010
0100
0010
0001
0010
0100
1000
0100
0010
0100
1000
0010
,
1000
0100
1000
0010
0100
0010
0100
0001
0100
0001
0010
0001
1000
0010
0100
0001
0100
0010
1000
0100
0010
0100
1000
0100
,
0010
0001
0010
0100
0010
0001
0100
0010
1000
0100
0010
0100
1000
0001
0010
0100
0010
0001
1000
0010
0100
0010
1000
0001
,
0100
0010
0100
0001
1000
0010
1000
0100
0010
0001
1000
0100
0010
0100
1000
0100
0010
0001
0010
0100
1000
0010
0100
0001
,
0100
0010
1000
0100
0010
0001
0010
0100
1000
0100
0010
0001
1000
0000
0000
0000
0000
0000
0000
0000
0000
0000
0000
0000
,
1000
0100
0010
0001
0100
0010
1000
0100
0010
0100
1000
0001
0010
0100
0010
0001
1000
0100
0010
0000
0000
0000
0000
0000
,
0100
1000
0100
0010
0100
1000
0010
0100
0001
0010
0100
0010
0001
1000
0100
0010
0100
1000
0001
0100
0010
0100
0001
1000
,
0010
0100
0010
1000
0001
0100
0001
0010
0100
1000
0001
0010
0100
0010
0001
0010
0100
1000
0100
0010
0001
0100
0010
1000
,
0010
0100
0001
0010
0100
1000
0100
0010
0001
0010
0100
1000
0001
0000
0000
0000
0000
0000
0000
0000
0000
0000
0000
0000
,
0101
0000
0000
0000
0000
0000
1001
0000
0000
1000
0000
0000
0100
0000
0000
0010
0000
0001
0000
0000
0001
0100
0000
0001
,
0100
0000
0000
0000
0000
0100
0010
0000
0000
0101
0000
0000
0010
0000
0000
1000
0000
0100
0000
0000
0010
0001
0000
0001
,
1000
0000
0000
0000
0000
1000
0010
0000
0000
0100
0000
0000
0001
0000
0000
0010
0000
0100
0000
0000
1000
0100
0000
0010
,
0001
0000
0000
0000
0000
1000
1100
0000
0000
0010
0000
0000
0100
0000
0000
0010
0000
0001
0000
0000
0001
0010
0000
0000
,
1010
0000
0000
0000
0000
0000
1001
0000
0000
0001
0000
0000
0010
0000
0000
0100
0000
1000
0000
0000
1000
0010
0000
1000
,
0010
0000
0000
0000
0000
0010
0100
0000
0000
1010
0000
0000
0100
0000
0000
0001
0000
0010
0000
0000
0100
1000
0000
1000
,
0001
0000
0000
0000
0000
0001
0100
0000
0000
0010
0000
0000
1000
0000
0000
0100
0000
0010
0000
0000
0001
0010
0000
0100
,
1000
0000
0000
0000
0000
0000
0000
0000
0000
0000
0000
0000
0000
0000
0000
0000
0000
0000
0000
0000
0000
0000
0000
0000
0000
0000
0000
0000
0000
0000
0000
0000
0000
0000
0000
0000
0000
0000
0000
0000
0000
0000
0000
0000
0000
0000
0000
0000
1001
0000
0000
0000
0000
0000
0000
0000
0000
0000
0000
0000
0000
0000
0000
0000
0000
0000
0000
0000
0000
0000
0000
0000
1000
0000
0000
0000
0000
0000
0000
0000
0000
0000
0000
0000
0000
0000
0000
0000
0000
0000
0000
0000
0000
0000
0000
0000
0100
0000
0000
0000
0000
0000
0000
0000
0000
0000
0000
0000
0000
0000
0000
0000
0000
0000
0000
0000
0000
0000
0000
0000
0010
0000
0000
0000
0000
0000
0000
0000
0000
0000
0000
0000
0000
0000
0000
0000
0001
0000
0000
0000
0000
0000
0000
0000
0000
0000
0000
0000
0000
0000
0000
0000
0000
0000
0000
0000
0000
0000
0000
0000
0001
0000
0000
0000
0000
0000
0000
0000
0100
0000
0000
0000
0000
0000
0000
0000
0000
0000
0000
0000
0000
0000
0000
0001
0000
0000
0000
0000
0000
0000
0000
0000
,
0000
1000
0000
0000
0000
0100
0000
0000
0000
0010
0000
0000
0000
0001
0000
0000
0000
0000
0000
0000
0000
0001
0000
0000
0000
0010
0000
0000
0000
0100
0000
0000
0000
1000
0000
0000
0000
0100
0000
0000
0000
0010
0000
0000
0000
0011
0000
0000
0000
0001
0000
0000
0000
0100
0000
0000
0000
0010
0000
0000
0000
0000
0000
0000
,
0000
1000
0000
0000
0000
0000
0000
0000
0000
0100
0000
0000
0000
0000
0000
0000
0000
0000
0000
0000
0000
0000
0000
0000
0000
0000
0000
0000
0000
1000
0000
0000
0000
0100
0000
0000
0000
0010
0000
0000
0000
0100
0000
0000
0000
0000
0000
0000
0000
1100
0000
0000
0000
0000
0000
0000
0000
0000
0000
0000
0000
1000
0000
0000
,
0000
0100
0000
0000
0000
0010
0000
0000
0000
0001
0000
0000
0000
1000
0000
0000
0000
0100
0000
0000
0000
0010
0000
0000
0000
0001
0000
0000
0000
0010
0000
0000
0000
0100
0000
0000
0000
1000
0000
0000
0000
0000
0000
0100
0000
0000
0000
0000
0000
0010
0000
0000
0000
0000
0000
0000
0000
0000
0000
0000
0000
0000
0000
0000
,
0000
0000
0000
0000
0000
0000
0000
0000
0000
0000
0000
0000
0000
1000
0000
0000
0000
0100
0000
0000
0000
0001
0000
0000
0000
0100
0000
0000
0000
1000
0000
0000
0000
0000
0000
0000
0000
0001
0000
0000
0000
0100
0000
0000
0000
1000
0000
0000
0000
0000
0000
0000
0000
1000
0000
0000
0000
0100
0000
0000
0000
0001
0000
0000
,
0000
0010
0000
0000
0000
0100
0000
0000
0000
1000
0000
0000
0000
0100
0000
0000
0000
0010
0000
0000
0000
0100
0000
0000
0000
1000
0000
0000
0000
0001
0000
0000
0000
0010
0000
0000
0000
0100
0000
0000
0000
0010
0000
0000
0000
0001
0000
0000
0000
0000
0000
0000
0000
0000
0000
0000
0000
0001
0000
0000
0000
1000
0000
0000
,
0000
0100
0000
0000
0000
0010
0000
0000
0000
0100
0000
0000
0000
1000
0000
0000
0000
0001
0000
0000
0000
0010
0000
0000
0000
0100
0000
0000
0000
0010
0000
0000
0000
0001
0000
0000
0000
1000
0000
0000
0000
0100
0000
0000
0000
1001
0000
0000
0000
0000
0000
0000
0000
0000
0000
0000
0000
0000
0000
0000
0000
1100
0000
0000
,
0000
0000
0000
0000
0000
0110
0000
0000
0000
0000
0000
0000
0000
0011
0000
0000
0000
1001
0000
0000
0000
0000
0000
0000
0000
0000
0000
0000
0000
1010
0000
0000
0000
0000
0000
0000
0000
0101
0000
0000
0000
1001
0000
0000
0000
1010
0000
0000
0000
0000
0000
0000
0000
0000
0000
0000
0000
0000
0000
0000
0000
0000
0000
0000
,
0000
0000
0000
0000
0000
0000
0000
0000
0000
1000
0000
0000
0000
0100
0000
0000
0000
0000
0000
0000
0000
0010
0000
0000
0000
0001
0000
0000
0000
0100
0000
0000
0000
0010
0000
0000
0000
1000
0000
0000
0000
0100
0000
0000
0000
0000
0000
0000
0000
0010
0000
0000
0000
0000
0000
0000
0000
0001
0000
0000
0000
0000
0000
0000
,
0000
0000
0000
0000
0000
1001
0000
0000
0000
1000
0000
0000
0000
0100
0000
0000
0000
0010
0000
0000
0000
0001
0000
0000
0000
0010
0000
0000
0000
0100
0000
0000
0000
0000
0000
0000
0000
1000
0000
0000
0000
0100
0000
0000
0000
0010
0000
0000
0000
0000
0000
0000
0000
0000
0000
0000
0000
0000
0000
0000
0000
0000
0000
0000
,
0000
0000
0000
1001
0000
0000
1000
0000
0000
0100
0000
0000
0010
0000
0001
0000
0000
0001
0100
0000
0010
1000
0000
0000
,
0000
0000
1000
1100
0000
0000
0010
0000
0000
0100
0000
0000
0010
0000
0001
0000
0000
0001
0010
0000
0000
1010
0000
0000
,
0000
0000
1000
1001
0000
0000
0001
0000
0000
0010
0000
0000
0100
0000
1000
0000
0000
1000
0010
0000
1000
0010
0000
0000
,
0000
0000
0000
0000
0000
0000
0000
0000
0000
0000
0000
0000
0000
0000
0000
0000
0010
0000
0000
0000
0000
0000
0000
0000
0100
0000
0000
0000
0000
0000
0000
0000
0000
0000
0000
0000
0000
0000
0000
0000
0000
0000
0000
0000
0000
0000
0000
0000
1010
0000
0000
0000
0000
0000
0000
0000
0000
0000
0000
0000
0000
0000
0000
0000
0000
0000
0000
0000
0000
0000
0000
0000
0100
0000
0000
0000
0000
0000
0000
0000
0000
0000
0000
0000
0000
0000
0000
0000
0000
0000
0000
0000
0000
0000
0000
0000
0001
0000
0000
0000
0000
0000
0000
0000
0000
0000
0000
0000
0000
0000
0000
0000
0010
0000
0000
0000
0000
0000
0000
0000
0000
0000
0000
0000
0000
0000
0000
0000
0000
0000
0000
0000
0000
0000
0000
0000
0100
0000
0000
0000
0000
0000
0000
0000
1000
0000
0000
0000
0000
0000
0000
0000
0000
0000
0000
0000
0000
0000
0000
0000
1000
0000
0000
0000
0000
0000
0000
0000
0001
1000
0000
0000
0000
0000
0000
0000
0000
0000
0000
0000
0000
0000
0000
0000
0000
0000
0000
0000
0000
0000
0000
0000
,
0100
0000
1001
0000
0010
0001
0000
0001
1000
0000
1001
0000
0000
0000
1100
0000
,
0010
0000
0101
0000
0001
0100
0000
0010
1000
0000
1001
0000
0000
0000
1000
0000
,
0100
0000
0010
0000
0001
0010
0000
0100
1000
0000
1001
0000
0000
0000
1001
0000
,
0100
0000
1001
0000
1000
0100
0000
0100
1000
0000
1001
0000
0000
0000
1100
0000
,
0000
0000
0010
0000
0000
0000
0101
0000
0000
0000
0000
0000
1001
0000
0000
0000
0000
0000
1100
0000
1000
0010
0000
0000
,
0000
0000
1010
0000
0000
0000
1000
0000
0000
0000
0000
0000
1100
0000
0000
0000
0000
0000
0110
0000
0001
0100
0000
0000
,
0000
0000
0010
0000
0000
0000
0101
0000
0000
0000
0000
0000
1001
0000
0000
0000
0000
0000
1100
0000
1000
0010
0000
0000
,
0000
0000
1010
0000
0000
0000
1000
0000
0000
0000
0000
0000
1100
0000
0000
0000
0000
0000
0110
0000
0001
0100
0000
0000
,
0000
0000
1010
0000
0000
0000
1000
0000
0000
0000
0000
0000
0000
0000
0000
1001
0000
0000
1100
0000
0000
1001
0000
0000
,
0001
0000
0000
0100
0000
0000
0000
0000
0000
0010
0000
0000
1000
0000
0000
0000
0000
0000
1001
0000
0000
0000
0000
0000
1100
0000
0000
0000
1000
0000
0100
0000
0000
0000
0000
0000
0010
0000
0000
0000
0000
0000
0101
0000
0000
0000
0000
0000
,
1000
0000
0000
0100
0000
0000
0000
0000
0000
0010
0000
0000
0001
0000
0000
0000
0000
0000
1001
0000
0000
0000
0000
0000
1100
0000
0000
0000
0010
0000
0001
0000
0000
0000
0000
0000
0011
0000
0000
0000
0000
0000
1001
0000
0000
0000
0000
0000
,
1000
0000
0000
0010
0000
0000
0000
0000
0000
0100
0000
0000
0001
0000
0000
0000
0000
0000
1001
0000
0000
0000
0000
0000
0110
0000
0000
0000
0010
0000
0001
0000
0000
0000
0000
0000
0100
0000
0000
0000
0000
0000
1010
0000
0000
0000
0000
0000
,
0001
0000
0000
0010
0000
0000
0000
0000
0000
0100
0000
0000
1000
0000
0000
0000
0000
0000
1001
0000
0000
0000
0000
0000
1100
0000
0000
0000
1000
0000
0001
0000
0000
0000
0000
0000
1100
0000
0000
0000
0000
0000
1001
0000
0000
0000
0000
0000
,
0001
0000
0000
0100
0000
0000
0000
0000
0000
0010
0000
0000
1000
0000
0000
0000
0000
0000
1001
0000
0000
0000
0000
0000
0001
0000
0000
0000
1000
0000
0100
0000
0000
0000
0000
0000
0010
0000
0000
0000
0000
0000
0101
0000
0000
0000
0000
0000
,
1000
0000
0000
0100
0000
0000
0000
0000
0000
0010
0000
0000
0001
0000
0000
0000
0000
0000
1001
0000
0000
0000
0000
0000
1010
0000
0000
0000
0100
0000
0001
0000
0000
0000
0000
0000
0011
0000
0000
0000
0000
0000
1001
0000
0000
0000
0000
0000
,
1000
0000
0000
0010
0000
0000
0000
0000
0000
0100
0000
0000
0001
0000
0000
0000
0000
0000
1001
0000
0000
0000
0000
0000
1100
0000
0000
0000
0200
0300
0000
0000
0000
0000
0000
0000
0000
0000
0000
0000
0000
0000
0000
0000
0000
0000
0000
0000
;
