#TITLE:Night in Motion;
#SUBTITLE:;
#ARTIST:Cubic 22;
#TITLETRANSLIT:;
#SUBTITLETRANSLIT:;
#ARTISTTRANSLIT:;
#CREDIT:;
#BANNER:NIGHT IN MOTION.png;
#BACKGROUND:NIGHT IN MOTION-bg.png;
#LYRICSPATH:;
#CDTITLE:CDTITLE.jpg;
#MUSIC:1-13-cubic-22-night-in-motion.mp3;
#OFFSET:0.280;
#SAMPLESTART:45.480;
#SAMPLELENGTH:12.000;
#SELECTABLE:YES;
#BPMS:0.000=131.120;
#STOPS:;
#BGCHANGES:;
// cache tags:
#FIRSTBEAT:1.000;
#LASTBEAT:200.000;
#SONGFILENAME:Songs/Definitive Keyboard Megapack/Night in Motion - Cubic 22(Leone510)/1-13-cubic-22-night-in-motion.sm;
#HASMUSIC:1;
#HASBANNER:1;
#MUSICLENGTH:93.492;
// end cache tags

//---------------dance-single - ----------------
#NOTES:
     dance-single:
     :
     Hard:
     11:
     1.000,0.989,1.000,0.492,0.957,503.000,179.000,46.000,0.000,0.000:
0000
0000
0000
0000
1100
0001
0000
0001
1010
0000
0100
0010
0001
0010
1000
0000
,
0101
0010
1000
0000
0011
1000
0000
1000
0101
0000
0001
1000
0001
0100
0010
0000
,
1100
0000
0001
0000
0110
1000
0000
0001
0110
0000
1000
0010
0001
0010
1000
0000
,
0110
1000
0010
0000
1001
0000
0000
0000
0000
0000
0000
0000
2000
0000
3002
0000
,
2003
0000
3010
0000
1100
0010
0000
1100
0010
0000
1100
0010
0000
0101
0000
0000
,
0010
1000
0001
0000
0101
1000
0000
0101
1000
0000
0101
1000
0000
0110
0000
0000
,
0101
0000
1100
0000
0110
1000
0000
0110
1000
0000
0110
1000
0000
0101
0000
0000
,
0010
0100
1000
0000
0011
1000
0000
0011
1000
0000
0011
1000
0000
1001
0000
0000
,
1010
0000
0101
0000
0101
1000
0001
1000
0010
0000
0010
0100
1010
0000
0110
0000
,
0100
0001
0100
0000
1100
0001
1000
0001
0100
0000
0001
0010
1001
0000
0101
0000
,
1000
0010
0001
0000
0101
1000
0010
0001
0010
0000
0010
0100
0011
0000
1001
0000
,
1000
0001
1000
0000
1001
0000
0000
0101
0000
0000
1010
0000
0000
0110
0000
0000
,
0101
0000
0000
0000
0101
1000
0001
1000
0010
0000
0010
0100
1010
0000
0110
0000
,
0100
0001
0100
0000
1100
0001
1000
0001
0100
0000
0001
0010
1001
0000
0101
0000
,
1000
0010
0001
0000
0101
1000
0010
0001
0010
0000
0010
0100
0011
0000
1001
0000
,
1000
0001
1000
0000
0011
0100
0010
0001
1000
0000
0100
0001
1010
0000
0101
0000
,
0100
0010
1000
0000
0101
1000
0001
1000
0010
0000
0010
0100
1010
0000
0110
0000
,
0100
0001
0100
0000
1100
0001
1000
0001
0100
0000
0001
0010
1001
0000
0101
0000
,
1000
0010
0001
0000
0101
1000
0010
0001
0010
0000
0010
0100
0011
0000
1001
0000
,
1000
0000
0000
0001
0000
0000
1000
0000
0000
0000
0000
0000
0001
0000
0010
0000
0100
0000
1000
0000
0001
0000
0010
0000
0100
0000
0000
1000
0000
0000
0100
0000
0000
0001
0000
0000
2000
0000
0000
0000
0000
0000
3002
0000
0000
0000
0000
0000
,
0103
0000
0202
0303
2020
3030
0000
0220
,
0000
0330
2200
3300
0202
0303
0000
0202
,
0000
0303
2002
3003
0220
0330
0000
2020
,
0000
3030
0022
0033
2200
3300
0000
0202
,
0000
0000
0303
0000
1100
0000
0110
0000
0101
0010
1000
0001
1100
0000
0010
0000
,
0101
0000
0010
0000
1001
0000
0011
0000
1010
0100
0001
0100
1010
0000
0100
0000
,
0011
0000
1000
0000
0101
0000
0110
0000
1100
0010
0100
0001
1010
0000
0001
0000
,
0110
0000
1000
0000
0101
0000
1001
0000
0101
1000
0100
0010
1001
0000
0100
0000
,
0011
0000
0100
0000
1010
0000
0101
0010
0001
0010
0100
1000
0011
0100
1000
0000
,
0101
1000
0100
0000
0011
0000
1100
0010
0001
1000
0100
0010
1001
0100
0010
0000
,
1100
0001
0100
0000
1010
0000
0101
0010
0001
0010
0100
1000
0011
0100
1000
0000
,
0101
1000
0100
0000
0011
0000
1100
0010
0001
1000
0100
0010
1001
0100
0010
0000
,
1100
0001
0100
0000
0200
0300
0002
0003
0200
2300
3000
0020
2030
3000
0200
0300
,
0002
0003
2000
3000
0200
0320
0030
0002
0003
2000
3200
0300
2000
0000
3002
0000
,
2003
0000
3010
0000
1100
0010
0000
1100
0010
0000
1100
0010
0000
0101
0000
0000
,
0010
1000
0001
0000
0101
1000
0000
0101
1000
0000
0101
1000
0000
0110
0000
0000
,
0101
0000
1100
0000
0110
1000
0000
0110
1000
0000
0110
1000
0000
0101
0000
0000
,
0010
0100
1000
0000
0011
1000
0000
0011
1000
0000
0011
1000
0000
1001
0000
0000
,
1010
0000
0101
0000
1100
0010
0000
1100
0010
0000
1100
0010
0000
0101
0000
0000
,
0010
1000
0001
0000
0101
1000
0000
0101
1000
0000
0101
1000
0000
0110
0000
0000
,
0101
0000
1100
0000
0110
1000
0000
0110
1000
0000
0110
1000
0000
0101
0000
0000
,
0010
0100
1000
0000
0011
1000
0000
0011
1000
0000
0011
1000
0000
1001
0000
0000
,
1010
0000
0101
0000
0101
1000
0001
1000
0010
0000
0010
0100
1010
0000
0110
0000
,
0100
0001
0100
0000
1100
0001
1000
0001
0100
0000
0001
0010
1001
0000
0101
0000
,
1000
0010
0001
0000
0101
1000
0010
0001
0010
0000
0010
0100
0011
0000
1001
0000
,
1000
0001
1000
0000
0101
1000
0001
1000
0010
0000
0010
0100
1010
0000
0110
0000
,
0100
0001
0100
0000
1100
0001
1000
0001
0100
0000
0001
0010
1001
0000
0101
0000
,
1000
0010
0001
0000
0101
1000
0010
0001
0010
0000
0010
0100
0011
0000
1001
0000
,
1000
0001
1000
0000
0101
1000
0001
1000
0010
0000
0010
0100
1010
0000
0110
0000
,
0100
0001
0100
0000
1100
0000
0000
0101
0000
0000
1010
0000
0000
1001
0000
0000
,
0110
0000
0000
0000
;

//---------------dance-single - Copied from----------------
#NOTES:
     dance-single:
     Copied from:
     Challenge:
     12:
     1.000,1.000,1.000,0.685,0.957,527.000,331.000,64.000,0.000,169.000:
0000
0000
0000
0000
1210
0301
0000
0001
1210
0300
1100
0010
1001
0010
1100
0000
,
1101
0010
1001
0000
0121
1030
0000
1000
0121
0030
0101
1000
0011
0100
1010
0000
,
1101
0000
1001
0000
0112
1003
0000
0001
2110
3000
1100
0010
1001
0010
1100
0000
,
0111
1000
0011
0000
1101
0000
0000
0000
0000
0000
0000
0000
2001
0000
3102
0000
,
2013
0000
3111
0000
1101
0010
0000
1101
0010
0000
1101
0010
0000
1101
0010
0000
,
0111
1000
0101
0000
0111
1000
0000
0111
1000
0000
0111
1000
0000
0111
1000
0000
,
1101
0000
1100
0000
0111
1000
0000
0111
1000
0000
0111
1000
0000
0111
1000
0000
,
1011
0100
1001
0000
0111
1000
0000
0111
1000
0000
0111
1000
0000
0111
1000
0000
,
1011
0000
0101
0000
0111
1000
0011
1000
0110
0000
0011
0100
1011
0000
1110
0000
,
1100
0001
0110
0000
1110
0001
1010
0001
0110
0000
0101
0010
1001
0000
0111
0000
,
1100
0010
0101
0000
0111
1000
0110
0001
1010
0000
1010
0100
0011
0000
1101
0000
,
1100
0001
1010
0000
1101
0000
0000
0111
0000
0000
1110
0000
0000
0111
0000
0000
,
1101
0000
0000
0000
0111
1000
0011
1000
0110
0000
0011
0100
1011
0000
1110
0000
,
1100
0001
0110
0000
1110
0001
1010
0001
0110
0000
0101
0010
1001
0000
0111
0000
,
1100
0010
0101
0000
0111
1000
0110
0001
1010
0000
1010
0100
0011
0000
1101
0000
,
1100
0001
1010
0000
1011
0100
1010
0001
1100
0000
0110
0001
1010
0000
0111
0000
,
0101
0010
1100
0000
0111
1000
0011
1000
0110
0000
0011
0100
1011
0000
1110
0000
,
1100
0001
0110
0000
1110
0001
1010
0001
0110
0000
0101
0010
1001
0000
0111
0000
,
1100
0010
0101
0000
0111
1000
0110
0001
1010
0000
1010
0100
0011
0000
1101
0000
,
1100
0000
0000
0001
0000
0000
1010
0000
0000
0000
0000
0000
0101
0000
0010
0000
0100
0000
1010
0000
0001
0000
0010
0000
0101
0000
0000
1000
0000
0000
0110
0000
0000
0001
0000
0000
2010
0000
0000
0000
0000
0000
3102
0000
0000
0000
0000
0000
,
1113
0000
0000
0000
0000
0000
0000
0000
0202
0000
0000
0000
2303
3000
0000
0000
2020
0000
0000
0000
3230
0300
0000
0000
0000
0000
0000
0000
0220
0000
0000
0000
,
0000
0000
0000
0000
2330
3000
0000
0000
2200
0000
0000
0000
3302
0003
0000
0000
0202
0000
0000
0000
2303
3000
0000
0000
0000
0000
0000
0000
0202
0000
0000
0000
,
0000
0000
0000
0000
0323
0030
0000
0000
2002
0000
0000
0000
3203
0300
0000
0000
0220
0000
0000
0000
0332
0003
0000
0000
0000
0000
0000
0000
2020
0000
0000
0000
,
0000
0000
0000
0000
3230
0300
0000
0000
0022
0000
0000
0000
2033
3000
0000
0000
2200
0000
0000
0000
3302
0003
0000
0000
0000
0000
0000
0000
0202
0000
0000
0000
,
0000
0000
0000
0000
0323
0030
0000
0000
1101
0000
0000
0000
1110
0000
0000
0000
1101
0000
0010
0000
1100
0000
0001
0000
1110
0000
0000
0000
0011
0000
0000
0000
,
1101
0000
0011
0000
1101
0000
0111
0000
1011
0100
0011
0100
1011
0000
1100
0000
,
0111
0000
0011
0000
1101
0000
1110
0000
1101
0010
1100
0001
1110
0000
0011
0000
,
1101
0000
0011
0000
1101
0000
0111
0000
1011
0100
0011
0100
1011
0000
1100
0000
,
0111
0000
0011
0000
1011
0000
0101
0010
1101
0010
0101
1000
0011
0100
1001
0000
,
0111
1000
0101
0000
1011
0000
1100
0001
0110
1000
0101
0010
1001
0100
0011
0000
,
1110
0001
0110
0000
1011
0000
0101
0010
1101
0010
0101
1000
0011
0100
1001
0000
,
0111
1000
0101
0000
1011
0000
1100
0001
0110
1000
0101
0010
1001
0100
0011
0000
,
1110
0001
0110
0000
0200
0300
0002
0003
0200
2300
3000
0020
2030
3000
0200
0300
,
0002
0003
2000
3000
0200
0320
0030
0002
0003
2000
3200
0300
2001
0000
3102
0000
,
2013
0000
3111
0000
1101
0010
0000
1101
0010
0000
1101
0010
0000
1101
0010
0000
,
0111
1000
0101
0000
0111
1000
0000
0111
1000
0000
0111
1000
0000
0111
1000
0000
,
1101
0000
1100
0000
0111
1000
0000
0111
1000
0000
0111
1000
0000
0111
1000
0000
,
1011
0100
1001
0000
0111
1000
0000
0111
1000
0000
0111
1000
0000
0111
1000
0000
,
1011
0000
0101
0000
1101
0010
0000
1101
0010
0000
1101
0010
0000
1101
0010
0000
,
0111
1000
0101
0000
0111
1000
0000
0111
1000
0000
0111
1000
0000
0111
1000
0000
,
1101
0000
1100
0000
0111
1000
0000
0111
1000
0000
0111
1000
0000
0111
1000
0000
,
1011
0100
1001
0000
0111
1000
0000
0111
1000
0000
0111
1000
0000
0111
1000
0000
,
1011
0000
0101
0000
0111
1000
0011
1000
0110
0000
0011
0100
1011
0000
1110
0000
,
1100
0001
0110
0000
1110
0001
1010
0001
0110
0000
0101
0010
1001
0000
0111
0000
,
1100
0010
0101
0000
0111
1000
0110
0001
1010
0000
1010
0100
0011
0000
1101
0000
,
1100
0001
1010
0000
1011
0100
1010
0001
1100
0000
0110
0001
1010
0000
0111
0000
,
0101
0010
1100
0000
0111
1000
0011
1000
0110
0000
0011
0100
1011
0000
1110
0000
,
1100
0001
0110
0000
1110
0001
1010
0001
0110
0000
0101
0010
1001
0000
0111
0000
,
1100
0010
0101
0000
0111
1000
0110
0001
1010
0000
1010
0100
0011
0000
1101
0000
,
1100
0001
1010
0000
1101
0000
0000
0111
0000
0000
1110
0000
0000
0111
0000
0000
,
1101
0000
0000
0000
;
