#TITLE:Chaos Angel - Act 2;
#SUBTITLE:[Sonic Advance 3];
#ARTIST:Sonic Team;
#TITLETRANSLIT:;
#SUBTITLETRANSLIT:;
#ARTISTTRANSLIT:;
#CREDIT:;
#BANNER:chaosact2.png;
#BACKGROUND:chaosact2-bg.png;
#LYRICSPATH:;
#CDTITLE:!hiryuu.png;
#MUSIC:choasact2.ogg;
#OFFSET:-0.131;
#SAMPLESTART:30.799;
#SAMPLELENGTH:12.000;
#SELECTABLE:YES;
#BPMS:0.000=62.650,104.000=31.325,106.000=15.662,107.000=62.650;
#STOPS:;
#BGCHANGES:;
// cache tags:
#FIRSTBEAT:8.000;
#LASTBEAT:109.000;
#SONGFILENAME:Songs/keyboard/chaosact2/chaosact2.sm;
#HASMUSIC:1;
#HASBANNER:1;
#MUSICLENGTH:118.282;
// end cache tags

//---------------dance-single - MANIAC----------------
#NOTES:
     dance-single:
     MANIAC:
     Hard:
     10:
     0.740,0.783,0.643,0.161,1.000,518.000,76.000,19.000,0.000,0.000:
0000
0000
0000
0000
,
0000
0000
0000
0000
,
1000
0010
1010
0000
0001
0100
0101
0000
,
0010
0100
0110
0000
0001
1000
1001
0000
,
0001
0000
0100
0010
1000
0000
0010
0100
0001
0000
0010
0100
1000
0000
0100
0010
,
0001
0000
0100
0010
1000
0000
0010
0100
0001
0000
0010
0100
0010
0000
0110
0000
,
1000
0000
0100
0001
0010
0000
0001
0100
0010
0000
1000
0000
1001
0000
0001
0000
0110
0000
0010
0100
0001
0000
1000
0010
0100
0000
0010
0000
0011
0000
0010
0000
,
1010
0000
0100
0010
1000
0000
0100
0010
0001
0000
0100
0010
1000
0000
1001
0000
0001
0000
0010
0100
0001
0000
0010
0100
1000
0000
0100
1000
0010
0000
0110
0000
,
0001
0000
0100
0010
1000
0000
0001
0100
0010
0000
0100
1000
0001
0100
1000
0100
0001
0000
0010
0100
0001
0000
0100
0010
0001
0000
0100
0010
1000
0010
0001
0010
,
1000
0000
0010
0100
0001
0000
0100
0010
1000
0000
0100
0010
0001
0010
0100
0010
0001
0000
0100
0010
1000
0000
0001
0010
0100
0000
1000
0100
0010
0100
1000
0100
,
0101
0000
0110
0000
1010
0000
0010
0100
0001
0000
1000
0001
1000
0001
1000
0000
0110
0000
0011
0000
1100
0000
0001
0100
0010
0000
0100
0010
0100
0010
0100
0000
,
1010
0000
0101
0000
0110
0000
0001
0100
0010
0000
1000
0100
1000
0100
1000
0000
0011
0000
1100
0000
0110
0000
1000
0010
0100
0000
0001
0010
0001
0010
0001
0000
,
2000
0000
3010
0100
0002
0000
0103
0010
0200
0000
0310
1000
0020
0000
0130
0000
0002
0000
0103
0010
2000
0000
3010
0100
0020
0000
0130
0001
0020
0000
0031
0000
,
1020
0000
0130
0001
1001
0000
0010
1000
0102
0000
0013
0100
2010
0000
3001
0000
0201
0000
0310
1000
1020
0000
0130
0001
0102
0000
0103
0010
2010
0000
3001
0000
,
0001
0100
0010
0000
1000
0000
0010
0100
0001
0000
0100
0010
1000
0010
0100
0001
0100
0000
0010
0100
0001
0000
0010
0000
0100
1000
0001
0010
0100
0010
1000
0010
,
1000
0000
0001
0100
0010
0000
0100
0010
0000
1000
0010
0000
0100
0001
0100
0010
1000
0010
0100
0000
0001
0100
0010
0000
1000
0010
0100
0001
0010
0100
1000
0001
,
1001
1000
1010
0010
0110
0100
0101
0001
0011
0010
0110
0100
1100
1000
1001
0001
,
0011
0101
0011
0101
0011
1001
0011
1001
1100
1010
1100
1010
1100
1001
1100
1001
,
1100
0000
0011
0000
0110
0000
0100
0001
1000
0000
0010
0100
1000
0001
0010
0000
1100
0000
0110
0000
0011
0000
1000
0010
0100
0000
1000
0100
0010
0001
0100
0000
,
0001
0100
0010
0000
0110
0000
1000
0010
0100
0000
0101
0000
0100
0010
1000
0000
0001
0100
0010
0000
0110
0000
1000
0100
0010
0000
0101
0000
0001
1000
0010
0000
,
1000
0010
0100
0000
0001
0000
0100
0010
0000
1000
0010
0000
0100
0001
0100
0010
1000
0000
0001
0100
0010
0000
1000
0000
0010
0100
0001
0100
0010
1000
0010
0000
,
0100
1000
0010
0000
0100
0001
0100
0000
0010
1000
0001
0100
0000
0010
0100
1000
0001
0100
0001
0100
0000
1000
0000
0010
0100
0001
1000
0010
0100
0001
1000
0000
,
0001
0100
0001
0000
1000
0010
1000
0000
0010
0100
0001
1000
0010
0100
0010
0000
1000
0010
0100
0000
0001
0100
0010
0000
1000
0100
0010
0001
0100
0010
1000
0000
,
0001
0100
0010
0100
0001
1000
0010
0000
1000
0010
0100
0010
1000
0001
0100
0000
0001
0010
0100
1000
0010
0100
0001
1000
0010
0100
0001
1000
0100
0010
0001
0000
,
1000
0010
0100
0000
0001
0010
0000
0001
0100
0010
1000
0010
0100
0010
1000
0000
0001
0100
0010
0000
0100
0010
0000
1000
0010
1000
0100
0010
0001
0100
0001
0000
,
0010
0001
0100
0000
0010
1000
0000
0001
0010
0100
0001
1000
0010
0100
0001
0100
0010
1000
0010
0000
0100
0001
0000
0010
0100
1000
0001
0010
0001
1000
0100
0000
,
1001
0001
0101
0000
1010
0010
0110
0000
0011
0000
1010
0000
0101
0000
1100
0000
1002
0000
1003
0000
0120
0000
0130
0000
2002
0000
0000
0000
0000
0000
0000
0000
,
0000
3003
0000
0000
;

//---------------dance-single - TRICKY----------------
#NOTES:
     dance-single:
     TRICKY:
     Medium:
     7:
     0.351,0.380,0.076,0.152,0.372,264.000,9.000,18.000,0.000,0.000:
0000
0000
0000
0000
,
0000
0000
0000
0000
,
1000
0100
1000
0010
,
0100
0010
0100
0001
,
0010
0001
0100
0000
0010
1000
0100
0000
,
1000
0010
0100
0000
0001
0100
0010
0000
,
1000
0000
0010
0100
0001
0000
0100
0000
0010
0000
1000
0001
0010
0000
0001
0000
,
0100
0000
0010
1000
0100
0000
1000
0010
0100
0000
0001
0010
0100
0000
1000
0000
,
0001
0100
0000
0110
0000
1000
0010
0000
0100
0001
0000
0100
0010
1000
0001
0000
,
0100
0010
0000
1001
0000
0001
0010
0001
0100
0001
0000
0100
0001
0010
1000
0000
,
0010
0001
0000
0101
0000
1000
0100
0000
0001
0010
0000
0100
1000
0010
0100
0000
,
0001
1000
0000
1010
0000
0100
0001
0000
0010
0100
1000
0001
0100
0010
1000
0001
,
2000
3001
0002
1003
2000
3001
0002
1003
,
0020
0130
0200
0310
0020
0130
0200
0310
,
2000
0010
3100
0000
0002
0100
0013
0000
2000
0010
3100
0000
0002
0100
0013
0000
,
0200
0010
1300
0000
0002
0100
1003
0000
0020
0100
0031
0000
2000
0100
3001
0000
,
1000
0010
0001
0010
1000
0010
0001
0000
0001
0100
1000
0100
0001
0100
1000
0000
,
0010
1000
0100
1000
0010
1000
0100
0000
0001
0010
0001
0100
0001
0010
0001
0000
,
0100
1000
0010
0000
1000
0000
0100
0000
1000
0010
0001
0000
0010
0000
1000
0000
,
0010
0001
0100
0000
0001
0000
0010
0000
0001
0100
1000
0000
0100
0000
0001
0000
,
1000
0000
1010
0000
0010
0100
0001
0000
0001
0000
0011
0000
0010
0100
1000
0000
,
0010
0000
0110
0000
0100
0000
0101
0000
0001
0010
0100
0000
1000
0010
0100
0000
,
0001
0010
0001
0100
0001
0010
0001
0000
1000
0100
1000
0010
1000
0100
1000
0000
,
0001
0100
0010
0100
1000
0100
0001
0010
0001
0100
0010
1000
0100
0010
0001
0000
,
1000
0000
0010
0000
1000
0000
0000
0010
1000
0000
0010
0000
1000
0000
0000
0000
0001
0000
0100
0000
0001
0000
0000
0100
0001
0000
0100
0000
0001
0000
0000
0000
,
0010
0000
0100
0000
0010
0000
0000
0100
0010
0000
0100
0000
0010
0000
0000
0000
1000
0000
0001
0000
1000
0000
0000
0001
1000
0000
0001
0000
1000
0000
0000
0000
,
0001
0100
0001
0000
1000
0010
1000
0000
0001
0010
0100
1000
2002
0000
0000
0000
,
0000
3003
0000
0000
;

//---------------dance-single - BASIC----------------
#NOTES:
     dance-single:
     BASIC:
     Easy:
     5:
     0.245,0.288,0.008,0.152,0.106,184.000,1.000,18.000,0.000,0.000:
0000
0000
0000
0000
,
0000
0000
0000
0000
,
1000
0000
1000
0000
,
0001
0000
0001
0000
,
0100
0100
0010
0010
,
1000
1000
0001
0001
,
1000
0010
1000
0010
0100
0001
0100
0001
,
0010
0100
0010
0100
1000
0001
1000
0001
,
0010
0100
0000
0001
0000
0000
0001
0000
0100
1000
0000
0001
0000
0000
0001
0000
,
0010
1000
0000
0100
0000
0000
0100
0000
1000
0000
0010
0000
0001
0000
0010
0000
,
0100
0010
0000
0010
0000
0000
0010
0000
1000
0001
0000
0001
0000
0000
0001
0000
,
1000
0100
0000
0010
0000
0000
0001
0000
1000
0000
0010
0000
0100
0000
0001
0000
,
2000
3000
0002
0003
2000
3000
0002
0003
,
0020
0030
0200
0300
0020
0030
0200
0300
,
2000
3100
0002
0013
2000
3100
0002
0013
,
0200
1300
0002
1003
0020
0031
2000
3001
,
1000
0000
0010
0000
1000
0010
1000
0000
0001
0000
0010
0000
0001
0010
0001
0000
,
0100
0010
0100
0010
1000
0001
1000
0001
,
0100
0000
0010
0000
1000
0100
0001
0000
0100
0000
0010
0000
0001
0100
1000
0000
,
0100
0001
0010
0100
1000
0010
0100
0001
,
1000
0010
1000
0000
0010
0000
1000
0000
0001
0100
0001
0000
0100
0000
0001
0000
,
0100
0010
0100
0000
0010
0000
0100
0000
0001
1000
0001
0000
1000
0001
1000
0000
,
0001
0010
0001
0010
0100
1000
0100
1000
,
0001
0010
0100
0000
1000
0100
0001
0000
0100
1000
0010
0000
0100
0001
0010
0000
,
1000
0010
0001
0100
1000
0010
0001
0100
,
0010
1000
0100
0001
0010
1000
0100
0001
,
0010
0100
0001
1000
0010
0100
2002
0000
,
0000
3003
0000
0000
;
