#TITLE:Rampage;
#SUBTITLE:(Original Mix);
#ARTIST:Virtual Riot;
#TITLETRANSLIT:;
#SUBTITLETRANSLIT:;
#ARTISTTRANSLIT:;
#CREDIT:;
#BANNER:../Banner.png;
#BACKGROUND:../BG.png;
#LYRICSPATH:;
#CDTITLE:../CDTitleKIRBY.png;
#MUSIC:Virtual Riot - Rampage (Original Mix).ogg;
#OFFSET:-0.075;
#SAMPLESTART:34.558;
#SAMPLELENGTH:12.000;
#SELECTABLE:YES;
#BPMS:0.000=174.000;
#STOPS:;
#BGCHANGES:;
// cache tags:
#FIRSTBEAT:0.000;
#LASTBEAT:608.000;
#SONGFILENAME:Songs/Index Fusion/Rampage - [Kirby5464]/Rampage.sm;
#HASMUSIC:1;
#HASBANNER:1;
#MUSICLENGTH:210.845;
// end cache tags

//---------------dance-single - ----------------
#NOTES:
     dance-single:
     :
     Challenge:
     16:
     1.000,1.000,0.204,0.835,1.000,1617.000,43.000,176.000,12.000,1.000:
1000
0100
1000
0001
0100
0001
1000
0010
0100
0010
1000
0001
0010
0100
1000
0100
,
0010
0001
1000
0010
0100
0001
1000
0001
0010
0100
0010
0001
1000
0100
1000
0001
,
0100
0001
1000
0100
0010
0001
0010
0100
1000
0001
1000
0001
0100
0010
1000
0010
,
1000
0001
0100
0010
1000
0001
1000
0001
0010
0100
1000
0001
1000
0100
0010
0100
,
1000
0001
1000
0010
0100
0001
1000
0010
0100
0001
1000
0001
0010
0100
1000
0100
,
0010
0001
1000
0001
0100
0010
0100
0001
1000
0001
1000
0100
0010
0001
0100
0001
,
1000
0100
1000
0010
1000
0001
0010
0001
0100
0001
1000
0100
0010
0001
0100
0001
,
1000
0100
1000
0010
1000
0001
0010
0001
1000
0010
1000
0100
0010
0100
1000
0001
,
0020
0030
0002
0003
0200
0300
0020
0030
2000
3000
0200
0300
0020
0030
0200
0300
2000
3000
0002
0003
0200
0300
0020
0030
2000
3000
0002
0003
2000
3000
0002
0003
,
0200
0000
0000
0300
0000
0000
0020
0000
0000
0000
0030
0000
0200
0000
0000
0000
0300
0000
0002
0000
0000
0000
0003
0000
2000
0000
0000
0000
3000
0000
0002
0000
0000
0000
0003
0000
0020
0000
0000
0000
0030
0000
0200
0000
0000
0000
0300
0000
2000
0000
0000
0000
3000
0000
0020
0000
0000
0000
0030
0000
0200
0000
0000
0000
0300
0000
0020
0000
0000
0000
0030
0000
2000
0000
0000
0000
3000
0000
0002
0000
0000
0000
0003
0000
2000
0000
0000
0000
3000
0000
0200
0000
0000
0000
0300
0000
,
0020
0000
0030
0002
0000
0003
0200
0000
0300
0002
0000
0003
2000
0000
3000
0020
0000
0030
0200
0000
0300
0002
0000
0003
0020
0000
0030
0002
0000
0003
2000
0000
3000
0020
0000
0030
2000
0000
3000
0200
0000
0300
0020
0000
0030
0002
0000
0003
,
2000
0000
3000
0020
0000
0030
0200
0000
0300
0020
0000
0030
2000
0000
3000
0002
0000
0003
0200
0000
0300
0002
0000
0003
2000
0000
3000
0200
0000
0300
0020
0000
0030
0002
0000
0003
0200
0000
0300
0020
0000
0030
2000
0000
3000
0020
0000
0030
,
0200
0000
0300
0002
0000
0000
0023
0000
0000
0032
0000
0000
2003
0000
0000
3200
0000
0000
0320
0000
0000
0032
0000
0000
2003
0000
0000
3200
0000
0000
2300
0000
0000
3002
0000
0000
0203
0000
0000
0320
0000
0000
2030
0000
0000
3020
0000
0000
,
0230
0302
2003
3200
2300
3002
0203
0320
2030
3002
0023
0032
2003
3200
0320
0032
,
0203
0320
2030
3020
0230
0302
2003
3200
2300
3020
0230
0320
2030
3002
0203
0302
,
2003
0000
0000
0000
0000
0000
0000
0000
3001
0010
0100
1000
0001
1000
0010
0100
,
0010
1000
0100
0010
0001
0010
0100
1000
0001
0100
0010
1000
0001
1000
0100
0010
,
0100
1000
0001
0010
0001
1000
0010
1000
0001
0010
0100
1000
0100
0010
0001
1000
,
0001
1000
0010
0100
0001
0100
0001
1000
0010
0100
0001
1000
0001
1000
0100
0010
,
0001
1000
0001
0010
0100
0010
0001
1000
0001
0100
0010
1000
0001
0100
0010
1000
,
0002
0000
0000
0000
0000
0000
0000
0000
0000
0000
0000
0000
0203
0000
0000
0000
0000
0000
0000
0000
0000
0320
0000
0000
0000
0000
0000
0000
0000
0000
1030
0000
0100
0000
1000
0000
0010
0000
0100
0000
0010
0000
1000
0000
0001
0000
0100
0000
,
2001
0000
3020
0000
0230
0000
0000
0302
0000
0000
2003
0000
3004
0000
0000
0000
,
0203
0000
0000
0000
0000
0000
0000
0000
0000
0000
0000
0000
0320
0000
0000
0000
0000
0000
0000
0000
0000
2030
0000
0000
0000
0000
0000
0000
0000
0000
3001
0000
0100
0000
0001
0000
0010
0000
0001
0000
1000
0000
0100
0000
1000
0000
0001
0000
,
2000
0000
3002
0000
0023
0000
0000
0032
0000
0000
0103
0010
1000
0100
0010
0001
,
0010
0100
1000
0001
1000
0001
0100
0010
0100
0001
1000
0001
0010
0100
1000
0010
,
0100
0010
1000
0001
1000
0100
0010
0001
0100
0001
1000
0010
0100
0001
0010
0001
,
1000
0010
1000
0100
0010
0001
1000
0010
0100
0010
1000
0001
0100
0001
1000
0100
,
0010
0001
0100
0010
1000
0010
0100
0001
0010
0001
1000
0100
0010
0001
1000
0100
,
2000
0000
0000
0000
0000
0000
0000
0000
0000
0000
0000
0000
3002
0000
0000
0000
0000
0000
0000
0000
0000
2003
0000
0000
0000
0000
0000
0000
0000
0000
3100
0000
0010
0000
0001
0000
0100
0000
0010
0000
0100
0000
0001
0000
1000
0000
0010
0000
,
2000
0000
3020
0000
0230
0000
0000
0302
0000
0000
2003
0000
3004
0000
0000
0000
,
0203
0000
0000
0000
0000
0000
0000
0000
0000
0000
0000
0000
0320
0000
0000
0000
0000
0000
0000
0000
0000
2030
0000
0000
0000
0000
0000
0000
0000
0000
3001
0000
0010
0000
0001
0000
1000
0000
0010
0000
1000
0000
0001
0000
1000
0000
0100
0000
,
0010
0001
1000
0000
0010
0000
1000
0000
0100
0000
0010
0000
0001
0000
0000
0000
0100
0000
0000
0000
0001
0000
0000
0000
,
0100
0010
1000
0001
1000
0100
0010
0001
1000
0001
0100
0010
1000
0100
0010
0001
,
1000
0100
1000
0001
0100
0001
0010
0001
1000
0100
1000
0001
0100
0001
1000
0100
,
1000
0001
0100
0010
1000
0001
1000
0100
0010
0001
1000
0100
1000
0010
0100
0010
,
1000
0001
0010
0100
1000
0001
1000
0010
0100
0001
1000
0010
1000
0001
0010
0001
,
0100
0010
1000
0001
0010
0100
1000
0001
1000
0010
0100
0001
1000
0001
0010
0100
,
1000
0010
1000
0001
1000
0100
0010
0001
0100
0001
1000
0010
1000
0001
1000
0001
,
0010
0001
0100
0010
1000
0001
1000
0100
0010
0001
1000
0010
1000
0100
0010
0001
,
1000
0010
0100
0001
1000
0001
1000
0100
1000
0001
0100
0001
0010
0001
1000
0010
,
0100
0010
1001
0010
0100
0010
1010
0001
,
0010
0100
1100
0001
1000
0001
1001
0100
,
0010
0100
0110
0001
1000
0001
0101
1000
,
0010
1000
1100
0001
0100
0010
1010
0100
,
0010
0100
0010
0100
0010
0100
0010
0100
,
0010
0100
0010
0100
0010
0100
0010
0100
,
0001
1000
0001
1000
0001
1000
0001
1000
0001
1000
0001
1000
0001
1000
0001
1000
,
0004
0000
0000
0000
0000
0000
0000
0000
1003
0100
1000
0010
0100
0001
0010
0001
,
4000
0000
0000
0000
0000
0000
3000
0000
0001
0100
0001
1000
0010
0100
0001
0010
,
0001
1000
0100
0010
0100
1000
0010
0100
0001
0010
0001
1000
0001
0100
0010
1000
,
0040
0000
0000
0000
0000
0000
0030
0000
1000
0100
0010
0001
1000
0010
0100
0001
,
0010
0100
1000
0001
0100
0010
1000
0100
1000
0010
0100
0001
0010
0100
1000
0001
,
0400
0000
0000
0000
0320
0030
2000
3000
0200
0300
2000
3000
0020
0030
0200
0300
,
0002
0000
0000
0003
0000
0000
0020
0000
0000
0030
0000
0000
0200
0000
0000
0300
0000
0000
2000
0000
0000
3000
0000
0000
0001
0000
0010
0000
0100
0000
1000
0000
0001
0000
0100
0000
0010
0000
1000
0000
0100
0000
1000
0000
0001
0000
0100
0000
,
0020
0000
0030
0000
2000
3000
0200
0300
0040
0030
0000
0000
0004
0003
0000
0000
,
0400
0300
0040
0030
2000
3000
0002
0003
2000
3000
0200
0300
0040
0030
0004
0003
,
2000
0000
3002
0000
0203
0000
0302
0000
0023
0031
1000
0100
1000
0010
0100
0001
,
1000
0001
0010
0100
1000
0001
0100
0001
1000
0100
1000
0010
0100
0001
0010
0100
,
4000
3000
0040
0030
4000
3000
0004
0003
0100
0001
1000
0100
1000
0010
0100
0001
,
0010
0100
1000
0001
0100
0010
1000
0100
1000
0010
0100
0001
0010
0001
1000
0100
,
0010
0000
0001
0000
1000
0000
0010
0000
0100
0000
0001
0000
0010
0000
0001
0000
1000
0000
0100
0000
0010
0000
0100
0000
4000
0000
0000
3000
0000
0000
0040
0000
0000
0030
0000
0000
0400
0000
0000
0300
0000
0000
0004
0000
0000
0003
0000
0000
,
4000
3000
0004
0003
0040
0030
0004
0003
4000
3000
0400
0300
0040
0030
0400
0300
,
4000
3000
0000
0000
0004
0003
0400
0300
0020
0030
0000
0000
4000
3000
0004
0003
,
0200
0000
0320
0000
0230
0000
0302
0000
2003
0000
3002
0000
,
0203
0300
0000
0000
0000
0000
0000
0000
0000
0000
0000
0000
0000
0000
0000
0000
,
0000
0000
0000
0000
,
0000
0000
0000
0000
,
0000
0000
0200
0000
0000
0302
0000
0000
,
0000
0000
0000
0000
,
0000
0000
0000
0000
,
0000
0000
0000
0000
,
0000
0000
2003
0000
,
3010
0100
1000
0001
1000
0001
0100
0010
,
1000
0001
1000
0100
0010
0001
1000
0010
,
1000
0001
1000
0001
0010
0100
1000
0001
,
1000
0001
0100
0010
0100
0001
1000
0001
,
1000
0001
0010
0001
0010
0100
1000
0100
,
1000
0001
0100
0001
1000
0010
0100
0001
,
1000
0100
1000
0001
0010
0100
0010
0001
,
1000
0001
1000
0010
0100
0010
1000
0001
,
0100
0010
1001
0010
0100
0010
1010
0001
,
0010
0100
1100
0001
1000
0001
1001
0100
,
0010
0100
0110
0001
1000
0001
0101
1000
,
0010
1000
1100
0001
0100
0010
1010
0100
,
0010
0100
1001
0100
0010
0100
0101
1000
,
0100
0010
0011
1000
0001
1000
1001
0010
,
0100
0010
0110
1000
0001
1000
1010
0001
,
0100
0001
0011
1000
0010
0100
0101
0010
,
1000
0010
0100
0001
0010
0100
1000
0010
,
0100
0010
1001
0010
0100
0010
1010
0001
,
0010
0100
1100
0001
1000
0001
1001
0100
,
0010
0100
0110
0001
1000
0001
0101
1000
,
0010
1000
1100
0001
0100
0010
1010
0100
,
0001
0100
1001
0010
0100
0010
1010
0001
,
0010
0100
1100
0001
1000
0001
1001
0100
,
0010
0100
0110
0001
1000
0001
0101
1000
,
0010
0100
0010
0100
0010
0100
0010
0100
,
0010
0100
0010
0100
0010
0100
0010
0100
,
0010
0100
0010
0100
0010
0100
0010
0100
,
0010
0000
0100
0000
0010
0000
0100
0000
0001
0010
0100
0010
0001
1000
0001
1000
,
0010
0100
0010
1000
0001
0010
0100
1000
0100
0010
0001
1000
0010
0100
0001
1000
,
0001
0010
0100
0010
0001
1000
0100
1000
0001
0100
0001
1000
0100
0010
0001
0010
,
0100
1000
0001
1000
0001
0100
0010
1000
0010
1000
0001
0100
0010
1000
0001
1000
,
0001
0010
0100
1000
0001
1000
0100
0010
0100
1000
0001
1000
0010
0100
0001
1000
,
0010
0100
0001
1000
0001
0010
0100
1000
0100
0010
0001
1000
0001
0100
0010
0100
,
0001
1000
0001
1000
0100
0010
0001
0100
0001
1000
0100
1000
0010
1000
0001
0010
,
0001
0100
0001
1000
0100
0010
0001
0100
0001
1000
0100
1000
0010
1000
0001
0010
,
0001
1000
0010
1000
0100
0010
0100
1000
0001
0010
0001
0100
0010
1000
0100
0010
,
0100
1000
0001
0100
0010
1000
0001
1000
0001
0100
0010
0100
0001
1000
0001
0010
,
0100
1000
0010
0100
0010
1000
0001
1000
0100
0010
0001
0100
0001
1000
0010
0100
,
0001
0010
0001
1000
0010
1000
0100
0010
0001
1000
0010
0100
0010
1000
0001
0100
,
0001
1000
0100
0010
0001
0100
0010
1000
0010
0100
0001
0010
0001
1000
0100
0010
,
0001
1000
0100
1000
0001
0100
0010
1000
0010
0100
0001
1000
0100
1000
0001
0100
,
0010
1000
0001
0010
0001
1000
0100
0010
0001
0100
0010
1000
0010
0100
0001
1000
,
0200
0300
00M0
0000
00M0
0000
00M0
0000
00M0
0000
00M0
0000
00M0
0000
00M0
0000
,
00M0
0000
00M0
0000
00M0
0000
00M0
0000
1000
0100
0010
0001
1000
0001
0100
0010
,
0100
0001
0010
0100
1000
0100
0010
0001
1000
0010
0100
0001
1000
0001
0010
0100
,
0010
0001
1000
0100
1000
0001
0100
0001
1000
0100
0010
0001
0010
0100
1000
0001
,
1000
0001
0100
0010
1000
0010
1000
0001
0100
0010
1000
0001
1000
0001
0010
0100
,
1000
0001
1000
0100
0010
0100
1000
0001
1000
0010
0100
0001
1000
0010
0100
0001
,
1000
0100
0010
0100
1000
0001
1000
0001
0100
0010
0100
0001
1000
0100
0010
0001
,
0010
0100
1000
0001
0100
0010
1000
0001
1000
0100
0010
0100
1000
0001
0010
0001
,
1000
0010
1000
0001
0010
0100
1000
0100
0010
0001
1000
0001
1000
0010
0100
0001
,
0100
0001
1000
0010
0100
0001
1000
0001
1000
0100
0010
0001
1000
0001
0010
0100
,
0010
0001
1000
0001
0100
0010
1000
0001
0100
0010
1000
0001
1000
0100
0010
0001
,
0010
0100
1000
0001
1000
0010
0100
0010
1000
0001
1000
0001
0010
0100
1000
0010
,
1000
0001
0010
0001
0100
0001
1000
0100
1000
0010
1000
0001
0010
0100
1000
0010
,
1000
0001
0010
0001
0100
0001
1000
0100
1000
0001
0100
0001
0010
0100
0010
0001
,
1000
0100
1000
0010
0100
0001
0010
0100
0010
0001
1000
0010
0100
0001
1000
0001
,
1000
0010
0100
0010
1000
0001
1000
0100
0010
0001
0100
0010
0100
0001
1000
0001
,
0010
0100
1000
0010
1000
0001
0100
0010
1000
0100
1000
0001
0100
0001
0010
0100
,
1000
0001
0100
0010
0100
0001
1000
0010
1000
0001
0010
0100
1000
0010
0100
0001
,
0100
0010
1000
0001
0100
0001
1000
0010
,
0100
0001
1000
0001
0010
0100
1000
0100
,
1000
0001
1000
0001
0100
0010
1000
0010
,
1000
0010
1000
0001
0010
0100
1000
0100
,
0010
0001
1000
0001
0100
0010
0100
0001
,
1000
0010
1000
0001
0010
0001
1000
0100
,
0010
0100
1000
0001
1000
0001
0100
0010
,
0100
0001
1000
0010
1000
0001
0010
0100
,
1000
0100
1000
0001
0010
0001
1000
0010
,
1000
0001
1000
0100
0010
0001
1000
0010
,
0100
0001
0100
0001
1000
0100
0010
0001
,
1000
0100
2000
0000
0000
0002
0000
0000
,
0020
0000
0000
0000
,
0000
0000
0000
0000
,
0000
0000
0000
0000
,
0000
0000
0000
0000
,
0000
0000
0000
0000
,
0000
0000
0000
0000
,
3033
0000
0000
0000
,
0000
0000
0000
0000
,
00M0
0000
0000
0000
;
