#TITLE:Valiant;
#SUBTITLE:;
#ARTIST:Kita Khyber;
#TITLETRANSLIT:;
#SUBTITLETRANSLIT:;
#ARTISTTRANSLIT:;
#CREDIT:;
#BANNER:../banner.png;
#BACKGROUND:../bg.png;
#LYRICSPATH:;
#CDTITLE:;
#MUSIC:Valiant.ogg;
#OFFSET:-0.016;
#SAMPLESTART:72.280;
#SAMPLELENGTH:20.840;
#SELECTABLE:YES;
#BPMS:0.000=186.000;
#STOPS:;
#BGCHANGES:;
// cache tags:
#FIRSTBEAT:16.000;
#LASTBEAT:356.000;
#SONGFILENAME:Songs/Cirque du Lykan/Valiant - [Zaia]/Valiant.sm;
#HASMUSIC:1;
#HASBANNER:1;
#MUSICLENGTH:118.374;
// end cache tags

//---------------dance-single - Zaia - 14(mid)----------------
#NOTES:
     dance-single:
     Zaia - 14(mid):
     Challenge:
     14:
     1.000,1.000,0.000,0.084,1.000,927.000,0.000,10.000,0.000,0.000:
0000
0000
0000
0000
,
0000
0000
0000
0000
,
0000
0000
0000
0000
,
0000
0000
0000
0000
,
1000
0100
1000
0001
0010
0100
1000
0001
,
0100
0010
1000
0001
0010
0001
1000
0010
,
1000
0100
0010
0100
1000
0001
0100
0010
,
0100
0000
0001
0000
1000
0000
0001
0000
0010
0100
0000
1000
0001
0000
0100
0000
,
0010
1000
0001
0000
0010
0100
1000
0001
1000
0010
0100
0000
0001
0010
0100
1000
,
0001
1000
0010
0000
0100
0001
1000
0001
0010
0100
1000
0000
0001
0100
0001
1000
,
0100
0010
0001
0000
0100
0010
1000
0001
1000
0100
0010
0000
0001
1000
0010
0100
,
0001
1000
0100
0000
0010
0100
1000
0001
1000
0010
0100
0000
0001
0000
0001
0000
,
1000
0010
1000
0000
0010
0100
0001
1000
0001
0010
0100
0000
1000
0010
0100
0001
,
1000
0001
0010
0000
0100
1000
0001
1000
0010
0100
0001
0000
1000
0100
1000
0001
,
0100
0010
1000
0000
0100
0010
0001
1000
0001
0100
0010
0000
1000
0001
0010
0100
,
1000
0001
0100
0000
0010
0100
0001
1000
0001
0010
0000
0100
1000
0000
0001
0000
,
1000
0100
1000
0001
0100
0010
0100
0001
1000
0001
0010
0100
1000
0001
1000
0010
,
1000
0010
0100
0001
1000
0100
1000
0001
0010
0100
0010
0001
1000
0001
0100
0010
,
0100
0001
1000
0010
1000
0001
1000
0100
0010
0100
1000
0001
0100
0010
0100
0010
,
1000
0001
0010
0001
1000
0100
1000
0010
0100
0001
1000
0001
0010
0100
1000
0001
,
1000
0010
0100
0001
1000
0010
1000
0100
1000
0100
0010
0100
1000
0001
1000
0010
,
0100
0010
1000
0001
1000
0100
0010
0001
1000
0010
1000
0001
1000
0001
0010
0001
,
0100
0010
1000
0001
0010
0001
1000
0100
0010
0001
1000
0001
0100
0010
0100
0001
,
1000
0100
1000
0001
0010
0001
1000
0100
1000
0001
0100
0001
1000
0010
1000
0001
,
0010
0100
1000
0010
0010
0100
0001
0001
,
1000
0001
0010
0001
1000
0001
0100
0001
,
0001
0010
0100
1000
1000
0001
0001
0100
,
0010
1000
0001
0010
0100
1000
0001
1000
,
0010
0100
0001
0010
0010
0100
1000
0001
,
1000
0010
1000
0100
1000
0001
0100
0010
,
0010
1000
0010
0100
0001
0001
1000
0100
,
0100
0010
0100
1000
0001
1000
0010
0100
,
0001
0010
0001
0100
0100
0010
1000
1000
,
0001
1000
0100
1000
0001
1000
0010
1000
,
1000
0100
0010
0001
0001
1000
1000
0010
,
0100
0001
1000
0100
0010
0001
1000
0001
,
0100
0010
1000
0100
0100
0010
0001
1000
,
0001
0100
0001
0010
0001
1000
0010
0100
,
0100
0001
0100
0010
1000
1000
0001
0010
,
0010
0100
0010
0001
1000
0001
0100
0010
,
1000
0001
1000
0100
0100
0010
0001
1000
,
0001
0001
0100
0001
1000
0001
0010
0001
,
0001
0100
0010
1000
1000
0001
0001
0010
,
0100
1000
0001
0100
0010
1000
0001
1000
,
0100
0010
0001
0100
0100
0010
1000
0001
,
1000
0100
1000
0010
1000
0001
0010
0100
,
0100
1000
0100
0010
0001
0001
1000
0010
,
0010
0100
0010
1000
0001
1000
0100
0010
,
0001
1000
0010
0100
0001
1000
0010
0100
,
0001
1000
0010
0100
0001
1000
0010
0100
,
0001
0010
0100
1000
0001
0010
0100
1000
,
0001
0010
0100
1000
0001
0010
0100
1000
,
0001
0100
0001
1000
0100
1000
0001
0010
,
0001
1000
0010
1000
0001
0100
0010
1000
,
0001
0100
0010
1000
0100
1000
0100
0010
0001
1000
0010
0100
0001
1000
0001
2000
,
0000
0000
3000
0000
,
0001
0010
0001
1000
0010
0100
0010
1000
0001
1000
0100
0010
0001
1000
0001
0100
,
0001
0100
0010
1000
0001
0010
0001
1000
0100
0010
0100
1000
0001
1000
0010
0100
,
0010
1000
0001
0100
0001
1000
0001
0010
0100
0010
0001
1000
0010
0100
0010
0100
,
0001
1000
0100
1000
0001
0010
0001
0100
0010
1000
0001
1000
0100
0010
0001
1000
,
0001
0100
0010
1000
0001
0100
0001
0010
0001
0010
0100
0010
0001
1000
0001
0100
,
0010
0100
0001
1000
0001
0010
0100
1000
0001
0100
0001
1000
0001
1000
0100
1000
,
0010
0100
0001
1000
0100
1000
0001
0010
0100
1000
0001
1000
0010
0100
0010
1000
,
0001
0100
0010
1000
0001
0010
0001
0100
0010
1000
0001
0010
0100
1000
0001
1000
,
0001
0100
0001
1000
0100
0010
0100
1000
0001
1000
0010
0100
0001
1000
0001
0010
,
0001
0010
0100
1000
0001
0100
0001
1000
0010
0100
0010
1000
0001
1000
0100
0010
,
0100
1000
0001
0010
0001
1000
0001
0100
0010
0100
0001
1000
0100
0010
0100
0010
,
0001
1000
0010
1000
0001
0100
0001
0010
0100
1000
0001
1000
0010
0100
0001
1000
,
0001
0010
0100
1000
0001
0010
0001
0100
0001
0100
0010
0100
0001
1000
0001
0010
,
0100
0010
0001
1000
0001
0100
0010
1000
0001
0010
0001
1000
0001
1000
0010
1000
,
0100
0010
0001
1000
0010
1000
0001
0100
0010
1000
0001
1000
0100
0010
0100
1000
,
0001
0100
0001
1000
0100
0010
0001
1000
0010
0100
0001
1000
0100
1000
0001
1000
,
0010
0100
0001
0001
1000
0010
1000
0100
,
1000
0001
0100
0001
1000
0001
0010
0100
,
1000
0001
0010
0010
0001
1000
0001
0100
,
0001
1000
0010
1000
0001
0010
0001
1000
,
0010
0100
0010
0010
1000
0001
1000
0100
,
1000
0001
0010
0001
0100
0010
1000
0001
,
0100
0010
1000
1000
0001
0010
0001
0100
,
0001
0000
1000
0000
0100
0000
0010
0000
0001
0100
0000
0010
1000
0000
0001
0000
,
2000
0100
3100
0010
0002
1000
1003
0010
,
0200
0001
0301
2000
3100
0010
0001
1000
,
0001
0100
0001
0100
0010
0100
0010
1000
,
0010
1000
0001
1000
0100
1000
0001
0100
,
0020
0100
0130
0001
0200
0010
0310
1000
,
0002
0010
0013
0200
1300
0001
1000
0010
,
1000
0001
0100
0010
0100
0001
1000
0001
0010
0100
1000
0100
1000
0001
0100
0001
,
0100
0010
0100
0001
1000
0001
0010
0100
1000
0001
0100
0001
0010
0001
1000
0100
,
0020
0000
0000
0000
,
0030
0000
0000
0000
;

//---------------dance-single - Zaia - 12(mid)----------------
#NOTES:
     dance-single:
     Zaia - 12(mid):
     Hard:
     12:
     0.996,1.000,0.000,0.084,0.646,815.000,0.000,10.000,0.000,0.000:
0000
0000
0000
0000
,
0000
0000
0000
0000
,
0000
0000
0000
0000
,
0000
0000
0000
0000
,
1000
0100
1000
0001
0010
0100
1000
0001
,
0100
0010
1000
0001
0010
0001
1000
0010
,
1000
0100
0010
0100
1000
0001
0100
0010
,
0100
0000
0001
0000
1000
0000
0001
0000
0010
0100
0000
1000
0001
0000
0100
0000
,
0010
1000
0001
0000
0010
0100
1000
0001
1000
0010
0100
0000
0001
0010
0100
1000
,
0001
1000
0010
0000
0100
0001
1000
0001
0010
0100
1000
0000
0001
0100
0001
1000
,
0100
0010
0001
0000
0100
0010
1000
0001
1000
0100
0010
0000
0001
1000
0010
0100
,
0001
1000
0100
0000
0010
0100
1000
0001
1000
0010
0100
0000
0001
0000
0001
0000
,
1000
0010
1000
0000
0010
0100
0001
1000
0001
0010
0100
0000
1000
0010
0100
0001
,
1000
0001
0010
0000
0100
1000
0001
1000
0010
0100
0001
0000
1000
0100
1000
0001
,
0100
0010
1000
0000
0100
0010
0001
1000
0001
0100
0010
0000
1000
0001
0010
0100
,
1000
0001
0100
0000
0010
0100
0001
1000
0001
0010
0000
0100
1000
0000
0001
0000
,
1000
0100
1000
0001
0100
0010
0100
0001
,
1000
0100
0010
0001
1000
0010
0100
0010
,
1000
0001
0010
0100
1000
0001
0100
0001
,
1000
0100
1000
0010
0100
0001
1000
1000
,
0100
0010
0001
1000
0010
0100
0010
1000
,
0001
1000
0100
0010
0001
1000
0001
0100
,
0010
0100
0001
1000
0100
1000
0001
0010
0100
1000
0001
1000
0010
0100
0010
1000
,
0001
0010
0001
1000
0100
1000
0001
0010
0001
1000
0010
1000
0001
0100
0001
1000
,
0100
0010
0001
0100
0100
0010
1000
1000
,
0001
1000
0100
1000
0001
1000
0010
1000
,
1000
0100
0010
0001
0001
1000
1000
0010
,
0100
0001
1000
0100
0010
0001
1000
0001
,
0100
0010
1000
0100
0100
0010
0001
1000
,
0001
0100
0001
0010
0001
1000
0010
0100
,
0100
0001
0100
0010
1000
1000
0001
0010
,
0010
0100
0010
0001
1000
0001
0100
0010
,
1000
0100
1000
0010
0010
0100
0001
0001
,
1000
0001
0010
0001
1000
0001
0100
0001
,
0001
0010
0100
1000
1000
0001
0001
0100
,
0010
1000
0001
0010
0100
1000
0001
1000
,
0010
0100
0001
0010
0010
0100
1000
0001
,
1000
0010
1000
0100
1000
0001
0100
0010
,
0010
1000
0010
0100
0001
0001
1000
0100
,
0100
0010
0100
1000
0001
1000
0010
0100
,
0001
1000
0001
0010
0010
0100
1000
0001
,
1000
1000
0010
1000
0001
1000
0100
1000
,
1000
0010
0100
0001
0001
1000
1000
0100
,
0010
0001
1000
0010
0100
0001
1000
0001
,
0010
0100
1000
0010
0010
0100
0001
1000
,
0001
0010
0001
0100
0001
1000
0100
0010
,
0010
0001
0010
0100
1000
1000
0001
0100
,
0100
0010
0100
0001
1000
0001
0010
0100
,
1000
0001
0100
0010
1000
0001
0100
0010
,
1000
0001
0100
0010
1000
0001
0100
0010
,
1000
0100
0010
0001
1000
0100
0010
0001
,
1000
0100
0010
0001
1000
0100
0010
0001
,
1000
0010
1000
0001
0010
0001
1000
0100
,
1000
0001
0100
0001
1000
0010
0100
0001
,
1000
0010
0100
0001
0010
0001
0010
0100
1000
0001
0100
0010
1000
0001
1000
0002
,
0000
0000
0003
0000
,
1000
0100
1000
0001
0100
0010
0100
0001
1000
0001
0010
0100
1000
0001
1000
0010
,
1000
0010
0100
0001
1000
0100
1000
0001
0010
0100
0010
0001
1000
0001
0100
0010
,
0100
0001
1000
0010
1000
0001
1000
0100
0010
0100
1000
0001
0100
0010
0100
0010
,
1000
0001
0010
0001
1000
0100
1000
0010
0100
0001
1000
0001
0010
0100
1000
0001
,
1000
0001
0100
0001
0010
0001
1000
0010
,
0100
0001
1000
0100
0010
0100
1000
0001
,
1000
0010
1000
0010
0100
0001
1000
0100
,
1000
0100
0010
0100
1000
0010
1000
0001
,
1000
0010
0100
0001
1000
0010
1000
0100
1000
0100
0010
0100
1000
0001
1000
0010
,
0100
0010
1000
0001
1000
0100
0010
0001
1000
0010
1000
0001
1000
0001
0010
0001
,
0100
0010
1000
0001
0010
0001
1000
0100
0010
0001
1000
0001
0100
0010
0100
0001
,
1000
0010
0100
0001
1000
0100
1000
0010
0100
0001
1000
0100
0010
0001
1000
0001
,
1000
0010
0100
0001
1000
0100
1000
0100
,
0010
0001
0100
0010
0100
0001
0010
0100
,
1000
0001
0100
0001
0100
0010
0100
0001
,
1000
0100
1000
0010
1000
0100
0010
0001
,
0100
0010
1000
1000
0001
0100
0001
0010
,
0001
1000
0010
1000
0001
1000
0100
0010
,
0001
1000
0100
0100
1000
0001
1000
0010
,
1000
0001
0100
0001
1000
0100
1000
0001
,
0100
0010
0100
0100
0001
1000
0001
0010
,
0001
1000
0100
1000
0010
0100
0001
1000
,
0010
0100
0001
0001
1000
0100
1000
0010
,
1000
0000
0001
0000
0010
0000
0100
0000
1000
0010
0000
0100
0001
0000
1000
0000
,
0002
0010
0013
0100
2000
0001
3001
0100
,
0020
1000
1030
0002
0013
0100
1000
0001
,
1000
0010
1000
0010
0100
0010
0100
0001
,
0100
0001
1000
0001
0010
0001
1000
0010
,
0200
0010
0310
1000
0020
0100
0130
0001
,
2000
0100
3100
0020
0031
1000
0001
0100
,
0001
1000
0010
0100
0010
1000
0001
1000
0100
0010
0001
0010
0001
1000
0010
1000
,
0010
0100
0010
1000
0001
1000
0100
0010
0001
1000
0010
1000
0100
1000
0001
0010
,
0200
0000
0000
0000
,
0300
0000
0000
0000
;

//---------------dance-single - Zaia - 9(high)----------------
#NOTES:
     dance-single:
     Zaia - 9(high):
     Medium:
     9:
     0.821,0.789,0.008,0.084,0.030,669.000,1.000,10.000,0.000,0.000:
0000
0000
0000
0000
,
0000
0000
0000
0000
,
0000
0000
0000
0000
,
0000
0000
0000
0000
,
1000
0100
1000
0001
0010
0100
1000
0001
,
0100
0010
1000
0001
0010
0001
1000
0010
,
1000
0100
0010
0100
1000
0001
0100
0010
,
0100
0000
0001
0000
1000
0000
0001
0000
0010
0100
0000
1000
0001
0000
0100
0000
,
0010
1000
1010
0010
0100
0001
1000
0100
,
0010
0100
1000
0001
0100
0001
1000
0100
,
0010
0100
1000
0001
0100
0010
1000
0001
,
1000
0100
1000
0001
0010
0001
1000
1000
,
0001
0100
0010
1000
0001
0100
0001
1000
,
0100
0010
0100
1000
0001
0100
0010
0100
,
0001
1000
0010
1000
0100
0010
0001
0100
,
0001
0000
0010
0000
0100
0000
1000
0000
0001
0010
0000
0100
1000
0000
0001
0000
,
1000
0100
1000
0001
0100
0010
0100
0001
,
1000
0100
0010
0001
1000
0010
0100
0010
,
1000
0001
0010
0100
1000
0001
0100
0001
,
1000
0100
1000
0010
0100
0001
1000
1000
,
0100
0010
0001
1000
0010
0100
0010
1000
,
0001
1000
0100
0010
0001
1000
0001
0100
,
0010
1000
0010
1000
0010
1000
0010
1000
,
0001
0100
0001
0100
0001
0100
0001
1000
,
0100
0010
0001
0100
0100
0010
1000
1000
,
0001
1000
0100
1000
0001
1000
0010
1000
,
1000
0100
0010
0001
0001
1000
1000
0010
,
0100
0001
1000
0100
0010
0001
1000
0001
,
0100
0010
1000
0100
0100
0010
0001
1000
,
0001
0100
0001
0010
0001
1000
0010
0100
,
0100
0001
0100
0010
1000
1000
0001
0010
,
0010
0100
0010
0001
1000
0001
0100
0010
,
1000
0100
1000
0010
0010
0100
0001
0001
,
1000
0001
0010
0001
1000
0001
0100
0001
,
0001
0010
0100
1000
1000
0001
0001
0100
,
0010
1000
0001
0010
0100
1000
0001
1000
,
0010
0100
0001
0010
0010
0100
1000
0001
,
1000
0010
1000
0100
1000
0001
0100
0010
,
0010
1000
0010
0100
0001
0001
1000
0100
,
0100
0010
0100
1000
0001
1000
0010
0100
,
0001
1000
0001
0010
0010
0100
1000
0001
,
1000
1000
0010
1000
0001
1000
0100
1000
,
1000
0010
0100
0001
0001
1000
1000
0100
,
0010
0001
1000
0010
0100
0001
1000
0001
,
0010
0100
1000
0010
0010
0100
0001
1000
,
0001
0010
0001
0100
0001
1000
0100
0010
,
0010
0001
0010
0100
1000
1000
0001
0100
,
0100
0010
0100
0001
1000
0001
0010
0100
,
1000
0001
0100
0010
1000
0001
0100
0010
,
1000
0001
0100
0010
1000
0001
0100
0010
,
1000
0100
0010
0001
1000
0100
0010
0001
,
1000
0100
0010
0001
1000
0100
0010
0001
,
1000
0010
1000
0001
0010
0001
1000
0100
,
1000
0001
0100
0001
1000
0010
0100
0001
,
1000
0000
0010
0000
0100
0000
0001
0000
0010
0000
0100
0000
1000
0000
0010
0200
,
0000
0000
0300
0000
,
0001
0010
0100
1000
0010
0100
0001
1000
,
0100
1000
0001
0100
0001
1000
0100
0010
,
0100
1000
0001
0100
0010
0100
0001
0010
,
0100
1000
0010
1000
0001
0100
0001
1000
,
0100
0010
0100
1000
0001
1000
0010
0100
,
0001
0010
0001
0100
0010
1000
0100
1000
,
0010
1000
0001
0100
0001
0010
0001
1000
,
0010
0100
0001
1000
0100
0010
0001
1000
,
0001
0100
0010
1000
0001
0010
0001
0010
,
0100
1000
0010
0100
0010
1000
0100
0010
,
0001
1000
0010
1000
0010
0100
0010
1000
,
0001
0010
0001
0100
0001
1000
0100
0010
,
0001
1000
0010
1000
0100
1000
0001
0100
,
0010
1000
0001
0010
0100
0010
0001
1000
,
0001
0100
0001
0100
0010
1000
0001
0010
,
0001
0010
0100
0010
0001
0100
0001
1000
,
0010
0100
0001
0001
1000
0010
1000
0100
,
1000
0001
0100
0001
1000
0001
0010
0100
,
1000
0001
0010
0010
0001
1000
0001
0100
,
0001
1000
0010
1000
0001
0010
0001
1000
,
0010
0100
0010
0010
1000
0001
1000
0100
,
1000
0001
0010
0001
0100
0010
1000
0001
,
0100
0010
1000
1000
0001
0010
0001
0100
,
0001
0000
1000
0000
0100
0000
0010
0000
0001
0100
0000
0010
1000
0000
0001
0000
,
2000
0100
3100
0010
0002
1000
1003
0010
,
0200
0001
0301
2000
3100
0010
0001
1000
,
0001
0100
0001
0100
0010
0100
0010
1000
,
0010
1000
0001
1000
0100
1000
0001
0100
,
0020
0100
0130
0001
0200
0010
0310
1000
,
0002
0010
0013
0200
1300
0001
1000
0010
,
1000
0001
0100
0010
0100
0001
0010
0100
,
1000
0001
0010
0100
0010
0001
0100
0001
,
0020
0000
0000
0000
,
0030
0000
0000
0000
;
