#TITLE:Back in the Day;
#SUBTITLE:The System Has Failed (2004);
#ARTIST:Megadeth;
#TITLETRANSLIT:;
#SUBTITLETRANSLIT:;
#ARTISTTRANSLIT:;
#CREDIT:;
#BANNER:back in day-banner.png;
#BACKGROUND:back in day-bg.png;
#LYRICSPATH:;
#CDTITLE:melonman67.png;
#MUSIC:07-megadeth_-_back_in_the_day-qtxmp3.mp3;
#OFFSET:0.770;
#SAMPLESTART:41.521;
#SAMPLELENGTH:11.680;
#SELECTABLE:YES;
#BPMS:0.000=234.000,484.000=233.500,500.000=234.000;
#STOPS:;
#BGCHANGES:;
// cache tags:
#FIRSTBEAT:4.000;
#LASTBEAT:800.000;
#SONGFILENAME:Songs/Astronomic Metal Collection/back in day (melonman67)/back in day.sm;
#HASMUSIC:1;
#HASBANNER:1;
#MUSICLENGTH:208.039;
// end cache tags

//---------------dance-single - ----------------
#NOTES:
     dance-single:
     :
     Challenge:
     13:
     1.000,1.000,1.000,0.702,1.000,1446.000,450.000,146.000,0.000,0.000:
0000
0000
0000
0000
,
0001
1000
1000
0010
1000
1000
0100
1000
,
1000
0010
1000
1000
0100
1000
0100
1000
,
0001
1000
1000
0010
1000
1000
0100
1000
,
1000
0010
1000
1000
0100
1000
0100
1000
,
0001
1000
1000
0010
1000
1000
0100
1000
,
1000
0010
1000
1000
0100
1000
0100
1000
,
0001
1000
1000
0010
1000
1000
0100
1000
,
1000
0010
1000
1000
0100
1000
0100
1000
,
0001
1000
1000
0100
1000
1000
0010
1000
,
1000
0100
1000
1000
0010
1000
0010
1000
,
0001
1000
1000
0100
1000
1000
0010
1000
,
1000
0100
1000
1000
0010
1000
0010
1000
,
0001
1000
1000
0100
1000
1000
0010
1000
,
1000
0100
1000
1000
0010
1000
0010
1000
,
0001
1000
1000
0100
1000
1000
0010
1000
,
1000
0100
1000
1000
0010
1000
0010
1000
,
1001
0000
1000
0010
1000
0001
0100
0000
,
1001
0100
0001
0000
0011
0100
1001
0010
,
1100
0000
1000
0100
0010
0001
0010
0000
,
1001
0100
0010
0000
1010
0100
1001
0000
,
1100
0000
0100
0010
0001
1000
0001
0000
,
0101
0000
0010
0000
1000
0000
0000
0000
0001
0000
1000
0100
0011
0000
0100
0000
,
1010
0000
0010
0100
0001
0010
0100
0000
,
1001
0010
1000
0001
0100
0010
0101
1000
,
0110
0000
0100
0001
0010
0100
1000
0000
,
0011
1000
0100
0000
0001
1000
0101
0010
,
1001
0000
1000
0001
0100
0001
0010
0000
,
1100
0000
0010
0000
0100
0000
0000
0000
1001
0010
0001
0010
0100
0000
1000
0000
,
0101
0000
0010
1000
0001
0010
0100
0000
,
1100
0001
1000
0000
0101
0010
1001
0000
,
0011
0000
0010
0100
1000
0010
0100
0000
,
0101
0000
0000
0000
0100
0000
0000
0000
1010
0100
0001
0010
0100
1000
0100
0010
,
2002
3003
0001
2200
3300
0100
0022
0000
,
0000
0033
0011
0110
1100
0110
0011
0110
,
2002
3003
0010
2200
3300
0100
0022
0000
,
0000
0033
0011
0110
1100
0022
0000
0033
,
2002
3003
0001
2200
3300
0100
0022
0000
,
0000
0033
0011
0110
1100
0110
0011
0110
,
2002
3003
0010
2200
3300
0100
0022
0000
,
0000
0033
0011
0110
1100
0022
0000
0033
,
0011
1000
1000
0101
1000
1000
0110
1000
,
1000
0101
1000
1000
0110
1000
0110
1000
,
0011
1000
1000
0101
1000
1000
0110
1000
,
1000
0101
1000
1000
0110
1000
0110
1000
,
0011
1000
1000
0110
1000
1000
0101
1000
,
1000
0110
1000
1000
0101
1000
0101
1000
,
0011
1000
1000
0110
1000
1000
0101
1000
,
1000
0110
1000
1000
0101
1000
0101
1000
,
1001
0000
0001
0100
0001
1000
0010
0000
,
1001
0010
1000
0000
1100
0010
1001
0000
,
0011
0000
0001
0010
0100
1000
0100
0000
,
1001
0010
0100
0000
0101
0010
1001
1100
,
0011
0000
0010
0100
1000
0001
1000
0000
,
1010
0100
0001
0000
1010
0000
0001
0000
,
0101
0000
0100
0010
1000
0100
0010
0000
,
1001
0000
0100
0000
0001
0000
1000
0000
0010
0000
0100
0001
1000
0000
0001
0100
,
2002
3003
0001
2200
3300
0100
0022
0000
,
0000
0033
0011
0110
1100
0110
0011
0110
,
2002
3003
0010
2200
3300
0100
0022
0000
,
0000
0033
0011
0110
1100
0022
0000
0033
,
2002
3003
0001
2200
3300
0100
0022
0000
,
0000
0033
0011
0110
1100
0110
0011
0110
,
2002
3003
0010
2200
3300
0100
0022
0000
,
0000
0033
0011
0110
1100
0022
0000
0033
,
1002
0000
0000
1000
0000
0000
1000
0003
,
0011
0100
1000
0010
0101
1000
0100
0010
,
1001
0010
0100
1001
0100
0010
0101
0010
,
1002
0000
0000
0000
2000
0000
0000
3003
,
1001
0000
0001
1010
0001
0100
0011
1000
,
0101
0010
0100
1000
0101
0010
0100
1000
,
0110
1000
0100
1020
0000
0031
1010
0200
,
0300
0022
0000
0000
0000
0000
0000
0033
,
2002
3003
1000
0202
0303
0001
2020
0000
,
3030
1000
0100
1000
0001
0010
0100
1000
,
1001
0000
1000
0022
0033
0001
2200
0000
,
3300
0010
0100
0010
0001
0100
0010
1000
,
2002
3003
1000
0202
0303
0001
2020
0000
,
3030
1000
0100
1000
0001
0010
0100
1000
,
2002
3003
1000
0022
0033
0001
2200
0000
,
3300
0110
1100
0110
0011
0101
0110
1010
,
1001
0010
0100
1010
0100
0010
2200
3300
,
0011
1000
0001
1000
0100
1000
0010
0100
,
0001
0010
0100
2000
0000
0000
0000
0000
,
3100
1000
0100
0010
0100
0010
0001
0010
,
1001
0000
1000
0022
0000
0033
0200
0000
,
0300
1000
0022
0033
0010
0100
1000
0100
,
0020
0000
0000
0230
0000
0000
0000
0300
,
0100
1000
0100
0010
0100
0010
0001
0010
,
1001
0010
0100
0001
0010
0101
0010
1000
,
0110
0001
0010
0100
1000
0010
0100
0001
,
0010
0100
1000
0200
0000
0000
0000
0300
,
0100
1000
0100
0010
0100
0010
0001
0010
,
2002
0000
3003
0220
0000
0330
2200
0000
,
3300
0011
0000
0011
1100
0000
1001
0010
,
0001
0010
0100
1000
0010
0001
0010
0100
1000
0001
0010
0100
,
1000
0000
0010
0000
0001
0000
0010
0000
0100
0000
1000
0000
0001
0000
0010
0000
0100
0000
1000
0000
0000
0001
0000
0000
,
0022
0033
1000
0220
0330
0001
2200
0000
,
3300
0010
2002
3003
0100
2020
3030
0010
,
0202
0000
0303
2002
3003
0010
2200
3300
,
1000
0100
0022
0033
0001
0220
0330
1000
,
0101
0000
0010
0000
0100
0000
1001
0000
0010
0000
0001
0000
1100
0010
0001
0000
,
1000
0100
1010
0100
1000
0011
0100
0001
,
0220
0330
1000
0022
0033
0001
2020
3030
,
0100
1000
0022
0000
0033
0202
0000
0303
,
1010
0000
0000
1000
0000
0000
0100
0000
0000
1001
0000
0000
0010
0000
0000
1000
0000
0000
0011
0000
0100
0000
0001
0000
,
0010
0100
1001
0010
1000
0101
0010
1000
,
0202
0303
0010
2002
3003
1000
0220
0330
,
0010
0001
2020
3030
0100
2002
0000
3003
,
0002
0000
0000
0000
0000
0000
0000
0000
0013
0000
0100
0000
,
0020
0000
0000
0000
0000
0030
0100
0000
0010
0000
0100
0000
,
1000
0010
0100
0001
0010
0100
0010
0001
1000
0010
0100
0001
,
0100
0010
1000
0100
0010
0001
0010
0100
1000
0010
0100
0010
,
1001
0000
0001
0010
0100
0000
0011
0000
1000
0010
0100
0000
,
0101
0000
0001
0010
0100
0000
1100
0000
0110
0000
0011
0000
,
1001
0000
0001
1000
0100
0000
1001
0000
0100
0010
0001
0000
,
0011
0000
0010
0100
1000
0000
1100
0000
0011
0000
1001
0000
,
0110
0000
0001
0100
0010
0000
1001
0000
1000
0100
0010
0000
,
1100
0000
1000
0001
0100
0000
0101
0000
0110
0000
1010
0000
,
1001
0000
0001
0100
0010
0000
1010
0000
0100
0010
1000
0000
,
0110
0000
0010
0001
1000
0000
1100
0000
0011
0000
1001
0000
,
0011
0000
0001
0010
0001
0000
0011
0000
0010
0001
0010
0000
,
0011
0000
0001
0010
0001
0000
0011
0000
0010
0001
0010
0000
,
0110
0000
0010
0100
0010
0000
0110
0000
0100
0010
0100
0000
,
1100
0000
1000
0100
1000
0000
0110
0000
0010
0100
0010
0000
,
1001
0000
1000
0100
0010
0000
1100
0000
0001
0100
0010
0000
,
1010
0000
1000
0100
0010
0000
1010
0000
0110
0000
0101
0000
,
1001
0000
1000
0001
0010
0000
1001
0000
0010
0100
1000
0000
,
1100
0000
0100
0010
0001
0000
1010
0000
0101
0000
1001
0000
,
1100
0000
0001
0010
0100
0000
0011
0000
1000
0010
0100
0000
,
0101
0000
0001
0010
0100
0000
1010
0000
1001
0000
0101
0000
,
1001
0000
0001
1000
0100
0000
1001
0000
0100
0010
0001
0000
,
0011
0000
0010
0100
1000
0000
1010
0000
0101
0000
0110
0000
,
1001
0000
0001
0100
0010
0000
1001
0000
1000
0100
0010
0000
,
1100
0000
1000
0001
0100
0000
1010
0000
1001
0000
0101
0000
,
1001
0000
0001
0100
0010
0000
1010
0000
0100
0010
1000
0000
,
0110
0000
0010
0001
1000
0000
0101
0000
1010
0000
1001
0000
,
0101
0000
0001
0100
0001
0000
0101
0000
0100
0001
0100
0000
,
0101
0000
0001
0100
0001
0000
0101
0000
0100
0001
0100
0000
,
0110
0000
0010
0100
0010
0000
0110
0000
0100
0010
0100
0000
,
1010
0000
0010
1000
0010
0000
0110
0000
0100
0010
0100
0000
,
1001
0000
0001
0100
1000
0000
1001
0000
1000
0100
0001
0000
,
1001
0000
0001
0010
1000
0000
1010
0000
0110
0000
0101
0000
,
1001
0000
1000
0001
0010
0000
1001
0000
0001
1000
0010
0000
,
1001
0000
0001
1000
0100
0000
1100
0000
0011
0000
1001
0000
,
1100
0000
0001
0010
1000
0000
1001
0000
0001
0100
1000
0000
,
1010
0000
0100
0001
0010
0000
1100
0000
0110
0000
0011
0000
,
1001
0000
0010
0100
1000
0000
0011
0000
1000
0100
0010
0000
,
1001
0000
0010
0100
1000
0000
1100
0000
0011
0000
1001
0000
,
0110
0000
0010
0001
0100
0000
1010
0000
1000
0100
0001
0000
,
0101
0000
0001
0100
1000
0000
1010
0000
0110
0000
0101
0000
,
1010
0000
0100
0010
1000
0000
1100
0000
0010
0100
1000
0000
,
0110
0000
0001
0010
0100
0000
1100
0000
0011
0000
0110
0000
,
0011
0000
0100
1000
0100
0000
0011
0000
1000
0100
1000
0000
,
0011
0000
0100
1000
0100
0000
0011
0000
1000
0100
1000
0000
,
0110
0000
1000
0001
1000
0000
0110
0000
0001
1000
0001
0000
,
1100
0000
0001
0010
0001
0000
0110
0000
1000
0001
1000
0000
,
1001
0000
0001
1000
0010
0000
0101
0000
0010
1000
0100
0000
,
0011
0000
0010
0100
1000
0000
1100
0000
1001
0000
0011
0000
,
1100
0000
0010
0001
1000
0000
0011
0000
0100
1000
0001
0000
,
1001
0000
0100
0010
1000
0000
0101
0000
0011
0000
1100
0000
,
1001
0000
1000
0100
0010
0000
1100
0000
0001
0100
0010
0000
,
1010
0000
1000
0100
0010
0000
1010
0000
1001
0000
0101
0000
,
1001
0000
1000
0001
0010
0000
1001
0000
0010
0100
1000
0000
,
1100
0000
0100
0010
0001
0000
1010
0000
0101
0000
1001
0000
,
1010
0000
1000
0010
0100
0000
1001
0000
0001
0010
0100
0000
,
0011
0000
0001
1000
0010
0000
1010
0000
1001
0000
0101
0000
,
1001
0000
1000
0010
0100
0000
0101
0000
0010
0100
0001
0000
,
0110
0000
0100
1000
0001
0000
1010
0000
0101
0000
1001
0000
,
0101
0000
0010
1000
0010
0000
0101
0000
1000
0010
1000
0000
,
0101
0000
0010
1000
0010
0000
0101
0000
1000
0010
1000
0000
,
0110
0000
1000
0001
1000
0000
0110
0000
0001
1000
0001
0000
,
1010
0000
0001
0100
0001
0000
1010
0000
0100
0001
0100
0000
,
1001
0000
1000
0010
0100
0000
0101
0000
0001
0010
0100
0000
,
1100
0000
1000
0001
0100
0000
1010
0000
0110
0000
0101
0000
,
1001
0000
0010
0100
1000
0000
0011
0000
1000
0010
0100
0000
,
0101
0000
0010
1000
0100
0000
1100
0000
0011
0000
0110
0000
,
1001
0010
0100
0010
0001
1000
0011
0100
0001
0010
0100
1000
,
0101
0010
0001
1000
0100
0010
1100
0001
0010
0100
0001
0010
,
1001
0100
0010
1000
0001
0010
1100
0001
1000
0010
0100
0001
,
1010
0100
0010
0001
0010
0100
0011
1000
0100
0010
0001
1000
,
0110
0001
0010
0100
1000
0100
0011
0100
1000
0010
0100
0001
,
1010
0100
0001
0010
0001
1000
0011
0100
1000
0010
0100
0001
,
1100
0010
1000
0100
0010
0001
1010
0100
1000
0001
0010
0100
,
0011
1000
0100
0010
1000
0100
1001
0010
0100
0001
1000
0100
,
0011
1000
0001
0100
0010
1000
0101
0010
0100
1000
0100
0010
,
1100
0001
0010
0100
1000
0001
0110
1000
0100
0010
0001
0010
,
1100
0010
0001
0100
0010
1000
0101
0010
1000
0100
1000
0001
,
1100
0010
0001
0100
0010
1000
0011
0100
0010
0001
0010
0100
,
1001
0100
0010
0100
0010
1000
0011
0100
0010
0100
1000
0001
,
1100
0010
0100
0001
0010
0100
1010
0100
0001
0010
0001
1000
,
0101
0010
0100
0001
0010
0100
1010
0100
0010
0001
1000
0100
,
1001
0010
0100
1000
0010
0100
1010
0100
0001
0100
0010
0100
,
1001
0000
0000
0000
1001
0000
0000
0000
0011
0000
1100
0000
,
0011
0000
1100
0000
0011
0000
1100
0000
0110
0000
0011
0000
,
1001
0000
0000
0000
1001
0000
0000
0000
0011
0000
1100
0000
,
0011
0000
1100
0000
0011
0000
1100
0000
0011
0000
0110
0000
,
1001
0000
0000
0000
1001
0000
0000
0000
0101
0000
1010
0000
,
0101
0000
1010
0000
0101
0000
1010
0000
0110
0000
0101
0000
,
2002
0000
0000
0000
,
3003
0000
0000
0000
;

//---------------dance-single - Copied from----------------
#NOTES:
     dance-single:
     Copied from:
     Hard:
     12:
     1.000,1.000,1.000,0.692,1.000,1446.000,302.000,144.000,0.000,0.000:
0000
0000
0000
0000
,
0001
1000
1000
0010
1000
1000
0100
1000
,
1000
0010
1000
1000
0100
1000
0100
1000
,
0001
1000
1000
0010
1000
1000
0100
1000
,
1000
0010
1000
1000
0100
1000
0100
1000
,
0001
1000
1000
0010
1000
1000
0100
1000
,
1000
0010
1000
1000
0100
1000
0100
1000
,
0001
1000
1000
0010
1000
1000
0100
1000
,
1000
0010
1000
1000
0100
1000
0100
1000
,
0001
1000
1000
0100
1000
1000
0010
1000
,
1000
0100
1000
1000
0010
1000
0010
1000
,
0001
1000
1000
0100
1000
1000
0010
1000
,
1000
0100
1000
1000
0010
1000
0010
1000
,
0001
1000
1000
0100
1000
1000
0010
1000
,
1000
0100
1000
1000
0010
1000
0010
1000
,
0001
1000
1000
0100
1000
1000
0010
1000
,
1000
0100
1000
1000
0010
1000
0010
1000
,
1001
0000
1000
0100
0010
0001
0100
0000
,
0001
0100
0001
0000
0001
0100
0010
1000
,
0101
0000
0001
0010
0100
1000
0010
0000
,
0100
0001
0010
0000
0100
0010
0001
0000
,
1100
0000
0100
0010
0001
1000
0001
0000
,
0100
0000
0010
0000
1000
0000
0000
0000
0001
0000
1000
0100
0010
0000
0001
0000
,
1001
0000
0001
1000
0001
0010
0100
0000
,
1000
0010
1000
0001
0100
0010
1000
0100
,
0011
0000
0001
0010
0100
1000
0001
0000
,
0001
1000
0100
0000
0010
0100
1000
0010
,
1001
0000
1000
0001
0100
0001
0010
0000
,
0001
0000
0010
0000
0100
0000
0000
0000
1000
0001
1000
0100
0010
0000
0001
0000
,
1100
0000
1000
0100
0010
0001
1000
0000
,
1000
0001
0010
0000
0100
1000
0001
0000
,
0011
0000
0010
0100
1000
0010
0100
0000
,
0001
0000
0000
0000
0100
0000
0000
0000
0010
0100
0001
0010
0100
1000
0100
0010
,
2002
3003
0001
2200
3300
0100
0022
0000
,
0000
0033
0010
0100
1000
0100
0001
0100
,
2002
3003
0010
2200
3300
0100
0022
0000
,
0000
0033
0010
0100
0010
0022
0000
0033
,
2002
3003
0001
2200
3300
0100
0022
0000
,
0000
0033
0010
0100
1000
0100
0001
0100
,
2002
3003
0010
2200
3300
0100
0022
0000
,
0000
0033
0010
0100
1000
0022
0000
0033
,
0001
1000
1000
0001
1000
1000
0100
1000
,
1000
0010
1000
1000
0100
1000
0100
1000
,
0001
1000
1000
0010
1000
1000
0100
1000
,
1000
0010
1000
1000
0100
1000
0100
1000
,
0001
1000
1000
0100
1000
1000
0010
1000
,
1000
0100
1000
1000
0010
1000
0010
1000
,
0001
1000
1000
0100
1000
1000
0010
1000
,
1000
0100
1000
1000
0010
1000
0010
1000
,
1001
0000
0001
0100
0001
1000
0010
0000
,
1000
0010
1000
0000
0100
0010
0001
0000
,
1001
0000
0001
0010
0100
1000
0100
0000
,
0100
1000
0001
0000
0100
0010
1000
1100
,
0011
0000
0010
0100
1000
0001
1000
0000
,
0010
0100
0001
0000
1000
0000
0001
0000
,
0101
0000
0100
0010
1000
0100
0010
0000
,
0001
0000
0100
0000
0001
0000
1000
0000
0010
0000
0100
0001
1000
0000
0001
0100
,
0002
0003
0001
2200
3300
0100
0022
0000
,
0000
0033
0010
0100
1000
0100
0001
0100
,
2002
3003
0010
2200
3300
0100
0022
0000
,
0000
0033
0010
0100
1000
0022
0000
0033
,
2002
3003
0001
2200
3300
0100
0022
0000
,
0000
0033
0010
0100
1000
0100
0001
0100
,
2002
3003
0010
2200
3300
0100
0022
0000
,
0000
0033
0010
0100
1000
0022
0000
0033
,
1002
0000
0000
1000
0000
0000
1000
0003
,
0001
0010
0001
0010
0100
1000
0100
0010
,
0001
0010
0100
0001
0100
0010
1000
0010
,
0002
0000
0000
0000
2000
0000
0000
3003
,
1001
0000
0001
1000
0001
0100
0001
1000
,
0001
0010
0100
1000
0100
0001
0100
1000
,
0010
1000
0100
0020
0000
0031
1000
0200
,
0300
0022
0000
0000
0000
0000
0000
0033
,
2002
3003
0001
0202
0303
0010
2020
0000
,
3030
1000
0100
1000
0001
0010
0100
1000
,
1001
0000
0001
0022
0033
1000
2200
0000
,
3300
0010
0100
0010
0001
0100
0010
1000
,
2002
3003
0001
0202
0303
1000
2020
0000
,
3030
1000
0100
1000
0001
0010
0100
1000
,
2002
3003
0001
0022
0033
0100
2200
0000
,
3300
0110
1100
0110
0011
0101
0110
1010
,
1001
0010
0100
1000
0100
0010
0200
0300
,
0001
0100
1000
0100
1000
0010
0100
0001
,
0010
0100
1000
0200
0000
0000
0000
0300
,
1000
0100
0010
0100
0010
0001
0010
0001
,
1001
0000
1000
0022
0000
0033
0200
0000
,
0300
1000
0022
0033
0010
0100
1000
0100
,
0020
0000
0000
0230
0000
0000
0000
0300
,
1000
0100
0010
0100
0010
0001
0010
0001
,
1001
0010
0100
0001
0010
0001
1000
0100
,
0010
1000
0010
0100
1000
0010
0100
0001
,
0010
0100
1000
0200
0000
0000
0000
0300
,
1000
0100
0010
0100
0010
0001
0010
0001
,
2002
0000
3003
0220
0000
0330
2200
0000
,
3300
0011
0000
0011
1100
0000
1001
0010
,
0001
0010
0100
1000
0100
0010
0100
1001
0010
0100
1000
0100
,
0010
0000
0100
0000
1000
0000
0001
0000
0010
0000
0100
0000
1000
0000
0100
0000
0010
0000
0001
0000
0000
0010
0000
0000
,
0022
0033
0010
0220
0330
0100
2200
0000
,
3300
1000
2002
3003
0010
2020
3030
0100
,
0202
0000
0303
2002
3003
1000
2200
3300
,
1000
0100
0022
0033
0100
2200
3300
1000
,
0001
0000
0010
0000
0100
0000
1001
0000
0010
0000
0001
0000
1000
0001
1000
0000
,
0100
0010
1000
0010
0100
0010
0001
0010
,
0220
0330
0010
0022
0033
0001
2002
3003
,
1000
0001
0022
0000
0033
0202
0000
0303
,
0010
0000
0000
1000
0000
0000
0100
0000
0000
1000
0000
0000
0010
0000
0000
1000
0000
0000
0001
0000
0100
0000
0001
0000
,
0010
0100
1000
0010
1000
0001
0100
0010
,
2020
3030
1000
2002
3003
1000
2200
3300
,
0010
0001
0022
0033
1000
2002
0000
3003
,
0002
0000
0000
0000
0000
0000
0000
0000
0013
0000
0100
0000
,
0020
0000
0000
0000
0000
0030
0100
0000
0010
0000
0100
0000
,
1000
0010
0100
0001
0010
0100
0010
0001
1000
0010
0100
0001
,
0100
0010
1000
0100
0010
0001
0010
0100
1000
0010
0100
0010
,
1001
0000
0001
0010
0100
0000
1100
0000
1000
0010
0100
0000
,
0101
0000
0001
0010
0100
0000
1100
0000
0110
0000
0011
0000
,
1001
0000
0001
1000
0100
0000
0110
0000
0100
0010
0001
0000
,
0011
0000
0010
0100
1000
0000
1100
0000
0011
0000
1001
0000
,
0110
0000
0100
0001
1000
0000
1001
0000
1000
0100
1000
0000
,
1001
0000
1000
0001
0100
0000
0101
0000
0110
0000
1010
0000
,
1001
0000
0001
0100
0010
0000
1010
0000
1000
0010
0100
0000
,
0110
0000
0100
0001
1000
0000
1100
0000
0011
0000
1001
0000
,
0011
0000
0001
0010
0001
0000
0011
0000
0010
0001
0010
0000
,
0011
0000
0001
0010
0001
0000
0011
0000
0010
0001
0010
0000
,
0110
0000
0010
0100
0010
0000
0110
0000
0100
0010
0100
0000
,
1100
0000
1000
0100
1000
0000
0110
0000
0010
0100
0010
0000
,
1001
0000
1000
0100
0010
0000
0011
0000
0001
0100
0010
0000
,
1010
0000
1000
0001
1000
0000
1100
0000
0110
0000
0011
0000
,
1001
0000
1000
0001
0010
0000
0110
0000
0100
1000
0010
0000
,
1010
0000
1000
0001
0010
0000
1100
0000
0011
0000
1001
0000
,
1100
0000
0001
0010
0100
0000
0011
0000
1000
0010
0100
0000
,
0101
0000
0001
0010
0100
0000
1010
0000
1001
0000
0101
0000
,
1001
0000
0001
1000
0100
0000
1001
0000
0100
0010
0001
0000
,
0011
0000
0010
0100
1000
0000
1010
0000
0101
0000
0110
0000
,
1001
0000
0001
0100
0010
0000
1001
0000
1000
0100
0010
0000
,
1001
0000
1000
0001
0100
0000
1010
0000
1001
0000
0101
0000
,
1001
0000
0001
0100
0010
0000
1010
0000
1000
0100
0010
0000
,
0011
0000
0001
1000
0010
0000
0101
0000
1010
0000
1001
0000
,
0101
0000
0001
0100
0001
0000
0101
0000
0100
0001
0100
0000
,
0101
0000
0001
0100
0001
0000
0101
0000
0100
0001
0100
0000
,
0110
0000
0010
0100
0010
0000
0110
0000
0100
0010
0100
0000
,
1010
0000
0010
1000
0010
0000
0110
0000
0100
0010
0100
0000
,
1001
0000
0001
0100
1000
0000
1100
0000
1000
0100
0001
0000
,
1001
0000
0001
0010
0100
0000
1100
0000
0110
0000
0011
0000
,
1001
0000
1000
0001
0010
0000
1100
0000
1000
0001
0100
0000
,
1010
0000
0010
1000
0100
0000
1100
0000
0011
0000
1001
0000
,
1100
0000
0100
0010
0001
0000
1001
0000
0001
0010
0100
0000
,
0110
0000
0010
0100
1000
0000
1100
0000
0110
0000
0011
0000
,
1001
0000
0010
0100
1000
0000
0011
0000
1000
0100
0010
0000
,
1001
0000
0010
0100
1000
0000
1100
0000
0011
0000
1001
0000
,
0110
0000
0010
0001
0100
0000
1010
0000
1000
0100
0001
0000
,
0101
0000
0001
0100
1000
0000
1010
0000
0110
0000
0101
0000
,
1010
0000
0100
0010
1000
0000
1100
0000
0010
0100
1000
0000
,
0110
0000
0001
0010
0100
0000
1100
0000
0011
0000
0110
0000
,
0011
0000
0100
1000
0100
0000
0011
0000
1000
0100
1000
0000
,
0011
0000
0100
1000
0100
0000
0011
0000
1000
0100
1000
0000
,
0110
0000
1000
0001
1000
0000
0110
0000
0001
1000
0001
0000
,
1100
0000
0001
0010
0001
0000
0110
0000
1000
0001
1000
0000
,
1001
0000
0001
1000
0010
0000
0101
0000
0010
1000
0100
0000
,
0011
0000
0010
0100
1000
0000
1100
0000
1001
0000
0011
0000
,
1100
0000
0010
0001
1000
0000
1001
0000
0001
1000
0001
0000
,
0101
0000
0100
0010
1000
0000
0101
0000
0011
0000
1100
0000
,
1001
0000
1000
0001
0010
0000
0011
0000
0001
0100
0010
0000
,
1010
0000
1000
0100
0010
0000
1100
0000
0110
0000
0011
0000
,
1001
0000
1000
0001
0010
0000
1001
0000
0010
0100
1000
0000
,
1100
0000
0100
0010
0001
0000
1010
0000
0101
0000
1001
0000
,
1010
0000
1000
0010
0100
0000
1001
0000
0001
0010
0100
0000
,
0011
0000
0001
1000
0010
0000
1010
0000
1001
0000
0101
0000
,
1001
0000
1000
0010
0100
0000
0101
0000
0010
0100
0001
0000
,
0110
0000
0010
1000
0001
0000
1010
0000
0101
0000
1001
0000
,
0101
0000
0010
1000
0010
0000
0101
0000
1000
0010
1000
0000
,
0101
0000
0010
1000
0010
0000
0101
0000
1000
0010
1000
0000
,
0110
0000
1000
0001
1000
0000
0110
0000
0001
1000
0001
0000
,
1010
0000
0001
0100
0001
0000
1010
0000
0100
0001
0100
0000
,
1001
0000
1000
0010
0100
0000
0101
0000
0001
0010
0100
0000
,
1100
0000
1000
0001
0100
0000
1010
0000
0110
0000
0101
0000
,
1001
0000
0010
0100
1000
0000
0011
0000
1000
0010
0100
0000
,
0101
0000
0010
1000
0100
0000
1100
0000
0011
0000
0110
0000
,
0010
0001
1000
0010
0100
0001
0010
0100
1000
0100
0010
0100
,
1000
0010
0100
0001
0100
1000
0100
0001
0010
0100
0010
0001
,
1000
0010
0100
0001
0010
1000
0010
0001
1000
0100
0010
0001
,
0010
0100
1000
0100
0010
0001
0010
0100
0010
0001
1000
0100
,
0010
0100
1000
0010
0100
0001
0010
0100
0010
0001
0010
1000
,
0010
0001
1000
0010
0100
0001
0010
0100
1000
0010
0100
0010
,
1000
0100
1000
0001
0100
0010
0100
0001
0010
0100
1000
0100
,
0010
0001
0010
0001
1000
0100
1000
0010
0100
0001
0100
0010
,
1000
0100
0010
0001
0010
1000
0010
0001
1000
0100
0010
0001
,
1000
0100
1000
0010
0100
0001
0010
1000
0010
0001
1000
0100
,
1000
0001
0100
0010
1000
0001
0100
0001
1000
0100
1000
0010
,
0100
0001
0010
0001
1000
0100
1000
0010
0100
0010
1000
0001
,
0010
0100
0010
0001
1000
0100
0010
0100
1000
0010
0100
0001
,
0010
0001
1000
0010
0100
0001
0010
0001
1000
0100
1000
0100
,
0010
0001
1000
0100
1000
0010
0100
0010
1000
0010
1000
0100
,
0010
0001
0010
0100
1000
0001
0010
0100
1000
0100
0010
0001
,
1000
0000
0000
0000
1001
0000
0000
0000
0011
0000
1100
0000
,
0011
0000
1100
0000
0011
0000
1100
0000
0110
0000
0011
0000
,
1001
0000
0000
0000
1001
0000
0000
0000
0011
0000
1100
0000
,
0011
0000
1100
0000
0011
0000
1100
0000
0011
0000
0110
0000
,
1001
0000
0000
0000
1001
0000
0000
0000
0101
0000
1010
0000
,
0101
0000
1010
0000
0101
0000
1010
0000
0110
0000
0101
0000
,
2002
0000
0000
0000
,
3003
0000
0000
0000
;
