#TITLE:Can You Say KanColle?;
#SUBTITLE:(Kancolle Ieru Kana?);
#ARTIST:DJ Sharpnel feat. Chiroru Ohyama;
#TITLETRANSLIT:;
#SUBTITLETRANSLIT:;
#ARTISTTRANSLIT:;
#CREDIT:;
#BANNER:can you say bn.png;
#BACKGROUND:can you say bg.png;
#LYRICSPATH:;
#CDTITLE:;
#MUSIC:Kancolle ieru kana.ogg;
#OFFSET:-0.735;
#SAMPLESTART:123.297;
#SAMPLELENGTH:20.425;
#SELECTABLE:YES;
#BPMS:0.000=188.000;
#STOPS:;
#BGCHANGES:;
// cache tags:
#FIRSTBEAT:0.000;
#LASTBEAT:651.000;
#SONGFILENAME:Songs/SHARPNELSTREAMZ v2/Can You Say KanColle/Kancolle ieru kana.sm;
#HASMUSIC:1;
#HASBANNER:1;
#MUSICLENGTH:211.356;
// end cache tags

//---------------dance-single - 16 (CTalon)----------------
#NOTES:
     dance-single:
     16 (CTalon):
     Challenge:
     16:
     1.000,1.000,0.142,0.033,1.000,2058.000,30.000,7.000,1.000,0.000:
0002
0000
0000
0000
,
0003
0000
0000
0000
,
0000
0000
0000
0000
,
0000
0000
0000
0000
,
0002
0000
0000
0000
,
0003
0000
0000
0000
,
0000
0000
0000
0000
,
0000
0000
0000
0000
,
0001
1000
0010
1000
0100
0010
0001
1000
,
0010
0100
0001
0010
0100
0010
0001
1000
,
0001
0010
0100
1000
0001
0000
0100
0010
1000
0001
0010
0000
0100
0010
0000
0001
,
1000
0010
1000
0010
0100
0000
0001
1000
0100
0010
0100
0000
1000
0001
0000
1000
,
0001
0010
0100
0010
0001
1000
0010
0100
,
0001
0010
0100
1000
0010
0100
0010
1000
,
0001
0100
0010
1000
0001
1000
0001
0010
0100
0010
0001
1000
0001
0100
0010
0100
,
0001
0010
0100
1000
0010
0100
0010
1000
0100
0010
0001
0100
0010
1000
0100
0010
,
0001
0000
1000
0100
1000
0001
0100
0010
,
0000
1000
0100
0010
0001
0100
0010
1000
,
0001
0000
0010
0100
1000
0100
0010
0001
,
0000
1000
0010
1000
0010
0100
0001
1000
,
0100
0000
0010
0001
0010
0100
1000
0001
,
0000
0100
0010
1000
0001
1000
0100
0010
,
0001
0000
1000
0010
0100
0010
1000
0001
,
0000
0000
1000
0000
0100
0000
0010
0000
0001
1000
0010
0100
0010
1000
0100
0010
,
0001
0000
1000
0010
0100
0010
1000
0001
,
0000
0010
0100
1000
0100
1000
0001
0100
,
0001
0000
0010
0100
0010
0001
1000
0001
,
0000
0100
0010
1000
0100
0010
0100
1000
,
0001
0000
0100
0010
0100
0001
1000
0001
,
0000
1000
0100
0010
0100
1000
0010
1000
,
0001
0000
0010
0100
1000
0100
0010
0001
,
2000
0000
0000
0000
0000
0000
0000
0000
0000
0000
0000
0000
0000
0000
0000
0000
0000
0000
0000
0000
0000
0000
0000
0000
3001
0000
0000
0000
0000
0000
0100
0000
0000
0010
0000
0000
1000
0000
0000
0010
0000
0000
0100
0000
0001
0000
0100
0000
,
0001
1001
1000
1100
,
0001
0110
1000
1010
,
0100
1001
1000
0110
,
0001
0000
0011
0000
0010
0001
1001
1000
,
0001
1010
0100
0110
,
0001
1100
0010
1100
,
0001
1010
0100
0110
,
0001
0000
1001
0000
1000
0010
0110
0100
,
0010
1001
1000
0110
,
0001
1010
0100
1010
,
1000
0011
0100
0110
,
0010
0000
1001
0000
1000
0010
0110
0100
,
0010
1010
1000
1001
,
0100
1010
0001
1100
,
0010
1001
1000
0101
,
0001
0010
0100
1000
0010
0100
0001
0010
0001
0100
0010
0100
0001
0010
0100
1000
,
0001
0100
0001
0100
0010
1000
0001
0010
0100
0010
0001
1000
0100
0010
0001
1000
,
0001
0100
0010
1000
0010
1000
0001
0010
0001
1000
0010
1000
0001
0010
0100
1000
,
0001
1000
0010
0100
0001
1000
0100
1000
0001
0100
0010
0100
0001
1000
0100
0010
,
0100
1000
0100
1000
0001
0100
0001
0100
0010
1000
0001
0010
0100
1000
0100
1000
,
0001
0100
0010
1000
0010
0100
0001
1000
0001
0010
0100
1000
0001
1000
0100
0010
,
0001
1000
0001
0100
0010
1000
0001
1000
0010
0100
0010
1000
0001
0010
0100
1000
,
0001
1000
0010
0100
0010
1000
0001
0010
0001
1000
0010
0100
0010
0100
0001
1000
,
0100
1000
0001
0010
0100
1000
0100
0010
0100
1000
0001
0100
0001
0100
0010
1000
,
0001
0010
0001
1000
0010
1000
0010
0100
0001
1000
0100
1000
0001
0100
0001
1000
,
0100
0010
0001
1000
0010
0100
0010
1000
0001
0010
0001
1000
0010
1000
0010
0100
,
0001
1000
0100
0010
0001
1000
0001
0010
0100
1000
0100
1000
0001
0100
0010
1000
,
0010
1000
0001
0010
0001
1000
0100
0010
0100
1000
0100
0010
0001
1000
0001
1000
,
0010
0100
0001
1000
0001
1000
0100
0010
0001
0010
0100
1000
0001
0100
0001
1000
,
0100
1000
0001
0100
0010
0100
0001
1000
0001
1000
0100
0010
0001
0010
0100
1000
,
0001
0100
0010
1000
0010
1000
0001
0010
0100
1000
0100
0010
0100
1000
0001
1000
,
0001
0000
0000
0000
0000
0000
0000
0000
1000
0000
0000
1000
0000
0000
0001
1000
,
0010
1000
0001
0010
0100
0010
0001
1000
0001
0100
0010
1000
0100
1000
0001
0010
,
0001
1000
0010
1000
0001
1000
0001
0010
0100
1000
0010
0100
0001
0010
0001
0100
,
0010
1000
0001
1000
0010
1000
0001
0010
0001
1000
0001
0010
0100
1000
0001
0100
,
0010
1000
0010
1000
0100
1000
0001
0100
0010
1000
0010
1000
0001
0010
0001
1000
,
0001
0010
0100
1000
0001
0100
0010
1000
0001
1000
0010
1000
0100
0010
0001
0010
,
0100
1000
0001
0100
0010
1000
0001
1000
0100
1000
0100
0010
0001
0100
0001
0010
,
0100
1000
0001
1000
0001
0100
0010
1000
0001
0010
0100
0010
0001
0010
0001
1000
,
0001
1000
0100
1000
0001
0010
0100
1000
0100
0010
0001
1000
0001
0100
0010
1000
,
0010
1000
0001
0010
0100
0010
0001
1000
0001
0100
0010
1000
0100
1000
0001
0010
,
0001
1000
0010
1000
0001
1000
0001
0010
0100
1000
0010
0100
0001
0010
0001
0100
,
0010
1000
0001
1000
0010
1000
0001
0010
0001
1000
0001
0010
0100
1000
0001
0100
,
0010
1000
0010
1000
0100
1000
0001
0100
0010
1000
0010
1000
0001
0010
0001
1000
,
0001
0010
0100
1000
0001
0100
0010
1000
0001
1000
0010
1000
0100
0010
0001
0010
,
0100
1000
0001
0100
0010
1000
0001
1000
0100
1000
0100
0010
0001
0100
0001
0010
,
0100
1000
0001
1000
0001
0100
0010
1000
0001
0010
0100
0010
0001
0010
0001
1000
,
0001
0100
0001
1000
0100
1000
0001
0100
0001
1000
0100
1000
0001
0100
0001
1000
,
0001
1000
0001
0010
0100
0010
0001
1000
0001
0100
0010
1000
0100
1000
0001
0010
,
0001
1000
0010
1000
0001
1000
0001
0010
0100
1000
0010
0100
0001
0010
0001
0100
,
0010
1000
0001
1000
0010
1000
0001
0010
0001
1000
0001
0010
0100
1000
0001
0100
,
0010
1000
0010
1000
0100
1000
0001
0100
0010
1000
0010
1000
0001
0010
0001
1000
,
0001
0010
0100
1000
0001
0100
0010
1000
0001
1000
0010
1000
0100
0010
0001
0010
,
0100
1000
0001
0100
0010
1000
0001
1000
0100
1000
0100
0010
0001
0100
0001
0010
,
0100
1000
0001
1000
0001
0100
0010
1000
0001
0010
0100
0010
0001
0010
0001
1000
,
0001
1000
0100
1000
0001
0010
0100
1000
0100
0010
0001
1000
0001
0100
0010
1000
,
0010
1000
0001
0010
0100
0010
0001
1000
0001
0100
0010
1000
0100
1000
0001
0010
,
0001
1000
0010
1000
0001
1000
0001
0010
0100
1000
0010
0100
0001
0010
0001
0100
,
0010
1000
0001
1000
0010
1000
0001
0010
0001
1000
0001
0010
0100
1000
0001
0100
,
0010
1000
0010
1000
0100
1000
0001
0100
0010
1000
0010
1000
0001
0010
0001
1000
,
0001
0010
0100
1000
0001
0100
0010
1000
0001
1000
0010
1000
0100
0010
0001
0010
,
0100
1000
0001
0100
0010
1000
0001
1000
0100
1000
0100
0010
0001
0100
0001
0010
,
0100
1000
0001
1000
0001
0100
0010
1000
0001
0010
0100
0010
0001
0010
0001
1000
,
0002
0000
0000
0000
0000
0000
0000
0000
1003
0100
1000
0010
0100
0001
0010
0001
,
1000
0010
1000
0010
0100
0001
1000
0100
0010
0100
1000
0001
0010
0100
1000
0001
,
1000
0010
0100
0001
0100
0001
1000
0100
1000
0001
0100
0001
1000
0100
0010
0001
,
1000
0001
0100
0010
1000
0001
0010
0001
1000
0010
0100
0010
1000
0001
0010
0100
,
0010
0001
0010
0001
1000
0010
1000
0010
0100
0001
1000
0100
0010
0001
0010
0001
,
1000
0010
0100
0001
0100
0010
1000
0001
1000
0100
0010
0001
1000
0001
0010
0100
,
1000
0001
1000
0010
0100
0001
1000
0001
0100
0010
0100
0001
1000
0100
0010
0001
,
1000
0001
0100
0010
0100
0001
1000
0100
1000
0001
0100
0010
0100
0010
1000
0001
,
0010
0001
1000
0100
0010
0001
0010
0100
1000
0100
1000
0010
0100
0001
0010
0001
,
1000
0100
1000
0001
0100
0001
0100
0010
1000
0001
0010
0001
1000
0010
1000
0001
,
0010
0100
1000
0001
0100
0010
0100
0001
1000
0100
1000
0001
0100
0001
0100
0010
,
1000
0001
0010
0100
1000
0001
1000
0100
0010
0001
0010
0001
1000
0010
0100
0001
,
0100
0001
1000
0100
1000
0001
0010
0100
0010
0001
0010
0100
1000
0001
1000
0001
,
0100
0010
1000
0001
1000
0001
0010
0100
1000
0100
0010
0001
1000
0010
1000
0001
,
0010
0001
1000
0010
0100
0010
1000
0001
1000
0001
0010
0100
1000
0100
0010
0001
,
1000
0010
0100
0001
0100
0001
1000
0100
0010
0001
0010
0100
0010
0001
1000
0001
,
1000
0000
0100
0000
1000
0000
0100
0000
0010
0000
0001
0000
2000
0000
0000
0000
0000
0000
0000
0000
0000
0000
0000
0000
3010
0000
0000
0000
0000
0000
0100
0000
0000
0001
0000
0000
0010
0000
0000
0000
0000
0000
0100
0000
0000
1000
0000
0000
,
0001
0100
0001
0100
0010
1000
0001
0010
0100
0010
0001
1000
0100
0010
0001
1000
,
0001
0100
0010
1000
0010
1000
0001
0010
0001
1000
0010
1000
0001
0010
0100
1000
,
0001
1000
0010
0100
0001
1000
0100
1000
0001
0100
0010
0100
0001
1000
0100
0010
,
0100
1000
0100
1000
0001
0100
0001
0100
0010
1000
0001
0010
0100
1000
0100
1000
,
0001
0100
0010
1000
0010
0100
0001
1000
0001
0010
0100
1000
0001
1000
0100
0010
,
0001
1000
0001
0100
0010
1000
0001
1000
0010
0100
0010
1000
0001
0010
0100
1000
,
0001
1000
0010
0100
0010
1000
0001
0010
0001
1000
0010
0100
0010
0100
0001
1000
,
0100
1000
0001
0010
0100
1000
0100
0010
0100
1000
0001
0100
0001
0100
0010
1000
,
0001
0010
0001
1000
0010
1000
0010
0100
0001
1000
0100
1000
0001
0100
0001
1000
,
0100
0010
0001
1000
0010
0100
0010
1000
0001
0010
0001
1000
0010
1000
0010
0100
,
0001
1000
0100
0010
0001
1000
0001
0010
0100
1000
0100
1000
0001
0100
0010
1000
,
0010
1000
0001
0010
0001
1000
0100
0010
0100
1000
0100
0010
0001
1000
0001
1000
,
0010
0100
0001
1000
0001
1000
0100
0010
0001
0010
0100
1000
0001
0100
0001
1000
,
0100
1000
0001
0100
0010
0100
0001
1000
0001
1000
0100
0010
0001
0010
0100
1000
,
0001
0000
0100
0000
0001
0000
1000
0000
0010
0000
1000
0000
0002
0000
0000
0000
0000
0000
0000
0000
0000
0000
0000
0000
0013
0000
0000
0000
0000
0000
0100
0000
0000
0000
0000
0000
1000
0000
0000
0000
0000
0000
0001
0000
0000
1000
0000
0000
,
0010
0000
0000
0000
0000
0000
0100
0000
0000
0000
0000
0000
0001
0000
1000
0000
0001
0000
0100
0000
0010
0000
1000
0000
0001
0000
0000
0000
0000
0000
0010
0000
0000
0000
0000
0000
0100
0000
0000
1000
0000
0000
0010
0000
0000
1000
0000
0000
,
0001
0010
0100
1000
0010
0100
0001
1000
0001
0100
0010
1000
0001
0010
0001
0100
,
0010
1000
0001
0010
0100
0010
0001
0100
0010
1000
0001
0100
0001
0010
0100
1000
,
0001
1000
0010
1000
0100
1000
0001
0010
0100
0010
0001
0100
0010
0100
0001
1000
,
0010
1000
0001
1000
0010
1000
0100
0010
0001
0100
0010
0100
0001
1000
0100
1000
,
0001
0100
0001
0010
0001
1000
0100
1000
0010
1000
0001
0010
0100
1000
0100
0010
,
0001
1000
0001
0100
0010
1000
0100
0010
0001
1000
0001
1000
0100
1000
0010
0100
,
0001
1000
0001
0010
0100
0010
0001
0100
0010
0100
0001
0010
0100
1000
0001
1000
,
0001
0100
0010
1000
0001
1000
0100
1000
0010
0100
0001
1000
0010
1000
0100
1000
,
0001
0010
0100
1000
0001
0100
0001
0010
0100
1000
0100
1000
0010
1000
0001
0100
,
0001
1000
0001
0100
0010
1000
0100
0010
0001
1000
0100
1000
0010
0100
0001
1000
,
0001
0010
0100
1000
0010
0100
0010
1000
0001
1000
0100
0010
0100
1000
0010
0100
,
0001
1000
0001
0010
0100
0010
0001
1000
0010
1000
0100
1000
0001
0010
0001
0100
,
0001
1000
0100
1000
0001
0100
0010
1000
0010
1000
0100
0010
0001
0100
0010
1000
,
0001
0010
0100
1000
0010
1000
0001
1000
0001
0100
0010
1000
0100
0010
0100
1000
,
0001
1000
0010
0100
0001
0010
0100
1000
0100
1000
0001
0100
0010
1000
0100
1000
,
0001
0010
0100
1000
0001
0100
0001
0010
0001
1000
0100
0010
0100
1000
0010
1000
,
0001
0100
0010
1000
0100
0010
0001
1000
0001
0010
0100
1000
0001
0100
0001
0010
,
0100
1000
0001
0100
0010
0100
0001
0010
0100
1000
0001
0010
0001
0100
0010
1000
,
0001
1000
0100
1000
0010
1000
0001
0100
0010
0100
0001
0010
0100
0010
0001
1000
,
0100
1000
0001
1000
0100
1000
0010
0100
0001
0010
0100
0010
0001
1000
0010
1000
,
0001
0010
0001
0100
0001
1000
0010
1000
0100
1000
0001
0100
0010
1000
0010
0100
,
0001
1000
0001
0010
0100
1000
0010
0100
0001
1000
0001
1000
0010
1000
0100
0010
,
0001
1000
0001
0100
0010
0100
0001
0010
0100
0010
0001
0100
0010
1000
0001
1000
,
0001
0010
0100
1000
0001
1000
0010
1000
0100
0010
0001
1000
0100
1000
0010
1000
,
0001
0100
0010
1000
0001
0010
0001
0100
0010
1000
0010
1000
0100
1000
0001
0010
,
0001
1000
0001
0010
0100
1000
0010
0100
0001
1000
0010
1000
0100
0010
0001
1000
,
0001
0100
0010
1000
0100
0010
0100
1000
0001
1000
0010
0100
0010
1000
0100
0010
,
0001
1000
0001
0100
0010
0100
0001
1000
0100
1000
0010
1000
0001
0100
0001
0010
,
0001
1000
0010
1000
0001
0010
0100
1000
0100
1000
0010
0100
0001
0010
0100
1000
,
0001
0100
0010
1000
0100
1000
0001
1000
0001
0010
0100
1000
0010
0100
0010
1000
,
0001
1000
0100
0010
0001
0100
0010
1000
0010
1000
0001
0010
0100
1000
0010
1000
,
0001
0100
0010
1000
0001
0010
0001
0100
0001
1000
0010
0100
0010
1000
0100
1000
,
0002
0000
0000
0000
,
0000
0000
0000
0000
,
0003
0000
0000
M000
;
