#TITLE:tRANCE;
#SUBTITLE:KuroKami 2nd OP theme;
#ARTIST:GRANRODEO;
#TITLETRANSLIT:;
#SUBTITLETRANSLIT:;
#ARTISTTRANSLIT:;
#CREDIT:ALICE_;
#BANNER:tRANCE.png;
#BACKGROUND:tRANCE.jpg;
#LYRICSPATH:;
#CDTITLE:cdtitle.png;
#MUSIC:tRANCE.mp3;
#OFFSET:0.602;
#SAMPLESTART:44.020;
#SAMPLELENGTH:20.040;
#SELECTABLE:YES;
#BPMS:0.000=270.001;
#STOPS:;
#BGCHANGES:2.750=tRANCE.avi=1.000=0=0=1,
403.500=tRANCE.jpg=1.000=1=0=1,
99999=-nosongbg-=1.000=0=0=0 // don't automatically add -songbackground-
;
// cache tags:
#FIRSTBEAT:4.000;
#LASTBEAT:404.000;
#SONGFILENAME:Songs/alice 4th complete step/tRANCE/tRANCE.sm;
#HASMUSIC:1;
#HASBANNER:1;
#MUSICLENGTH:90.052;
// end cache tags

//---------------dance-single - ----------------
#NOTES:
     dance-single:
     :
     Hard:
     13:
     1.000,1.000,0.666,0.500,0.033,617.000,60.000,45.000,0.000,1.000:
0000
0000
0000
0000
,
0000
0000
0000
0000
,
0000
0000
0010
0000
,
0101
0000
0000
1000
0001
0000
0100
0000
,
0010
1000
0100
0000
1010
0000
0100
0000
,
0101
0000
0000
1000
0001
0000
0100
0000
,
0010
0001
0100
0000
1001
0001
0010
0000
,
0101
0000
0000
1000
0010
0000
0100
0000
,
0010
1000
0100
0000
1001
0000
0010
0000
,
0101
0000
0000
0010
1000
0100
0001
0000
0000
1001
0000
0000
,
0000
1001
0000
0000
,
1020
0000
1030
0100
1000
0100
1000
0020
,
0000
0130
1000
0001
0100
0001
0100
0010
,
0001
0100
0010
1000
0001
0100
0010
1000
,
0100
0001
0010
0001
0010
0001
0010
0001
,
0120
0000
1030
0100
1000
0001
0100
0020
,
0000
0130
0001
0100
0010
1000
0100
0010
,
0002
0000
0103
1010
0000
0100
0011
0000
,
0100
1000
0001
0100
0001
1000
0000
0000
,
0001
1000
0100
0010
1000
0100
0001
1000
,
0100
0010
1000
0001
0100
0010
0001
0010
,
0100
0001
1000
0010
1000
0100
0001
0010
,
0100
0001
1000
0010
0100
0001
1000
0010
,
0002
0023
0230
2300
3002
0023
0230
0320
,
2030
3200
0320
0032
0023
2030
3020
0230
,
0301
1000
0010
1000
0100
1000
0010
0100
,
1001
0000
0000
1001
0000
0000
1001
0000
,
1000
0010
1000
0100
1000
0010
1000
0100
,
1000
0010
1000
0100
1000
0010
1000
0100
,
1000
0001
1000
0010
1000
0001
1000
0010
,
0200
0000
0000
0302
0000
0000
2003
0000
,
3001
0010
0001
0100
0001
0010
0001
0100
,
0001
0010
0001
0100
0001
0010
0001
0100
,
0001
1000
0001
0100
0001
1000
0001
0100
,
0020
0000
0000
2030
0000
0000
3002
0000
,
0103
1000
0010
0001
0100
1000
0010
0001
,
0100
1000
0010
0001
0100
1000
0010
0001
,
0100
0010
1000
0010
0100
0001
0010
0001
,
2000
0000
0000
3002
0000
0000
2003
0000
,
3010
0001
0100
1000
0010
0001
0100
1000
,
0010
0001
0100
1000
0010
0001
0100
1000
,
0001
0100
0010
0010
1000
0001
1000
0001
,
0200
0000
0310
0000
,
1001
0000
0000
0100
0010
0000
1000
0000
,
0001
0010
0001
0000
1010
0000
0100
0000
,
0101
0000
0000
1000
0010
0000
0100
0000
,
0001
0010
1000
0000
1001
0010
0000
0000
,
0110
0000
0000
1000
0001
0000
0100
0000
,
0010
0001
0100
0000
1010
0000
1000
0000
,
0101
0000
0000
1000
0011
0000
1100
0000
,
0110
1000
0001
0010
0001
0100
0001
0010
,
1000
0100
0010
0100
0010
0100
0001
0100
,
1000
0010
0100
0010
0100
0010
0001
0010
,
1000
0100
0010
0001
0100
1000
0010
0001
,
0100
0010
1000
0010
0100
0001
0010
0001
,
1000
1000
0001
0001
0100
0010
0100
0010
,
1000
1000
0001
0001
0100
0010
1000
0100
,
0001
0000
1000
0000
0010
0010
1000
0001
,
0100
0100
0001
1000
0010
0010
1000
0010
,
1001
0100
0001
0010
0100
1000
0100
1000
,
1001
0010
0100
1000
0001
0010
0001
0010
,
1000
0100
0001
0100
1000
0010
0100
0001
,
0010
1000
0001
0010
0100
0010
0100
0010
,
2002
0000
0000
0000
,
0000
0000
0000
0000
0000
0000
0000
3003
,
2002
0000
0000
0000
,
0000
0000
0000
3003
,
1000
0000
0011
0000
0100
0100
0011
1000
,
0000
1000
0011
0100
0010
1000
0101
0010
,
0100
0000
0011
0000
1000
1000
0011
0100
,
0000
0100
0011
1000
0010
0100
1001
0010
,
0001
0000
1100
0000
0010
0010
1100
0001
,
0000
0001
1100
0010
1000
0001
0110
0001
,
1000
0000
0101
0000
0011
0000
0010
1000
,
0100
0000
1001
0010
0100
0010
0101
0000
,
1000
0000
1010
0000
1000
0000
1010
0100
,
0001
0010
0001
1000
0001
0010
0101
0010
,
0001
0000
1001
0000
0001
0000
1001
0100
,
0010
1000
0001
0010
1000
0100
1010
0001
,
1000
0100
0001
0100
0001
0100
1000
0010
,
0100
1000
0001
0010
0001
0010
1000
0100
,
0001
1000
0010
1000
0001
0100
0010
1000
,
0010
0001
0100
0100
0010
1000
0001
1000
,
1001
0010
0001
0010
0001
0010
0001
0010
,
0100
0100
0001
1000
0010
0100
0010
1000
,
0100
1000
0100
1000
0100
1000
0100
1000
,
0001
0001
0100
0010
1000
0001
0010
0100
,
0001
1000
0001
1000
0001
1000
0001
1000
,
0010
0010
0100
0001
1000
0100
0010
0001
,
1000
0100
1000
0010
1000
0100
1000
0010
,
0100
0001
0100
0010
0100
0001
0100
0010
,
1000
0001
0100
0001
0100
0001
2010
0000
,
3100
1000
0010
0100
0001
1000
0001
0010
,
0100
0100
0001
0001
1000
0010
1000
0001
,
1001
0000
0000
0000
,
0102
0000
0000
0013
2000
0000
3200
0000
,
0301
1000
0010
0000
0100
0001
0100
0000
,
1020
0000
0000
0130
0002
0000
0023
0000
,
1030
0001
0100
0000
1010
0010
0100
0000
,
0001
0010
0100
1000
0100
0010
0001
0000
0000
0101
0000
0000
,
0000
2022
0000
0000
,
3033
0000
0000
0000
;

//---------------dance-single - ----------------
#NOTES:
     dance-single:
     :
     Challenge:
     17:
     1.000,1.000,1.000,0.888,0.205,669.000,331.000,80.000,0.000,26.000:
0000
0000
0000
0000
,
2002
0000
0000
0000
,
0000
0000
0000
0000
0000
0000
0000
0000
0000
0000
3003
0000
0000
0000
0000
0000
1100
0011
0000
0000
0000
0000
0000
0000
0000
0000
0000
0000
0000
0000
0000
0000
,
1002
0000
0103
1010
0200
0000
0321
0000
,
1030
0101
1000
0010
1001
0100
0110
0000
,
2001
0000
3010
0101
0020
0000
1230
0000
,
0301
1010
0100
0001
0110
0010
1001
0000
,
2101
0000
3010
0101
0020
0000
1130
0000
,
0001
1010
0001
0100
1100
0001
0110
0000
,
0001
0010
0100
1000
0100
0010
0001
0000
0000
1111
0000
0000
,
0000
1111
0000
0000
,
1021
0000
1130
0100
0100
0100
1100
0012
,
0000
0003
0011
0010
0010
0010
0011
0010
,
1100
0001
0110
1000
0010
0101
1000
0001
,
0110
0001
1100
0100
0100
0100
1100
0100
,
2002
3003
0111
0001
0001
0001
0101
2010
,
0000
3000
0110
0010
0010
0010
0110
0010
,
1002
0000
1103
1011
0000
0101
1110
0000
,
0110
0100
1001
0001
0110
1001
0000
0000
,
0011
1100
0110
0001
1100
1010
0001
0110
,
1100
0001
0110
0101
0010
1001
1100
0010
,
1001
0001
1100
0010
0101
0100
1010
0100
,
1001
0010
0011
0100
1100
0010
0110
1001
,
0100
1000
0100
1000
0100
0010
0100
0001
0100
0010
0001
0010
,
0001
0100
1000
0010
0100
1000
0010
0001
0100
1000
0010
0100
,
0001
0010
0100
1000
0100
0010
1000
0100
0001
0010
0001
0200
,
1011
0000
0000
1011
0000
0000
1311
0000
,
2002
3003
1010
0010
0010
0010
1010
0010
,
0100
0100
1100
0100
0100
0100
1100
0100
,
0001
0001
0101
0001
1000
1000
1100
1000
,
0022
0000
0033
2200
0000
3300
0022
0033
,
2002
3003
0101
0100
0100
0100
0101
0100
,
0010
0010
0011
0010
0010
0010
0011
0010
,
1000
1000
1010
1000
0001
0001
0011
0001
,
2200
0000
3300
0022
0000
0033
2200
3300
,
2002
3003
0110
0010
1000
1000
1100
1000
,
0001
0001
0011
0001
0001
0001
0011
0001
,
0100
0100
0110
0100
0100
0100
0110
0010
,
2002
0000
3003
0022
0000
0033
2200
3300
,
2002
3003
0110
0100
1001
0001
0011
0001
,
1000
1000
1100
1000
1000
1000
0110
0110
,
1001
0000
1100
0011
1100
0011
1100
0011
,
0100
0000
1000
0000
0100
0000
0010
0000
0001
0000
0010
0000
0200
0000
0000
0300
0000
0000
0000
0000
0000
0000
0000
0000
,
2112
0000
3003
0100
0011
1000
0200
0300
,
1001
0110
1001
0010
0100
0001
2000
3000
,
0121
0000
0000
1030
0101
1000
0020
0000
,
1031
1001
1100
0000
1001
0111
0000
0000
,
2112
0000
3003
1010
0102
0003
0210
0300
,
0010
1001
0100
0010
2100
0001
3020
0030
,
0101
1000
0010
1100
0011
0000
1001
0000
,
0101
1000
1010
1000
1010
0011
1100
0101
,
1010
0001
0101
0001
1100
0011
0100
1001
,
0011
1000
1100
1000
0011
1100
0010
1001
,
0100
1000
0101
0010
1000
0100
1001
0010
,
0001
0100
1100
0010
1000
0100
0101
0010
,
1001
0001
0101
0001
1100
0011
0100
0010
,
1001
1000
1100
1000
0011
1100
0010
0100
,
1001
0001
0010
0101
1100
1000
0010
1001
,
1100
0100
0011
0010
1100
0001
1010
0001
,
0101
0010
1010
0100
1001
1001
0010
0101
,
0110
1000
1001
0100
0011
0011
1000
0110
,
0001
1000
1100
0010
1000
0001
0011
0100
,
0001
0010
0101
1001
0011
1100
0110
1001
,
0220
0000
0000
0000
,
0000
0000
0000
0000
0000
0000
0000
0000
0000
0000
0000
0000
0000
0000
0000
0330
,
1221
0000
0000
0000
,
0000
0000
0000
0330
,
1001
0010
1100
0001
0100
1100
1001
0010
,
1000
0100
0011
0101
1000
0010
0101
0110
,
1001
0010
0110
1000
0100
0011
1001
0100
,
0001
0010
1100
1010
0001
0100
1010
0010
,
1001
0100
0011
1100
1010
0010
1001
0101
,
1010
0010
1100
0011
0110
1000
1001
0010
,
1100
0001
1001
0110
1010
0100
0011
0010
,
1000
0100
0011
0100
0001
1000
0011
0100
,
1010
0001
1100
0001
0110
1001
0010
1100
,
0011
1000
1010
0100
1001
0001
1100
0011
,
0101
1000
0011
0100
1010
0010
1001
0100
,
1100
0011
0100
0110
1001
0011
0100
0010
,
2002
0000
3113
0100
0010
0010
0110
2002
,
0000
3003
1100
0100
0010
0010
0110
1001
,
0220
0330
1001
0011
0100
1000
0110
1001
,
0010
0100
1001
0001
0011
0011
1100
0011
,
0110
0010
1010
0010
0010
0010
1010
0010
,
1100
0011
1000
0110
1001
0011
1100
0110
,
1001
1000
1010
1000
1000
1000
1010
1000
,
0011
1100
0001
0110
1001
1100
0011
0110
,
1001
0100
0101
0010
1001
0100
1100
0010
,
1001
0011
0100
1100
1001
0110
0010
1001
,
0101
0010
1010
0100
1100
0010
0101
0010
,
1000
0100
1001
0100
0011
0100
1100
0010
,
0101
1000
1010
1000
1100
0010
2002
3003
,
0001
1000
1001
0010
0101
0010
1010
0100
,
1001
1000
0011
0011
1100
1100
0011
0110
,
2002
3003
0000
0000
0000
0000
0000
0000
0000
0000
0000
0000
0000
0000
0000
0000
0000
0000
0000
0000
0000
0000
0000
0000
0000
0000
0000
0000
0000
0000
0000
0000
0000
0000
0000
0000
0000
0000
0000
0000
0000
0000
0000
0000
0000
0000
0000
0000
0000
0000
0000
0000
0000
0000
0000
0000
0000
0000
0000
0000
0000
0000
0000
0000
,
1002
0000
0103
1010
0200
0000
0321
0000
,
1030
0101
1000
0010
1001
0100
0110
0000
,
2001
0000
3010
0101
0020
0000
1230
0000
,
0301
1010
0100
0001
0110
1010
1001
0000
,
0001
0010
0100
1000
0100
0010
0001
0000
0000
1111
0000
0000
,
0000
2222
0000
0000
,
3333
0000
0000
0000
;
