#TITLE:Toromi Hearts 2;
#SUBTITLE:;
#ARTIST:Goreshit;
#TITLETRANSLIT:;
#SUBTITLETRANSLIT:;
#ARTISTTRANSLIT:;
#CREDIT:Happy Feet;
#BANNER:../bn.png;
#BACKGROUND:../bg.png;
#LYRICSPATH:;
#CDTITLE:;
#MUSIC:Toromi Hearts 2.ogg;
#OFFSET:1.058;
#SAMPLESTART:43.860;
#SAMPLELENGTH:17.700;
#SELECTABLE:YES;
#BPMS:0.000=219.000;
#STOPS:;
#BGCHANGES:;
// cache tags:
#FIRSTBEAT:4.000;
#LASTBEAT:544.000;
#SONGFILENAME:Songs/Cirque du Zonda/Zaia - Toromi Hearts 2/Toromi Hearts 2.sm;
#HASMUSIC:1;
#HASBANNER:1;
#MUSICLENGTH:148.949;
// end cache tags

//---------------dance-single - Zaia - 16.8----------------
#NOTES:
     dance-single:
     Zaia - 16.8:
     Hard:
     16:
     1.000,1.000,0.007,0.309,1.000,1598.000,1.000,46.000,0.000,0.000:
0000
0000
0000
0000
,
0000
0000
0000
0000
,
0000
0000
0000
0000
,
0000
0000
0000
0000
,
0000
0000
0000
0000
,
1000
0000
0001
0100
0001
0000
1000
0000
0100
0000
0010
0000
0100
0000
1000
0000
,
0001
0000
0100
0010
0100
0000
0001
0000
0010
0000
0100
0000
0010
0000
0001
0000
,
1000
0000
0100
1000
0100
0000
1000
0000
0010
0000
0100
0000
0001
0000
0010
0000
,
0100
0000
1000
0001
1000
0000
0010
0000
0100
0000
0010
0000
1000
0000
0001
0000
,
0010
0000
0100
1000
0100
0000
1000
0000
0001
0100
0001
0000
0010
0000
0100
0000
,
1000
0000
0001
0010
0001
0000
1000
0000
0010
1000
0010
0000
0100
0000
0001
0000
,
0010
0000
0001
0100
0001
0000
1000
0000
0100
0010
0100
0000
1000
0000
0001
0000
,
1000
0000
0010
0100
0010
0000
1000
0000
0001
0010
0001
0000
1000
0000
0010
0000
,
0100
0000
0010
1000
0010
0000
1000
0000
0001
0010
0001
0000
0100
0000
0010
0000
,
1000
0000
0001
0100
0001
0000
1000
0000
0100
1000
0100
0000
0010
0000
0001
0000
,
0100
0000
0001
0010
0001
0000
1000
0000
0010
0100
0010
0000
1000
0000
0001
0000
,
1000
0000
0100
0010
0100
0000
1000
0000
0001
0010
0001
0000
1000
0000
0010
0000
,
0100
0000
0001
0010
0001
0000
1000
0000
0010
0100
0001
0000
0010
0000
0001
0000
,
1000
0000
0010
0100
0010
0000
1000
0000
0100
0010
0001
0000
0100
0000
0001
0000
,
1000
0000
0010
1000
0010
0000
1000
0000
0100
1000
0001
0000
1000
0000
0100
0000
,
0010
0000
0001
1000
0001
0000
0100
0000
0001
1000
0010
0000
1000
0000
0001
0000
,
0010
0000
0001
0100
0001
0000
1000
0000
0100
0010
0001
0000
0100
0000
0001
0000
,
1000
0000
0100
0010
0100
0000
1000
0000
0010
0100
0001
0000
0010
0000
0001
0000
,
1000
0000
0100
1000
0100
0000
1000
0000
0010
1000
0001
0000
1000
0000
0010
0000
,
0100
0000
0001
0000
1000
0010
1000
0000
0100
0000
0010
0001
1000
0000
0001
0000
,
0200
0300
0010
0000
1000
0000
0200
0300
0010
0000
0001
0000
1000
0000
0002
0003
,
0200
0300
0010
0000
1000
0000
0002
0003
0010
0000
0200
0300
1000
0000
0001
0000
,
0200
0300
0010
0000
0100
0000
0002
0003
1000
0000
0100
0000
1000
0000
0002
0003
,
0200
0300
0002
0003
0010
0100
2000
3000
0010
0000
0200
0300
0001
0000
2000
3000
,
0200
0300
1000
0000
0001
0000
0020
0030
0200
0300
1000
0000
0001
0000
2000
3000
,
0010
0000
0100
0000
0002
0003
1000
0000
0100
0000
0020
0030
0001
0000
2000
3000
,
0020
0030
0100
0000
0020
0030
1000
0000
0001
0000
0020
0030
0001
0000
2000
3000
,
0020
0030
2000
3000
0100
0010
0001
0000
0200
0300
0010
0000
2000
3000
0010
0000
,
0200
0300
0001
0000
2000
3000
0002
0003
0010
0000
0100
0000
0020
0030
0002
0003
,
2000
3000
0010
0000
0200
0300
0002
0003
1000
0000
0002
0003
0010
0000
0100
0000
,
2000
3000
0001
0000
0200
0300
0020
0030
0100
0000
0001
0000
2000
3000
0200
0300
,
0020
0030
0200
0300
1000
0000
0002
0003
1000
0000
0010
0000
0100
0001
1000
0000
,
0001
0000
1000
0100
1000
0000
0001
0000
0100
0000
0010
0000
0100
0000
0001
0000
,
1000
0000
0100
0010
0100
0000
1000
0000
0010
0000
0100
0000
0010
0000
1000
0000
,
0001
0000
0100
0001
0100
0000
0001
0000
0010
0000
0100
0000
1000
0000
0010
0000
,
0000
0000
0000
0000
,
1000
0010
0100
0001
1000
0001
0100
0010
0100
0001
1000
0010
1000
0001
0100
0001
,
1000
0100
0010
0100
1000
0001
0010
0001
1000
0100
0010
0001
0010
0100
1000
0001
,
1000
0010
1000
0001
0100
0010
0100
0001
1000
0010
0100
0001
1000
0001
0100
0010
,
1000
0001
1000
0100
1000
0001
0010
0001
1000
0001
0010
0100
1000
0001
0010
0001
,
1000
0010
0100
0010
1000
0001
0100
0010
0100
0001
1000
0001
0100
0010
0100
0001
,
1000
0100
0010
0100
1000
0001
0010
0001
1000
0100
0010
0001
1000
0100
0010
0100
,
1000
0001
0100
0001
1000
0010
0100
0001
1000
0001
0100
0010
1000
0010
0100
0001
,
1000
0001
0010
0100
1000
0001
1000
0100
0010
0100
1000
0001
0010
0001
1000
0001
,
0100
0010
0100
0001
1000
0001
0100
0010
0100
0001
1000
0010
1000
0001
0100
0001
,
1000
0100
0010
0100
1000
0001
1000
0100
0010
0001
0010
0100
1000
0001
1000
0100
,
1000
0001
0100
0010
0100
0001
1000
0001
0100
0010
1000
0010
0100
0001
1000
0010
,
1000
0001
0010
0100
1000
0100
0010
0001
1000
0100
1000
0001
0010
0100
0010
0001
,
1000
0010
0100
0010
1000
0001
0100
0010
0100
0001
1000
0010
0100
0001
1000
0010
,
0100
0001
1000
0100
0010
0100
1000
0001
0010
0100
1000
0001
1000
0100
0010
0001
,
1000
0010
1000
0001
0100
0010
1000
0001
1000
0010
0100
0010
1000
0001
0100
0001
,
1000
0100
0010
0100
1000
0001
0010
0100
1000
0001
1000
0100
1000
0001
0010
0001
,
1000
0010
0100
0001
1000
0001
0100
0010
0100
0001
1000
0010
0100
0010
1000
0001
,
1000
0100
0010
0100
1000
0001
0010
0100
1000
0001
1000
0100
1000
0001
0010
0001
,
1000
0010
0100
0010
1000
0001
0100
0001
1000
0010
1000
0001
0100
0010
1000
0001
,
1000
0100
0010
0100
1000
0001
0010
0100
0010
0001
1000
0100
0010
0001
1000
0001
,
0100
0010
0100
0001
1000
0010
0100
0001
1000
0001
0100
0010
0100
0001
1000
0010
,
1000
0001
0010
0100
0010
0001
1000
0100
1000
0001
0010
0100
1000
0001
1000
0100
,
1000
0001
0100
0010
0100
0001
1000
0010
0100
0001
1000
0001
0100
0010
1000
0001
,
0010
0100
0010
0001
1000
0100
0010
0100
1000
0001
0010
0100
1000
0001
1000
0100
,
1000
0001
0100
0010
0100
0001
1000
0010
1000
0001
0100
0001
1000
0010
0100
0001
,
1000
0100
0010
0001
1000
0100
1000
0001
0010
0100
1000
0001
0010
0100
0010
0001
,
1000
0010
1000
0001
0100
0010
0100
0001
1000
0001
0100
0010
0100
0001
1000
0010
,
1000
0001
0010
0100
1000
0001
1000
0100
0010
0100
1000
0001
0010
0001
1000
0100
,
1000
0001
0100
0010
0100
0001
1000
0010
1000
0001
0100
0010
1000
0010
0100
0001
,
1000
0100
0010
0001
0010
0100
0010
0001
1000
0100
1000
0001
0010
0100
1000
0001
,
1000
0010
1000
0001
0100
0010
0100
0001
1000
0010
1000
0001
0100
0010
0100
0001
,
1000
0100
0010
0100
1000
0001
0010
0100
1000
0001
0010
0001
1000
0100
1000
0001
,
1000
0010
0100
0001
0010
0100
1000
0010
,
1000
0100
0010
0001
0100
0010
1000
0100
,
0010
0100
1000
0001
1000
0010
1000
0001
,
1000
0100
0010
0001
1000
0001
0100
0001
,
0010
0100
1000
0010
0100
0001
0010
0100
,
0010
0001
0100
0010
1000
0100
0010
0001
,
0100
0010
1000
0001
1000
0100
1000
0010
,
0100
0001
1000
0001
0010
0001
1000
0001
,
0100
0010
1000
0001
0010
0001
1000
0010
,
1000
0001
0010
0100
1000
0001
0100
0010
,
1000
0100
1000
0010
1000
0001
0100
0001
,
0010
0001
1000
0100
0010
0100
1000
0001
,
0100
0010
0100
0001
1000
0100
1000
0001
,
0100
0001
1000
0100
0010
0001
1000
0010
,
0100
0001
1000
0010
1000
0001
0100
0001
,
0010
0000
0100
0000
0010
0000
0100
1000
0100
0000
1000
0000
0001
1000
0001
1000
,
0001
0100
0010
1000
0001
1000
0010
0100
0010
1000
0001
0100
0001
1000
0010
1000
,
0001
0010
0100
0010
0001
1000
0100
1000
0001
0010
0100
1000
0100
0010
0001
1000
,
0001
0100
0001
1000
0010
0100
0010
1000
0001
0100
0010
1000
0001
1000
0010
0100
,
0001
1000
0001
0010
0001
1000
0100
1000
0001
1000
0100
0010
0001
1000
0100
1000
,
0001
0100
0010
0100
0001
1000
0010
0100
0010
1000
0001
1000
0010
0100
0010
1000
,
0001
0010
0100
0010
0001
1000
0100
1000
0001
0010
0100
1000
0001
0010
0100
0010
,
0001
1000
0010
1000
0001
0100
0010
1000
0001
1000
0010
0100
0001
0100
0010
1000
,
0001
1000
0100
0010
0001
1000
0001
0010
0100
0010
0001
1000
0100
1000
0001
1000
,
0010
0100
0010
1000
0001
1000
0010
0100
0010
1000
0001
0100
0001
1000
0010
1000
,
0001
0010
0100
0010
0001
1000
0001
0010
0100
1000
0100
0010
0001
1000
0001
0010
,
0001
1000
0010
0100
0010
1000
0001
1000
0010
0100
0001
0100
0010
1000
0001
0100
,
0001
1000
0100
0010
0001
0010
0100
1000
0001
0010
0001
1000
0100
0010
0100
1000
,
0001
0100
0010
0100
0001
1000
0010
0100
0010
1000
0001
0100
0010
1000
0001
0100
,
0010
1000
0001
0010
0100
0010
0001
1000
0100
0010
0001
1000
0001
0010
0100
1000
,
0001
0100
0001
1000
0010
0100
0001
1000
0001
0100
0010
0100
0001
1000
0010
1000
,
0001
0010
0100
0010
0001
1000
0100
0010
0001
1000
0001
0010
0001
1000
0100
1000
,
0001
0100
0010
1000
0001
1000
0010
0100
0010
1000
0001
0100
0010
0100
0001
1000
,
0001
0010
0100
0010
0001
1000
0100
0010
0001
1000
0001
0010
0001
1000
0100
1000
,
0001
0100
0010
0100
0001
1000
0010
1000
0001
0100
0001
1000
0010
0100
0001
1000
,
0001
0010
0100
0010
0001
1000
0100
0010
0100
1000
0001
0010
0100
1000
0001
1000
,
0010
0100
0010
1000
0001
0100
0010
1000
0001
1000
0010
0100
0010
1000
0001
0100
,
0001
1000
0100
0010
0100
1000
0001
0010
0001
1000
0100
0010
0001
1000
0001
0010
,
0001
1000
0010
0100
0010
1000
0001
0100
0010
1000
0001
1000
0010
0100
0001
1000
,
0100
0010
0100
1000
0001
0010
0100
0010
0001
1000
0100
0010
0001
1000
0001
0010
,
0001
1000
0010
0100
0010
1000
0001
0100
0001
1000
0010
1000
0001
0100
0010
1000
,
0001
0010
0100
1000
0001
0010
0001
1000
0100
0010
0001
1000
0100
0010
0100
1000
,
0001
0100
0001
1000
0010
0100
0010
1000
0001
1000
0010
0100
0010
1000
0001
0100
,
0001
1000
0100
0010
0001
1000
0001
0010
0100
0010
0001
1000
0100
1000
0001
0010
,
0001
1000
0010
0100
0010
1000
0001
0100
0001
1000
0010
0100
0001
0100
0010
1000
,
0001
0010
0100
1000
0100
0010
0100
1000
0001
0010
0001
1000
0100
0010
0001
1000
,
0001
0100
0001
1000
0010
0100
0010
1000
0001
0100
0001
1000
0010
0100
0010
1000
,
0001
0010
0100
0010
0001
1000
0100
0010
0001
1000
0100
1000
0001
0010
0001
1000
,
0001
0010
0100
1000
0010
0100
0001
0010
,
0001
0100
0010
1000
0100
0010
0001
0100
,
0010
0100
0001
1000
0001
0010
0001
1000
,
0001
0100
0010
1000
0001
1000
0100
1000
,
0010
0100
0001
0010
0100
1000
0010
0100
,
0010
1000
0100
0010
0001
0100
0010
1000
,
0100
0010
0001
1000
0001
0100
0001
0010
,
0100
1000
0001
1000
0010
1000
0001
1000
,
0100
0010
0001
1000
0010
1000
0001
0010
,
0001
1000
0010
0100
0001
1000
0100
0010
,
0001
0100
0001
0010
0001
1000
0100
1000
,
0010
1000
0001
0100
0010
0100
0001
1000
,
0100
0010
0100
1000
0001
0100
0001
1000
,
0100
1000
0001
0100
0010
1000
0001
0010
,
0100
1000
0001
0010
0001
1000
0100
1000
,
1001
0000
0000
0000
;

//---------------dance-single - Zaia - 15.4----------------
#NOTES:
     dance-single:
     Zaia - 15.4:
     Medium:
     15:
     1.000,1.000,0.007,0.309,1.000,1342.000,1.000,46.000,0.000,0.000:
0000
0000
0000
0000
,
0000
0000
0000
0000
,
0000
0000
0000
0000
,
0000
0000
0000
0000
,
0000
0000
0000
0000
,
1000
0000
0001
0100
0001
0000
1000
0000
0100
0000
0010
0000
0100
0000
1000
0000
,
0001
0000
0100
0010
0100
0000
0001
0000
0010
0000
0100
0000
0010
0000
0001
0000
,
1000
0000
0100
1000
0100
0000
1000
0000
0010
0000
0100
0000
0001
0000
0010
0000
,
0100
0000
1000
0001
1000
0000
0010
0000
0100
0000
0010
0000
1000
0000
0001
0000
,
0010
0000
0100
1000
0100
0000
1000
0000
0001
0100
0001
0000
0010
0000
0100
0000
,
1000
0000
0001
0010
0001
0000
1000
0000
0010
1000
0010
0000
0100
0000
0001
0000
,
0010
0000
0001
0100
0001
0000
1000
0000
0100
0010
0100
0000
1000
0000
0001
0000
,
1000
0000
0010
0100
0010
0000
1000
0000
0001
0010
0001
0000
1000
0000
0010
0000
,
0100
0000
0010
1000
0010
0000
1000
0000
0001
0010
0001
0000
0100
0000
0010
0000
,
1000
0000
0001
0100
0001
0000
1000
0000
0100
1000
0100
0000
0010
0000
0001
0000
,
0100
0000
0001
0010
0001
0000
1000
0000
0010
0100
0010
0000
1000
0000
0001
0000
,
1000
0000
0100
0010
0100
0000
1000
0000
0001
0010
0001
0000
1000
0000
0010
0000
,
0100
0000
0001
0010
0001
0000
1000
0000
0010
0100
0001
0000
0010
0000
0001
0000
,
1000
0000
0010
0100
0010
0000
1000
0000
0100
0010
0001
0000
0100
0000
0001
0000
,
1000
0000
0010
1000
0010
0000
1000
0000
0100
1000
0001
0000
1000
0000
0100
0000
,
0010
0000
0001
1000
0001
0000
0100
0000
0001
1000
0010
0000
1000
0000
0001
0000
,
0010
0000
0001
0100
0001
0000
1000
0000
0100
0010
0001
0000
0100
0000
0001
0000
,
1000
0000
0100
0010
0100
0000
1000
0000
0010
0100
0001
0000
0010
0000
0001
0000
,
1000
0000
0100
1000
0100
0000
1000
0000
0010
1000
0001
0000
1000
0000
0010
0000
,
0100
0000
0001
1000
0001
0000
0010
0000
0100
1000
0001
0000
1000
0000
0001
0000
,
0200
0300
0010
0000
1000
0000
0200
0300
0010
0000
0001
0000
1000
0000
0002
0003
,
0200
0300
0010
0000
1000
0000
0002
0003
0010
0000
0200
0300
1000
0000
0001
0000
,
0200
0300
0010
0000
0100
0000
0002
0003
1000
0000
0100
0000
1000
0000
0002
0003
,
0200
0300
0002
0003
0010
0100
2000
3000
0010
0000
0200
0300
0001
0000
2000
3000
,
0200
0300
1000
0000
0001
0000
0020
0030
0200
0300
1000
0000
0001
0000
2000
3000
,
0010
0000
0100
0000
0002
0003
1000
0000
0100
0000
0020
0030
0001
0000
2000
3000
,
0020
0030
0100
0000
0020
0030
1000
0000
0001
0000
0020
0030
0001
0000
2000
3000
,
0020
0030
2000
3000
0100
0010
0001
0000
0200
0300
0010
0000
2000
3000
0010
0000
,
0200
0300
0001
0000
2000
3000
0002
0003
0010
0000
0100
0000
0020
0030
0002
0003
,
2000
3000
0010
0000
0200
0300
0002
0003
1000
0000
0002
0003
0010
0000
0100
0000
,
2000
3000
0001
0000
0200
0300
0020
0030
0100
0000
0001
0000
2000
3000
0200
0300
,
0020
0030
0200
0300
1000
0000
0002
0003
1000
0000
0010
0000
0100
0001
1000
0000
,
0001
0000
1000
0100
1000
0000
0001
0000
0100
0000
0010
0000
0100
0000
0001
0000
,
1000
0000
0100
0010
0100
0000
1000
0000
0010
0000
0100
0000
0010
0000
1000
0000
,
0001
0000
0100
0001
0100
0000
0001
0000
0010
0000
0100
0000
1000
0000
0010
0000
,
0000
0000
0000
0000
,
1000
0010
0100
0001
1000
0001
0100
0010
0100
0001
1000
0010
1000
0001
0100
0001
,
1000
0100
0010
0100
1000
0001
0010
0001
1000
0100
0010
0001
0010
0100
1000
0001
,
1000
0010
1000
0001
0100
0010
0100
0001
1000
0010
0100
0001
1000
0001
0100
0010
,
1000
0001
1000
0100
1000
0001
0010
0001
1000
0001
0010
0100
1000
0001
0010
0001
,
1000
0010
0100
0010
1000
0001
0100
0010
0100
0001
1000
0001
0100
0010
0100
0001
,
1000
0100
0010
0100
1000
0001
0010
0001
1000
0100
0010
0001
1000
0100
0010
0100
,
1000
0001
0100
0001
1000
0010
0100
0001
1000
0001
0100
0010
1000
0010
0100
0001
,
1000
0001
0010
0100
1000
0001
1000
0100
0010
0100
1000
0001
0010
0001
1000
0001
,
0100
0010
0100
0001
1000
0100
0010
0100
,
1000
0001
1000
0010
0100
0001
1000
0100
,
0010
0001
1000
0100
1000
0001
0100
0001
,
0010
0100
1000
0010
0100
0001
0010
0001
,
0100
0010
1000
0100
0010
0001
0100
0001
,
1000
0100
1000
0001
0010
0100
1000
0001
,
1000
0010
0100
0001
1000
0100
0010
0100
,
1000
0001
0100
0010
0100
0001
1000
0001
,
1000
0010
0100
0001
1000
0001
0100
0010
0100
0001
1000
0010
0100
0010
1000
0001
,
1000
0100
0010
0100
1000
0001
0010
0100
1000
0001
1000
0100
1000
0001
0010
0001
,
1000
0010
0100
0010
1000
0001
0100
0001
1000
0010
1000
0001
0100
0010
1000
0001
,
1000
0100
0010
0100
1000
0001
0010
0100
0010
0001
1000
0100
0010
0001
1000
0001
,
0100
0010
0100
0001
1000
0010
0100
0001
1000
0001
0100
0010
0100
0001
1000
0010
,
1000
0001
0010
0100
0010
0001
1000
0100
1000
0001
0010
0100
1000
0001
1000
0100
,
1000
0001
0100
0010
0100
0001
1000
0010
0100
0001
1000
0001
0100
0010
1000
0001
,
0010
0100
0010
0001
1000
0100
0010
0100
1000
0001
0010
0100
1000
0001
1000
0100
,
1000
0001
0100
0010
0100
0001
1000
0100
,
0010
0100
1000
0001
0100
0010
1000
0100
,
0010
0001
0100
0010
0100
0001
0010
0100
,
1000
0010
0100
0001
0010
0001
1000
0001
,
0100
0010
1000
0001
0010
0100
1000
0001
,
1000
0010
1000
0100
1000
0001
0010
0100
,
0010
0001
1000
0010
0100
0010
1000
0100
,
1000
0001
0100
0001
0010
0100
1000
0001
,
1000
0010
0100
0001
0010
0100
1000
0010
,
1000
0100
0010
0001
0100
0010
1000
0100
,
0010
0100
1000
0001
1000
0010
1000
0001
,
1000
0100
0010
0001
1000
0001
0100
0001
,
0010
0100
1000
0010
0100
0001
0010
0100
,
0010
0001
0100
0010
1000
0100
0010
0001
,
0100
0010
1000
0001
1000
0100
1000
0010
,
0100
0001
1000
0001
0010
0001
1000
0001
,
0100
0010
1000
0001
0010
0001
1000
0010
,
1000
0001
0010
0100
1000
0001
0100
0010
,
1000
0100
1000
0010
1000
0001
0100
0001
,
0010
0001
1000
0100
0010
0100
1000
0001
,
0100
0010
0100
0001
1000
0100
1000
0001
,
0100
0001
1000
0100
0010
0001
1000
0010
,
0100
0001
1000
0010
1000
0001
0100
0001
,
0010
0000
0100
0000
0010
0000
0100
1000
0100
0000
1000
0000
0001
1000
0001
1000
,
0001
0100
0010
1000
0001
1000
0010
0100
0010
1000
0001
0100
0001
1000
0010
1000
,
0001
0010
0100
0010
0001
1000
0100
1000
0001
0010
0100
1000
0100
0010
0001
1000
,
0001
0100
0001
1000
0010
0100
0010
1000
0001
0100
0010
1000
0001
1000
0010
0100
,
0001
1000
0001
0010
0001
1000
0100
1000
0001
1000
0100
0010
0001
1000
0100
1000
,
0001
0100
0010
0100
0001
1000
0010
0100
0010
1000
0001
1000
0010
0100
0010
1000
,
0001
0010
0100
0010
0001
1000
0100
1000
0001
0010
0100
1000
0001
0010
0100
0010
,
0001
1000
0010
1000
0001
0100
0010
1000
0001
1000
0010
0100
0001
0100
0010
1000
,
0001
1000
0100
0010
0001
1000
0001
0010
0100
0010
0001
1000
0100
1000
0001
1000
,
0010
0100
0010
1000
0001
0010
0100
0010
,
0001
1000
0001
0100
0010
1000
0001
0010
,
0100
1000
0001
0010
0001
1000
0010
1000
,
0100
0010
0001
0100
0010
1000
0100
1000
,
0010
0100
0001
0010
0100
1000
0010
1000
,
0001
0010
0001
1000
0100
0010
0001
1000
,
0001
0100
0010
1000
0001
0010
0100
0010
,
0001
1000
0010
0100
0010
1000
0001
1000
,
0001
0100
0010
1000
0001
1000
0010
0100
0010
1000
0001
0100
0010
0100
0001
1000
,
0001
0010
0100
0010
0001
1000
0100
0010
0001
1000
0001
0010
0001
1000
0100
1000
,
0001
0100
0010
0100
0001
1000
0010
1000
0001
0100
0001
1000
0010
0100
0001
1000
,
0001
0010
0100
0010
0001
1000
0100
0010
0100
1000
0001
0010
0100
1000
0001
1000
,
0010
0100
0010
1000
0001
0100
0010
1000
0001
1000
0010
0100
0010
1000
0001
0100
,
0001
1000
0100
0010
0100
1000
0001
0010
0001
1000
0100
0010
0001
1000
0001
0010
,
0001
1000
0010
0100
0010
1000
0001
0100
0010
1000
0001
1000
0010
0100
0001
1000
,
0100
0010
0100
1000
0001
0010
0100
0010
0001
1000
0100
0010
0001
1000
0001
0010
,
0001
1000
0010
0100
0010
1000
0001
0010
,
0100
0010
0001
1000
0010
0100
0001
0010
,
0100
1000
0010
0100
0010
1000
0100
0010
,
0001
0100
0010
1000
0100
1000
0001
1000
,
0010
0100
0001
1000
0100
0010
0001
1000
,
0001
0100
0001
0010
0001
1000
0100
0010
,
0100
1000
0001
0100
0010
0100
0001
0010
,
0001
1000
0010
1000
0100
0010
0001
1000
,
0001
0010
0100
1000
0010
0100
0001
0010
,
0001
0100
0010
1000
0100
0010
0001
0100
,
0010
0100
0001
1000
0001
0010
0001
1000
,
0001
0100
0010
1000
0001
1000
0100
1000
,
0010
0100
0001
0010
0100
1000
0010
0100
,
0010
1000
0100
0010
0001
0100
0010
1000
,
0100
0010
0001
1000
0001
0100
0001
0010
,
0100
1000
0001
1000
0010
1000
0001
1000
,
0100
0010
0001
1000
0010
1000
0001
0010
,
0001
1000
0010
0100
0001
1000
0100
0010
,
0001
0100
0001
0010
0001
1000
0100
1000
,
0010
1000
0001
0100
0010
0100
0001
1000
,
0100
0010
0100
1000
0001
0100
0001
1000
,
0100
1000
0001
0100
0010
1000
0001
0010
,
0100
1000
0001
0010
0001
1000
0100
1000
,
1001
0000
0000
0000
;

//---------------dance-single - Zaia - 18.5----------------
#NOTES:
     dance-single:
     Zaia - 18.5:
     Challenge:
     18:
     1.000,1.000,0.007,0.000,1.000,1899.000,1.000,0.000,0.000,0.000:
0000
0000
0000
0000
,
1000
0010
0100
0001
0100
0001
1000
0100
0010
0001
0010
0001
1000
0010
0100
0001
,
1000
0001
0010
0100
1000
0100
1000
0001
0100
0010
1000
0010
1000
0001
0010
0100
,
1000
0010
0100
0001
0100
0001
1000
0100
0010
0001
0010
0001
1000
0010
0100
0001
,
1000
0001
0010
0100
1000
0100
1000
0001
0100
0010
1000
0010
1000
0001
0010
0100
,
1000
0100
0010
0001
0010
0001
1000
0010
0100
0001
0100
0001
1000
0100
0010
0001
,
1000
0001
0100
0010
1000
0010
1000
0001
0010
0100
1000
0100
1000
0001
0100
0010
,
1000
0100
0010
0001
0010
0001
1000
0010
0100
0001
0100
0001
1000
0100
0010
0001
,
1000
0001
0100
0010
1000
0010
1000
0001
0010
0100
1000
0100
1000
0001
0100
0010
,
1000
0001
0100
0001
0100
0001
1000
0100
0010
0100
1000
0001
1000
0010
0100
0001
,
1000
0100
0010
0100
0010
0100
1000
0001
1000
0010
0100
0001
0010
0100
0010
0001
,
1000
0010
0100
0010
0100
0010
1000
0001
1000
0100
1000
0001
0100
0010
0100
0001
,
0010
0100
1000
0100
1000
0100
0010
0001
1000
0010
0100
0001
1000
0100
0010
0100
,
1000
0001
0100
0001
0100
0001
1000
0100
0010
0100
1000
0001
1000
0010
0100
0001
,
0100
0010
1000
0010
1000
0010
0100
0001
0010
0100
0010
0001
1000
0010
0100
0010
,
1000
0100
0010
0100
0010
0100
1000
0001
1000
0010
0100
0010
1000
0001
0010
0100
,
1000
0010
0100
0010
0100
0010
1000
0001
1000
0100
0010
0100
1000
0001
0100
0010
,
1000
0100
1000
0001
0010
0001
1000
0010
0100
0010
1000
0001
1000
0100
0010
0001
,
1000
0010
1000
0001
0100
0001
1000
0100
0010
0100
1000
0001
1000
0010
0100
0001
,
1000
0001
0010
0001
1000
0100
1000
0001
0100
0010
0100
0001
1000
0001
0010
0100
,
1000
0001
0100
0001
1000
0010
1000
0001
0010
0100
0010
0001
1000
0001
0100
0010
,
1000
0100
1000
0001
0010
0001
1000
0010
0100
0010
1000
0001
1000
0100
0010
0001
,
1000
0010
1000
0001
0100
0001
1000
0100
0010
0100
1000
0001
1000
0010
0100
0001
,
1000
0001
0010
0001
1000
0100
1000
0001
0100
0010
0100
0001
1000
0001
0010
0100
,
1000
0001
0100
0001
1000
0010
1000
0001
0010
0100
0010
0001
1000
0001
0100
0010
,
1000
0100
1000
0001
0100
0001
0010
0100
1000
0001
0100
0010
0100
0001
0010
0100
,
1000
0001
0100
0001
1000
0010
1000
0100
1000
0001
0100
0010
0100
0001
1000
0010
,
1000
0010
1000
0001
0100
0001
0010
0100
1000
0001
0100
0010
0100
0001
0010
0100
,
1000
0001
0100
0001
1000
0001
1000
0100
1000
0001
0100
0010
0100
0001
1000
0010
,
1000
0001
0010
0001
1000
0010
1000
0100
0010
0001
1000
0010
0100
0010
1000
0100
,
0010
0001
1000
0010
1000
0001
0100
0001
0010
0001
1000
0010
0100
0010
1000
0001
,
0100
0001
0100
0001
1000
0010
1000
0100
0010
0001
1000
0010
0100
0010
1000
0100
,
0010
0001
1000
0010
0100
0001
1000
0001
0010
0001
1000
0010
0100
0010
1000
0001
,
0100
0010
1000
0100
0010
0100
1000
0001
0100
0010
0100
0001
1000
0010
1000
0100
,
1000
0001
0010
0001
1000
0100
0010
0100
1000
0001
0100
0001
0010
0100
1000
0001
,
1000
0010
1000
0100
0010
0100
1000
0001
0100
0010
0100
0001
1000
0010
1000
0100
,
1000
0001
0010
0001
1000
0100
0010
0100
1000
0001
0100
0001
0010
0100
1000
0001
,
1000
0010
0100
0001
0100
0001
1000
0100
0010
0001
0010
0001
1000
0010
0100
0001
,
1000
0001
0010
0100
1000
0100
1000
0001
0100
0010
1000
0010
1000
0001
0010
0100
,
1000
0010
0100
0001
0100
0001
1000
0100
0010
0001
0010
0001
1000
0010
0100
0000
,
0000
0000
0000
0000
,
1000
0010
0100
0001
1000
0010
1000
0001
0010
0001
0100
0010
1000
0100
0010
0100
,
1000
0001
1000
0010
0100
0001
1000
0001
0100
0001
0010
0100
1000
0010
0100
0001
,
1000
0100
1000
0001
0100
0001
0010
0100
0010
0001
1000
0010
0100
0001
1000
0100
,
0010
0001
0100
0001
1000
0100
1000
0001
0100
0010
0100
0001
0010
0001
1000
0001
,
0100
0010
0100
0001
1000
0100
1000
0001
0100
0001
0010
0100
1000
0010
0100
0010
,
1000
0001
1000
0100
0010
0001
1000
0001
0010
0001
0100
0010
1000
0100
0010
0001
,
1000
0010
1000
0001
0010
0001
0100
0010
0100
0001
1000
0100
0010
0001
1000
0010
,
0100
0001
0010
0001
1000
0010
1000
0001
0010
0100
0010
0001
0100
0001
1000
0100
,
0010
0001
0100
0010
1000
0001
0100
0001
1000
0100
1000
0010
0100
0001
0010
0100
,
0010
0001
1000
0001
0100
0010
1000
0001
1000
0010
1000
0100
0010
0001
0100
0010
,
1000
0001
0010
0001
1000
0010
1000
0100
0010
0100
1000
0001
0100
0010
1000
0001
,
0010
0100
1000
0010
1000
0001
0010
0001
1000
0010
0100
0010
1000
0100
1000
0001
,
1000
0010
0100
0010
1000
0001
0010
0001
1000
0010
1000
0100
0010
0001
0100
0010
,
0100
0001
1000
0001
0010
0100
1000
0001
1000
0100
1000
0010
0100
0001
0010
0100
,
1000
0001
0100
0001
1000
0100
1000
0010
0100
0010
1000
0001
0010
0100
1000
0001
,
0100
0010
1000
0100
1000
0001
0100
0001
1000
0100
0010
0100
1000
0010
1000
0001
,
1000
0100
0010
0001
1000
0100
1000
0001
0100
0001
0010
0100
1000
0010
0100
0010
,
1000
0001
1000
0100
0010
0001
1000
0001
0010
0001
1000
0010
1000
0100
0010
0001
,
1000
0010
1000
0001
0010
0001
1000
0010
0100
0001
1000
0100
0010
0001
1000
0010
,
0100
0001
0010
0001
1000
0010
1000
0001
0010
0100
0010
0001
0100
0001
1000
0001
,
0010
0100
0010
0001
1000
0010
1000
0001
0010
0001
0100
0010
1000
0100
0010
0100
,
1000
0001
1000
0010
0100
0001
1000
0001
0100
0001
1000
0100
1000
0010
0100
0001
,
1000
0100
1000
0001
0100
0001
1000
0100
0010
0001
1000
0010
0100
0001
1000
0100
,
0010
0001
0100
0001
1000
0100
1000
0001
0100
0010
0100
0001
0010
0001
1000
0010
,
0100
0001
1000
0001
0010
0100
1000
0001
0010
0001
1000
0100
1000
0010
0100
0001
,
0010
0100
0010
0001
1000
0010
0100
0001
1000
0001
1000
0010
1000
0100
0010
0001
,
0100
0010
0100
0001
1000
0100
1000
0001
0100
0010
1000
0001
1000
0100
0010
0001
,
1000
0010
1000
0001
0010
0100
1000
0001
1000
0010
0100
0010
1000
0001
0100
0001
,
0010
0001
1000
0010
0100
0010
1000
0001
0100
0001
1000
0010
1000
0100
0010
0001
,
0100
0010
0100
0001
1000
0100
0010
0001
1000
0001
1000
0100
1000
0010
0100
0001
,
0010
0100
0010
0001
1000
0010
1000
0001
0010
0100
1000
0001
1000
0010
0100
0001
,
1000
0100
1000
0001
0100
0010
1000
0001
1000
0100
0010
0100
1000
0001
0010
0001
,
1000
0010
0100
0001
0010
0100
1000
0010
,
1000
0100
0010
0001
0100
0010
1000
0100
,
0010
0100
1000
0001
1000
0010
1000
0001
,
1000
0100
0010
0001
1000
0001
0100
0001
,
0010
0100
1000
0010
0100
0001
0010
0100
,
0010
0001
0100
0010
1000
0100
0010
0001
,
0100
0010
1000
0001
1000
0100
1000
0010
,
0100
0001
1000
0001
0010
0001
1000
0001
,
0100
0010
1000
0001
0010
0001
1000
0010
,
1000
0001
0010
0100
1000
0001
0100
0010
,
1000
0100
1000
0010
1000
0001
0100
0001
,
0010
0001
1000
0100
0010
0100
1000
0001
,
0100
0010
0100
0001
1000
0100
1000
0001
,
0100
0001
1000
0100
0010
0001
1000
0010
,
0100
0001
1000
0010
1000
0001
0100
0001
,
0010
0000
0100
0000
0010
0000
0100
1000
0100
0000
1000
0000
0001
1000
0001
1000
,
0001
0010
0100
1000
0001
0010
0001
1000
0010
1000
0100
0010
0001
0100
0010
0100
,
0001
1000
0001
0010
0100
1000
0001
1000
0100
1000
0010
0100
0001
0010
0100
1000
,
0001
0100
0001
1000
0100
1000
0010
0100
0010
1000
0001
0010
0100
1000
0001
0100
,
0010
1000
0100
1000
0001
0100
0001
1000
0100
0010
0100
1000
0010
1000
0001
1000
,
0100
0010
0100
1000
0001
0100
0001
1000
0100
1000
0010
0100
0001
0010
0100
0010
,
0001
1000
0001
0100
0010
1000
0001
1000
0010
1000
0100
0010
0001
0100
0010
1000
,
0001
0010
0001
1000
0010
1000
0100
0010
0100
1000
0001
0100
0010
1000
0001
0010
,
0100
1000
0010
1000
0001
0010
0001
1000
0010
0100
0010
1000
0100
1000
0001
0100
,
0010
1000
0100
0010
0001
1000
0100
1000
0001
0100
0001
0010
0100
1000
0010
0100
,
0010
1000
0001
1000
0100
0010
0001
1000
0001
0010
0001
0100
0010
1000
0100
0010
,
0001
1000
0010
1000
0001
0010
0001
0100
0010
0100
0001
1000
0100
0010
0001
1000
,
0010
0100
0001
0010
0001
1000
0010
1000
0001
0010
0100
0010
0001
0100
0001
1000
,
0001
0010
0100
0010
0001
1000
0100
1000
0001
0010
0001
0100
0010
1000
0100
0010
,
0100
1000
0001
1000
0010
0100
0001
1000
0001
0100
0001
0010
0100
1000
0010
0100
,
0001
1000
0100
1000
0001
0100
0001
0010
0100
0010
0001
1000
0010
0100
0001
1000
,
0100
0010
0001
0100
0001
1000
0100
1000
0001
0100
0010
0100
0001
0010
0001
1000
,
0001
0100
0010
1000
0001
0100
0001
1000
0100
1000
0010
0100
0001
0010
0100
0010
,
0001
1000
0001
0100
0010
1000
0001
1000
0010
1000
0001
0010
0001
0100
0010
1000
,
0001
0010
0001
1000
0010
1000
0001
0010
0100
1000
0001
0100
0010
1000
0001
0010
,
0100
1000
0010
1000
0001
0010
0001
1000
0010
0100
0010
1000
0100
1000
0001
1000
,
0010
0100
0010
1000
0001
0010
0001
1000
0010
1000
0100
0010
0001
0100
0010
0100
,
0001
1000
0001
0010
0100
1000
0001
1000
0100
1000
0001
0100
0001
0010
0100
1000
,
0001
0100
0001
1000
0100
1000
0001
0100
0010
1000
0001
0010
0100
1000
0001
0100
,
0010
1000
0100
1000
0001
0100
0001
1000
0100
0010
0100
1000
0010
1000
0001
0010
,
0100
1000
0001
1000
0010
0100
0001
1000
0010
1000
0001
0100
0001
0010
0100
1000
,
0010
0100
0010
1000
0001
0010
0100
1000
0001
1000
0001
0010
0001
0100
0010
1000
,
0100
0010
0100
1000
0001
0100
0001
1000
0100
0010
0001
1000
0001
0100
0010
1000
,
0001
0010
0001
1000
0010
0100
0001
1000
0001
0010
0100
0010
0001
1000
0100
1000
,
0010
1000
0001
0010
0100
0010
0001
1000
0100
1000
0001
0010
0001
0100
0010
1000
,
0100
0010
0100
1000
0001
0100
0010
1000
0001
1000
0001
0100
0001
0010
0100
1000
,
0010
0100
0010
1000
0001
0010
0001
1000
0010
0100
0001
1000
0001
0010
0100
1000
,
0001
0100
0001
1000
0100
0010
0001
1000
0001
0100
0010
0100
0001
1000
0010
1000
,
0001
0010
0100
1000
0010
0100
0001
0010
,
0001
0100
0010
1000
0100
0010
0001
0100
,
0010
0100
0001
1000
0001
0010
0001
1000
,
0001
0100
0010
1000
0001
1000
0100
1000
,
0010
0100
0001
0010
0100
1000
0010
0100
,
0010
1000
0100
0010
0001
0100
0010
1000
,
0100
0010
0001
1000
0001
0100
0001
0010
,
0100
1000
0001
1000
0010
1000
0001
1000
,
0100
0010
0001
1000
0010
1000
0001
0010
,
0001
1000
0010
0100
0001
1000
0100
0010
,
0001
0100
0001
0010
0001
1000
0100
1000
,
0010
1000
0001
0100
0010
0100
0001
1000
,
0100
0010
0100
1000
0001
0100
0001
1000
,
0100
1000
0001
0100
0010
1000
0001
0010
,
0100
1000
0001
0010
0001
1000
0100
1000
,
1001
0000
0000
0000
;
