#TITLE:Holy Xmas Night;
#SUBTITLE:;
#ARTIST:Ace Feat. Brubell Girls and Child Choir;
#TITLETRANSLIT:;
#SUBTITLETRANSLIT:;
#ARTISTTRANSLIT:;
#CREDIT:PenguinMan26;
#BANNER:banner.png;
#BACKGROUND:bg.png;
#LYRICSPATH:;
#CDTITLE:cdtitle.png;
#MUSIC:Holy Xmas Night.mp3;
#OFFSET:-0.790;
#SAMPLESTART:76.500;
#SAMPLELENGTH:12.000;
#SELECTABLE:YES;
#BPMS:0.000=152.000;
#STOPS:;
#BGCHANGES:;
// cache tags:
#FIRSTBEAT:16.000;
#LASTBEAT:256.000;
#SONGFILENAME:Songs/DDRExtreme.co.uk presents ChristmasMix/Holy Xmas Night/Holy Xmas Night.sm;
#HASMUSIC:1;
#HASBANNER:1;
#MUSICLENGTH:109.479;
// end cache tags

//---------------dance-single - HEAVY----------------
#NOTES:
     dance-single:
     HEAVY:
     Hard:
     7:
     0.433,0.497,0.247,0.329,0.000,269.000,27.000,36.000,0.000,0.000:
0000
0000
0000
0000
,
0000
0000
0000
0000
,
0000
0000
0000
0000
,
0000
0000
0000
0000
,
2000
3100
0200
0310
,
0020
0000
0031
0000
0002
0000
1003
2000
,
0001
0000
0001
0000
3001
0000
0001
0100
,
0010
1000
0200
1300
,
0010
1000
0100
0000
0010
0001
0100
0000
,
1000
0000
0100
0010
0000
0001
0000
0000
,
0100
0001
0010
0000
0100
1000
0010
0000
,
1000
0000
0100
0010
0000
0001
0000
0000
,
1000
0100
1000
0100
0010
0001
0010
0001
,
1000
0010
1000
0010
0100
0001
0100
0201
,
0000
0000
0000
0000
0000
0300
0001
1000
,
0100
0011
1100
2001
,
3001
0100
0000
0100
0000
0000
0000
0010
,
0000
1000
0000
0001
0000
0100
0001
1000
,
1001
0000
0100
0100
0001
0000
0100
0000
,
0001
1000
0100
0010
0000
0010
0010
0000
,
0110
0100
0011
1000
,
1100
0000
0010
1010
0000
0100
0101
0000
,
0110
0001
1100
0010
,
0101
0000
1000
2002
0000
0000
0000
3003
,
0010
0100
0001
0100
0010
1000
0100
0020
,
0000
0030
0001
0100
0000
0100
0000
0000
,
0100
0001
1000
0001
0010
0001
0010
0100
,
2000
0000
0000
3000
0101
0000
1010
0000
,
0110
0010
0100
0010
0000
0100
0000
1000
,
0000
0010
0000
0000
0100
0000
0001
0000
,
0020
0000
0000
0000
0030
0100
1000
0010
,
0200
0000
0000
0000
0000
0300
0000
0000
,
0010
1000
0100
0001
0100
1000
0010
0020
,
0000
0030
1000
0010
0000
0100
0000
0000
,
0001
0100
1000
0100
0001
1000
0000
0220
,
0000
0330
0011
1100
,
0001
1000
0010
0100
0000
0000
0001
1000
,
0000
0100
0000
0000
0010
0000
0100
0000
,
2000
0000
0000
0000
3000
0010
0100
0001
,
0020
0000
0030
1001
,
2000
0000
3002
0000
,
0203
0000
0320
0000
,
1030
0000
0010
0100
0000
0001
0000
0002
,
0000
0000
0000
0003
0000
0000
0010
0000
,
0100
0000
1000
0100
0000
1000
0000
0001
,
0000
0100
0000
0000
1001
0000
0110
0000
,
2100
0000
0000
0001
0000
0000
0010
0000
,
0000
0100
0000
0001
0000
0000
3010
0000
,
0200
0301
0020
0130
,
1000
0000
0001
0001
0000
0100
0000
0000
,
0020
1030
0200
0310
,
0001
0000
0100
0100
0000
0010
0000
0000
,
2000
3001
0002
1003
,
0200
0000
0310
0000
0020
0000
0130
0002
,
0000
0000
0000
0000
0003
0000
1000
0010
,
0100
0000
0100
0100
0000
0001
0000
0000
,
1000
0100
0010
0100
1000
0010
0100
0001
,
1000
0000
0010
0010
0000
0100
0000
0000
,
0001
0010
0100
0010
0001
0100
0010
1000
,
0001
0000
0100
0100
0000
1000
0000
0000
,
0010
1000
0001
0100
0010
1000
0001
0100
,
0010
1000
0100
0010
0001
0100
1000
0200
,
0000
0000
0000
0000
0300
0000
0010
1000
,
1000
0011
0101
1002
,
1003
0000
0000
0000
;

//---------------dance-single - STANDARD----------------
#NOTES:
     dance-single:
     STANDARD:
     Medium:
     5:
     0.333,0.380,0.100,0.365,0.000,204.000,11.000,40.000,0.000,0.000:
0000
0000
0000
0000
,
0000
0000
0000
0000
,
0000
0000
0000
0000
,
0000
0000
0000
0000
,
1000
0100
0001
0100
,
1000
0000
0001
0000
0020
0000
0030
2002
,
0000
0000
0000
0000
3003
0000
1000
0001
,
1000
0100
0010
0001
,
2000
3000
0200
0300
,
0001
0000
0100
2000
0000
3000
0000
0000
,
0020
0030
0002
0003
,
0010
0000
1000
0200
0000
0300
0000
0000
,
2000
0000
3002
0000
,
0203
0000
0000
0000
0320
0000
0000
1030
,
0000
0000
0000
0000
0000
0000
0001
1000
,
0001
0010
0100
1000
,
0010
0100
0001
0000
0010
0000
0000
0000
,
0100
0000
1000
0010
0001
0000
0010
0000
,
1000
0000
0100
0010
0001
0000
1000
0000
,
0100
0000
0010
0001
0000
1000
0000
0000
,
0010
1000
0010
0001
,
0010
0000
0000
0100
0000
0000
0010
0000
,
0100
0001
0100
1000
,
0200
0000
0000
0020
0000
0000
0330
0000
,
1000
0100
0010
0100
,
0001
0000
0100
0000
0010
0100
1000
0000
,
0001
0100
0010
1000
,
0002
0003
1010
1100
,
0001
0010
0100
1000
,
0100
0000
0010
0000
0001
1000
0100
1000
,
0020
0000
0000
0100
,
0100
0000
0000
0030
,
0100
0010
0001
1000
,
0001
0000
1000
0000
0001
0010
0100
0000
,
0100
1000
0001
0010
,
0200
0300
0011
1010
,
0110
0000
1000
0000
0001
0000
0100
0010
,
1000
0000
0001
0000
0010
0100
1000
0010
,
0200
0000
0000
0010
,
0010
0000
0300
0001
,
0101
0001
0101
0000
,
1100
1000
1100
0000
,
1000
0000
0001
0100
0000
0010
0000
0200
,
0000
0000
0300
0001
,
1000
0010
0100
0000
0001
0010
0100
0000
,
1000
0100
0001
0010
,
0200
0000
0000
0000
,
2000
0000
0000
0000
0000
0000
0000
3300
,
0020
0130
0002
0013
,
0100
1000
0010
0001
,
2000
3001
0200
1300
,
0010
0001
0100
1000
,
0020
0000
2030
0000
,
3200
0000
0000
0000
0320
0000
0000
0002
,
0000
0000
0033
1000
,
1000
0010
0100
0001
,
2000
3100
0002
0013
,
1000
0001
0010
0100
,
0200
1300
0020
0031
,
0100
1000
0001
0010
,
2000
0000
3002
0000
,
0023
0000
0000
0000
0230
0000
0000
2300
,
0000
0000
0000
0000
3000
0000
1000
0100
,
0001
0100
0010
0001
,
1001
0000
0000
0000
;

//---------------dance-single - LIGHT----------------
#NOTES:
     dance-single:
     LIGHT:
     Easy:
     3:
     0.202,0.263,0.064,0.174,0.000,129.000,7.000,19.000,0.000,0.000:
0000
0000
0000
0000
,
0000
0000
0000
0000
,
0000
0000
0000
0000
,
0000
0000
0000
0000
,
1000
0000
0001
0000
,
2000
0000
0000
0000
,
3000
0000
0000
0000
,
0010
0010
0100
0100
,
1000
0000
1000
0000
,
1000
0100
0010
0000
,
0001
0000
0001
0000
,
0010
0100
1000
0000
,
0200
0300
0020
0030
,
0200
0000
0000
0000
,
0300
0000
0000
0000
,
1000
1000
0001
0001
,
0010
0000
0100
0000
,
1000
0100
0010
0001
,
0000
0010
0100
0000
,
1000
0100
0010
0001
,
0100
0000
0001
0000
,
1000
0000
0020
0130
,
1000
0000
0010
0000
,
0100
0000
0002
0003
,
1000
0100
1000
0000
,
0001
0010
0001
0000
,
0010
0000
0100
0000
,
0020
0000
0000
0030
,
1000
0000
0001
0000
,
0100
0000
1000
0001
,
2002
0000
0000
0000
,
0000
0000
0000
3003
,
0100
0000
0001
0000
,
0010
1000
0100
0001
,
0010
0000
0100
0000
,
1000
0100
0001
0010
,
1000
0000
0010
0000
,
0001
0000
1000
0010
,
0220
0000
0000
0000
,
0000
0000
0330
0000
,
1001
0000
0110
0000
,
1001
0000
0110
0000
,
1000
0100
0010
0001
,
2000
0000
0000
3000
,
0001
0000
0010
0000
,
0100
0000
1000
0100
,
0020
0000
0000
0000
,
0130
0000
0000
0000
,
1000
0000
0100
0000
,
0010
0001
0010
0000
,
0100
0000
1000
0000
,
0001
0010
0001
0000
,
2000
3000
0020
0030
,
0200
0000
0000
0000
,
0300
0000
0000
0000
,
0001
0010
0100
1000
,
0001
0000
0010
0000
,
0100
1000
0100
0000
,
0010
0000
0001
0000
,
1000
0100
1000
0000
,
0002
0003
0200
0300
,
0020
0000
0000
0000
,
0030
0000
0000
0000
,
0001
1000
0010
0100
,
1001
0000
0000
0000
;
