#TITLE:Above the Winter Moonlight;
#SUBTITLE:Sonic Firestorm;
#ARTIST:Dragonforce;
#TITLETRANSLIT:;
#SUBTITLETRANSLIT:;
#ARTISTTRANSLIT:;
#CREDIT:;
#BANNER:banner.jpg;
#BACKGROUND:ab.jpg;
#LYRICSPATH:;
#CDTITLE:!BajeezusTitle.png;
#MUSIC:Above the Winter Moonlight.mp3;
#OFFSET:-6.942;
#SAMPLESTART:41.760;
#SAMPLELENGTH:11.880;
#SELECTABLE:YES;
#DISPLAYBPM:180.000:200.000;
#BPMS:0.000=200.000,1243.750=180.000,1395.000=150.000,1400.000=130.000,1403.000=90.000,1404.000=79.000;
#STOPS:1160.000=1.195
;
#BGCHANGES:;
// cache tags:
#FIRSTBEAT:0.000;
#LASTBEAT:1409.000;
#SONGFILENAME:Songs/CMDKDF Pack/Above The Winter Moonlight (Bajeezus)/Above the Winter Moonlight.sm;
#HASMUSIC:1;
#HASBANNER:1;
#MUSICLENGTH:451.004;
// end cache tags

//---------------dance-single - Heavy----------------
#NOTES:
     dance-single:
     Heavy:
     Hard:
     13:
     1.000,1.000,1.000,0.217,1.000,3176.000,687.000,98.000,0.000,4.000:

0020
0000
0000
0032
,
2003
0000
3002
0023
,
0230
0000
0000
2300
,
3002
0000
2003
3200
,
0320
0000
0000
0230
,
2300
3002
0203
0320
,
2030
3200
0320
0230
,
0000
0320
0032
0000
,
0023
0000
0000
0032
,
2003
3200
0320
0032
,
0203
0000
0000
0300
,
0020
0000
2030
3002
,
0023
0000
0000
0032
,
2003
3002
0203
0320
,
2030
3020
0230
0302
,
0000
0203
0320
0000
,
1031
0000
0011
0000
0100
1000
0010
0000
0100
0000
1010
0000
0001
1000
0100
0000
,
0001
0000
0110
0000
1000
0001
1000
0000
0010
0000
1001
0000
0100
1000
0010
0000
,
0100
0000
1100
0000
0001
0010
0001
0000
0100
0000
0101
0000
0010
0001
0010
0000
,
1000
0000
1010
0000
0001
1000
0100
0000
0010
0000
0101
0000
0100
0010
0100
0000
,
1001
0000
1100
0000
0010
0100
1000
0000
0001
0000
0011
0000
0100
0010
0001
0000
,
0100
0000
0110
0000
0001
0100
0001
0000
1000
0000
1001
0000
0010
1000
0010
0000
,
0001
0000
0110
0000
0010
0001
1000
0000
0100
0000
1010
0000
0100
0010
0001
0000
,
1000
0010
0100
0001
0010
0100
0010
0001
1000
0020
0000
0000
0100
0000
0100
0030
,
1001
0000
0110
0000
0001
0010
0001
0000
0100
0000
1010
0000
0010
1000
0100
0000
,
0010
0000
1001
0000
1000
0010
1000
0000
0001
0000
1100
0000
0010
1000
0001
0000
,
1000
0000
1010
0000
0010
0001
0010
0000
0001
0000
1010
0000
0100
1000
0010
0000
,
0101
0000
0011
0000
1000
0000
0110
0000
1010
0000
0001
0010
0001
1000
0010
0100
,
1001
0000
0110
0000
1000
0001
0010
0000
1000
0000
0101
0000
0100
1000
0010
0000
,
0001
0000
1100
0000
0001
1000
0001
0000
0100
0000
1001
0000
0100
1000
0010
0000
,
0001
0000
1100
0000
1000
0100
1000
0000
0100
0000
0011
0000
0100
1000
0001
0000
,
0100
0000
1100
0000
0001
0010
0100
0000
1000
0000
0110
0000
0001
0100
0001
0000
,
1001
0010
0100
1000
0010
0100
0001
1000
0001
0100
0001
0010
0100
1000
0010
1000
,
0100
0010
0100
0010
0001
1000
0010
0100
0010
1000
0001
0100
0001
0010
0100
1000
,
0010
0100
0001
1000
0100
1000
0010
0100
0010
1000
0001
0010
0100
0010
0001
1000
,
0100
0010
0100
1000
0010
0100
0001
1000
0010
1000
0001
0010
0001
0100
0010
1000
,
0100
0010
0001
0100
0010
1000
0100
0010
0001
0100
0010
0100
0010
1000
0010
0100
,
0001
1000
0100
0010
0100
1000
0010
0100
0001
0010
0001
0100
0010
1000
0100
0010
,
0202
0000
0000
0000
0000
0000
0000
0303
,
1001
0100
0001
1000
0100
0010
0100
1000
0010
0100
0001
1000
0010
0100
0001
0010
,
1001
0000
0101
0000
0100
1000
0001
0000
1000
0000
1001
0000
0010
0001
1000
0000
,
0010
0000
0101
0000
0100
1000
0100
0000
0001
0000
1001
0000
0100
0001
0100
0000
,
1010
0000
0110
0000
0100
1000
0001
0000
0001
0000
0110
0000
0001
1000
0010
0000
,
0001
0000
1010
0000
0001
1000
0010
0000
0100
0000
1001
0000
0010
0001
0100
0010
,
1001
0000
0110
0000
0001
1000
0001
0000
0100
0000
1001
0000
1000
0001
0100
0000
,
0010
0000
0011
0000
1000
0010
0100
0000
1000
0000
0101
0000
0010
1000
0010
0000
,
0101
0000
0110
0000
1000
0001
0100
0000
0010
0000
1001
0000
0100
1000
0001
0000
,
1001
0010
0100
0001
1000
0100
1000
0010
0100
0001
0010
0100
1000
0100
0010
0000
,
1001
0000
1010
0000
0010
1000
0100
0000
1001
0000
0110
0000
0001
0100
0001
0000
,
1001
0000
0011
0000
0010
1000
0001
0000
0110
0000
1001
0000
0001
0100
0001
0000
,
1010
0000
0101
0000
0010
0001
1000
0000
0010
0000
1100
0000
1000
0001
0010
0000
,
1010
0000
0100
0000
1001
0000
0010
0100
0001
1000
0100
0010
0100
1000
0001
0100
,
0011
0000
0110
0000
1000
0010
1000
0000
0010
0000
0101
0000
1000
0010
0100
0000
,
0011
0000
0110
0000
0010
1000
0010
0000
0100
0000
1010
0000
0100
0001
1000
0000
,
1001
0000
1100
0000
1000
0001
0010
0000
0100
0000
1010
0000
0001
0010
0001
0000
,
1001
0010
0100
0010
1000
0100
1000
0100
0010
0001
0010
0001
1000
0010
0100
0001
,
1010
0001
0100
0001
1000
0100
1000
0010
0100
0001
1000
0010
0100
0010
1000
0001
,
0010
0100
0010
0001
0100
0001
1000
0100
1000
0010
0100
0001
0010
0100
1000
0010
,
0100
0001
0010
0001
1000
0100
0001
0100
1000
0010
0100
0001
0010
0100
1000
0010
,
1001
0100
0010
0100
0010
0100
1001
0010
0100
0010
0100
0010
1001
0100
0010
0100
,
1001
0010
0100
1000
0010
0100
0001
0010
1000
0010
0001
0100
0010
1000
0001
0100
,
0001
1000
0100
0010
0100
1000
0100
0010
0001
0100
0010
1000
0001
0100
0001
0100
,
0010
1000
0001
0010
0100
1000
0010
1000
0100
0010
0001
0100
0010
1000
0100
1000
,
0011
0100
1000
0100
1000
0100
0011
1000
0100
1000
0100
1000
0011
1000
0100
0010
,
1001
0000
0000
0010
0011
0000
0100
0000
,
0001
0000
0000
1000
1010
0000
0001
0000
,
1000
0000
0000
0001
0100
0001
1010
0000
0000
0100
0000
0000
,
0001
0000
0000
1001
0000
0000
0100
0000
0010
0000
1000
0000
0101
0000
0000
0000
0000
0000
0100
0000
0000
0000
0000
0000
,
1000
0000
0010
0001
0101
0000
0001
0000
,
1000
0000
0100
1000
1001
0000
0100
0000
,
0011
0000
1000
0010
0110
0000
0001
0000
,
1100
0000
0000
0000
0000
0000
0100
0000
0010
0000
0100
0000
1001
0000
0000
0100
0000
0000
0000
0000
0000
0100
0000
0000
,
0011
1000
0100
0010
0101
0010
0001
1000
,
0010
0001
0010
0100
1001
0010
0001
0100
,
0010
0100
0001
1000
1010
0001
0100
0010
,
0001
0010
0100
1000
0011
0001
0010
0100
,
0001
0100
0010
0100
0101
0001
0010
0100
,
1000
0010
0100
0001
1100
1000
0010
0001
,
0100
1000
0001
1000
1010
0001
0100
0010
,
1000
0001
0100
0010
0000
0000
0000
1000
0001
0100
0010
1000
0001
0010
0100
0000
,
1001
0000
0011
0000
0001
1000
0100
0000
1001
0000
0110
0000
1000
0010
1000
0000
,
0101
0000
1100
0000
1000
0010
0100
0000
1100
0000
0101
0000
0010
0100
0010
0000
,
1010
0000
0101
0000
0001
1000
0010
0000
0110
0000
1010
0000
0100
0001
0100
0000
,
1010
0000
1100
0000
0010
0001
0010
0000
0101
0000
1001
0000
1000
0010
1000
0000
,
0101
0000
0110
0000
0001
0100
0001
0000
1100
0000
1010
0000
0100
1000
0001
0000
,
1010
0000
0011
0000
1000
0001
0100
0000
1010
0000
1001
0000
0100
0001
0010
0000
,
1100
0000
1010
0000
0001
1000
0001
0000
0011
0000
0110
0000
0010
0001
1000
0000
,
1001
0000
0101
0000
1000
0010
0100
0000
1001
0000
0101
0000
0010
1000
0100
0000
,
0011
0000
1010
0000
1000
0001
0010
0000
1010
0000
0011
0000
0100
0010
0100
0000
,
1010
0000
1100
0000
0001
0100
0010
0000
1001
0000
0011
0000
0010
0001
1000
0000
,
1010
0000
0101
0000
0100
0010
0001
0000
0101
0000
1001
0000
0010
1000
0001
0000
,
0110
0000
1001
0000
0001
1000
0001
0000
0110
0000
1010
0000
0100
1000
0010
0000
,
1010
0000
0110
0000
0100
0001
0100
0000
1001
0000
0011
0000
0010
1000
0010
0000
,
0110
0000
1100
0000
0001
0100
0010
0000
0101
0000
0110
0000
1000
0010
0100
0000
,
1010
0000
0110
0000
1000
0100
0010
0000
1001
0000
1100
0000
0010
0001
1000
0000
,
1000
0010
0100
0001
0100
0010
1000
0001
0010
0100
0010
0001
1000
0001
0010
0100
,
1001
0011
0101
1010
1100
1010
1001
0011
,
0101
1010
0110
0101
0110
1100
1010
0011
,
1001
0010
0100
0001
0010
0001
0100
0010
1000
0010
0100
0001
0010
0001
0100
0010
,
1000
0010
0100
0001
0010
0001
0100
0010
1000
0010
0100
0001
0010
0001
0100
0010
,
2002
0000
0000
0000
,
0000
0000
0000
0000
0000
0000
0000
3003
0010
0100
0010
0100
0001
1000
0010
0100
,
1001
0010
0100
1000
0010
1000
0100
0010
0001
0010
0100
1000
0010
1000
0100
0010
,
0001
0010
0100
1000
0010
1000
0100
0010
0001
0010
0100
1000
0010
1000
0100
0010
,
2200
0000
0000
0000
0000
0000
0000
0000
0000
0000
0000
0000
0000
0000
0000
3300
,
0001
0010
0100
0010
0001
0010
0100
0010
1001
0000
0000
0000
0000
0000
0000
0000
,
1001
0000
0011
0000
0001
0100
0010
0000
1000
0000
1001
0000
0100
0010
0100
0000
,
1000
0000
0101
0000
0010
1000
0100
0000
0001
0000
1010
0000
0100
0001
1000
0000
,
0011
0000
1010
0000
0010
0100
0001
0000
0010
0000
1001
0000
0001
1000
0100
0000
,
0010
0000
0011
0000
1000
0001
0100
0000
1000
0000
0011
0000
0001
1000
0100
0010
,
1001
0000
0011
0000
1000
0001
1000
0000
0010
0000
0101
0000
0001
0100
0010
0000
,
0100
0000
1010
0000
0010
1000
0010
0000
0001
0000
0011
0000
0001
1000
0100
0000
,
0110
0000
1100
0000
0010
0100
0001
0000
0001
0000
0110
0000
0001
0100
0010
0000
,
1001
0010
0100
0010
1000
0010
0100
0010
1000
0001
0010
0100
1000
0100
0010
0000
,
1010
0000
1100
0000
0100
1000
0001
0000
0110
0000
0011
0000
0100
0010
1000
0000
,
1001
0000
0101
0000
0001
1000
0001
0000
1010
0000
0110
0000
0010
1000
0100
0000
,
1001
0000
0011
0000
1000
0100
1000
0000
0001
0000
0011
0000
0010
0100
0001
0000
,
1100
0001
0010
0100
1000
0010
0100
0001
0010
0001
1000
0010
1000
0001
1000
0100
,
1010
0000
0011
0000
1000
0010
1000
0000
0001
0000
1100
0000
0001
0010
0100
0000
,
1010
0000
0011
0000
0100
0010
1000
0000
0100
0000
0101
0000
1000
0100
0010
0000
,
1010
0000
0101
0000
0100
0010
0001
0000
1000
0000
0110
0000
1000
0001
0100
0000
,
0101
0010
1000
0010
0100
0001
0010
0100
1000
0100
0010
0100
1000
0001
0100
0010
,
1001
0010
0001
1000
0010
0100
0010
1000
0001
0010
0100
1000
0100
1000
0010
0100
,
0001
1000
0001
0100
0001
1000
0100
0010
0100
1000
0010
0100
0001
0010
0100
0010
,
0001
1000
0100
1000
0001
0100
0010
1000
0001
0100
0010
1000
0100
0010
0001
0010
,
1100
0010
0001
0010
0001
0010
1100
0001
0010
0001
0010
0001
1100
0001
0100
0010
,
1001
0010
1000
0100
1000
0001
0010
0100
0010
0001
0100
0010
0100
0001
0010
0001
,
1000
0100
1000
0100
0010
0100
1000
0001
0100
0010
1000
0010
0100
0001
0010
0100
,
0010
0001
0100
0001
0100
0010
1000
0100
0001
0100
1000
0010
0100
0001
0010
0100
,
1001
0010
0100
0010
0100
0010
1001
0100
0010
0100
0010
0100
1001
0010
0100
1000
,
0011
0000
0000
0100
0110
0000
0010
0000
,
1000
0000
0000
0100
0011
0000
1000
0000
,
0001
0000
0000
1000
0001
1000
0011
0000
0000
0100
0000
0000
,
0100
0000
0000
1010
0000
0000
0010
0000
0001
0000
0100
0000
1001
0000
0000
0000
0000
0000
0001
0000
1000
0000
0100
0000
,
0010
0000
0001
0001
1100
0000
0001
0000
,
0001
0000
1000
0100
1001
0000
0001
0000
,
1010
0000
0001
0010
0110
0000
0010
0000
,
0101
0000
0000
0000
0000
0000
0010
0000
0001
0000
1000
0000
0110
0000
0000
0010
0000
0000
0000
0000
0000
0001
0000
0000
,
0110
0001
0100
1000
1100
0100
0001
0100
,
0010
0100
1000
0010
0011
0100
1000
0010
,
1000
0001
0100
1000
0110
0010
0001
1000
,
0001
0010
1000
0001
0110
1000
0001
1000
,
0010
1000
0100
0001
0011
0100
1000
0001
,
0100
1000
0001
1000
1100
0010
0001
1000
,
0001
0010
0001
0100
0110
0010
0001
0100
,
0001
1000
0010
0100
0000
0000
0000
0001
1000
0010
0100
0001
0010
0100
0010
0000
,
0011
0000
0101
0000
0100
1000
0010
0000
0110
0000
1100
0000
1000
0010
0100
0000
,
0101
0000
1010
0000
0100
0001
0100
0000
0011
0000
0110
0000
0010
0100
1000
0000
,
1001
0000
1010
0000
1000
0001
0100
0000
0011
0000
1100
0000
0010
0001
1000
0000
,
1001
0000
1010
0000
0100
1000
0001
0000
1001
0000
0101
0000
0010
1000
0010
0000
,
1100
0000
1010
0000
0100
0001
0100
0000
0011
0000
1010
0000
0100
0001
0100
0000
,
1010
0000
0101
0000
1000
0100
0010
0000
1100
0000
0011
0000
0001
0100
0001
0000
,
0101
0000
0110
0000
0010
0001
1000
0000
1001
0000
0110
0000
0100
0010
1000
0000
,
0101
0000
0011
0000
0010
0100
0001
0000
0110
0000
0101
0000
1000
0100
1000
0000
,
0101
0000
0011
0000
0001
0100
0010
0000
1001
0000
0110
0000
0010
0100
1000
0000
,
0101
0000
1100
0000
1000
0001
0010
0000
0101
0000
1010
0000
0010
1000
0001
0000
,
0110
0000
1001
0000
0001
0100
0001
0000
1100
0000
0110
0000
0001
0100
0001
0000
,
1010
0000
0110
0000
0100
0001
1000
0000
1001
0000
0101
0000
0001
0010
0001
0000
,
1010
0000
0110
0000
1000
0010
1000
0000
1001
0000
0011
0000
0010
0001
1000
0000
,
1001
0000
0101
0000
0010
0100
0010
0000
1010
0000
0101
0000
0010
1000
0100
0000
,
1010
0000
1001
0000
0010
0100
0001
0000
1100
0000
1010
0000
0100
0010
0001
0000
,
0101
1000
0010
0100
0001
0010
0100
0010
0001
1000
0100
0010
0001
0100
0010
0100
,
1001
0100
0010
0001
0100
0010
1000
0001
0010
1000
0010
0001
1000
0010
0001
0010
,
1000
0010
0100
0001
1000
0100
1000
0001
0100
0010
0100
0010
1000
0001
0010
0100
,
1000
0100
1000
0010
0100
0001
1000
0100
0001
0100
0010
0001
0100
0010
1000
0001
,
0010
0100
1000
0010
1000
0001
0010
0100
0010
0001
0100
0010
1000
0100
1000
0100
,
0010
0001
0010
0001
1000
0010
0100
0001
0010
0100
1000
0001
0100
0010
0100
0001
,
1000
0010
0001
0010
0100
0001
0010
0100
1000
0001
0100
0001
1000
0010
0100
0001
,
0010
0001
1000
0100
0010
0001
1000
0010
0100
0001
1000
0100
1000
0001
0010
0001
,
0100
0010
0100
0010
0100
0010
0100
0010
1000
0000
0010
0000
0100
0000
0001
0000
,
1010
0001
0100
1001
0000
0010
0100
0011
,
0000
1000
0001
1100
0000
0010
0100
0010
,
0011
1000
0010
0110
0000
0001
1000
0101
,
0000
0010
0100
1010
0000
0000
0011
0000
,
1001
0100
1000
0101
0000
0010
1000
0011
,
0000
0100
0010
1001
0000
0010
0100
0001
,
0101
0010
1000
1100
0000
0010
0100
1001
,
0000
0000
0010
0000
,
0120
0100
0100
0100
,
0100
0100
0100
0100
,
0100
0100
0100
0100
,
0100
0100
0100
0130
,
1100
0000
1001
1010
0101
0000
1001
0110
,
1100
0000
1001
1010
1100
0000
0011
0000
,
0101
0000
1010
1100
0110
0000
1100
0011
,
1001
0000
1010
1001
0101
0000
1001
0000
,
0011
0000
0101
1001
1100
0000
0101
1010
,
0011
0000
0110
0011
1100
0000
0101
0000
,
1001
0000
1100
1001
1100
0000
1100
0101
,
1001
0000
0110
1010
1100
0000
0011
0000
,
0101
0000
0110
0101
1100
0000
1010
0110
,
1001
0000
0011
0101
1010
0000
1001
0000
,
1100
0000
1001
0101
0110
0000
1001
1100
,
0110
0000
0011
0101
1100
0000
1010
0000
,
1001
0010
1010
0010
1001
0001
0011
0001
,
0011
0001
0011
0100
1100
0100
0101
0001
,
0011
1000
0011
0100
1001
1000
1010
0001
,
1010
1000
1100
0010
1001
0100
1010
1000
,
0011
0010
1001
1000
1100
0100
0110
0001
,
0011
1000
0110
0100
1001
1000
0110
0100
,
1001
0001
0110
0100
1001
0001
1010
0100
,
0011
1010
0110
1001
0101
1010
0110
0011
,
1001
0000
0100
0000
0010
0000
0101
0000
0000
0000
0000
0000
1010
0000
0001
0000
0010
0000
0101
0000
0000
0101
0000
0000
,
1001
0000
0100
0000
1000
0000
0011
0000
0000
0000
0000
0000
0101
0000
0010
0000
1000
0000
0110
0000
0000
0110
0000
0000
,
1010
0000
0001
0000
1000
0000
0011
0000
0000
0000
0000
0000
0011
0000
1000
0000
0100
0000
1010
0000
0000
1010
0000
0000
,
0101
0000
0010
0000
0100
0000
1001
0000
0000
0000
0000
0000
1010
0000
0100
0000
0001
0000
0110
0000
0000
0110
0000
0000
,
1001
0010
0100
0010
0001
0100
0010
1000
0001
1000
0100
0010
0001
0100
1000
0100
,
0001
0010
0100
1000
0010
0100
0001
1000
0100
1000
0100
0010
0001
0100
0010
1000
,
0100
0010
0100
1000
0001
0100
0010
1000
0001
0010
0001
1000
0010
1000
0100
0010
,
0001
1000
0001
1000
0001
1000
0000
0000
0100
0000
0000
0000
0010
0000
0000
0000
,
1001
0010
0100
0011
0000
0100
1000
0110
,
0000
1000
0001
1100
0000
0001
0100
0010
,
1001
0100
0010
1100
0000
0010
0001
0110
,
0000
0001
1000
0011
0000
1000
1001
1000
,
0011
0100
0001
1010
0000
0100
1000
0101
,
0000
0010
0001
1100
0000
0010
0100
0010
,
1001
0010
0100
1010
0000
0001
1000
0001
,
1001
0010
0100
1010
0000
0001
1000
0001
,
0011
0100
1000
1001
0000
0001
0100
0011
,
0000
1000
0001
1001
0000
0001
0100
0010
,
1100
0001
0010
0101
0000
0010
0001
1100
,
0000
0001
0010
0101
0000
0010
0001
0100
,
1001
0010
0100
1000
0010
0100
0001
0010
0100
1000
0010
0100
0001
1000
0100
0010
,
1001
0100
0010
0001
0100
0010
1000
0001
0010
0100
1000
0001
0100
0010
1000
0100
,
0010
0000
0010
0010
0010
0000
0001
1000
,
0001
1000
0000
0100
0000
0001
1000
0100
,
0001
0000
0020
1030
0020
0000
0031
0000
,
0100
0000
0010
0000
0000
0000
0002
0000
0000
0000
0000
0000
0000
0003
0000
0000
,
1000
0000
1000
1000
1000
0000
1000
1000
,
0010
1000
0000
0100
0000
0010
0000
0001
,
1000
0001
0010
0100
1000
0100
0010
0001
,
1000
0100
0010
0001
0010
0100
1000
0100
0020
0000
0000
0000
0000
0000
0000
0030
,
0100
0000
0100
0000
0010
0000
0010
1000
0100
0000
0001
0000
0001
0010
0100
0000
,
1000
0001
0001
1000
0100
0100
0020
0000
,
0031
0000
0001
0000
1000
0000
0001
0100
0001
0100
0010
0000
1000
0000
0100
0000
,
0010
0001
0100
0010
0000
1000
0002
0000
,
0103
0100
0010
0100
0100
0001
0100
0100
,
1000
0000
0001
0000
0100
0000
0001
0000
1000
0000
0010
0000
,
0001
0010
0001
0100
0010
0100
0001
1000
0100
0010
0100
1000
0010
0100
0001
0010
,
0100
1000
0010
0100
0001
1000
0001
0100
0020
0000
0000
0000
0000
0000
0000
0000
,
1030
0001
0100
0001
0010
0001
0100
0001
1000
0001
0010
0001
0100
0001
0010
0001
,
1000
0001
1000
0100
1000
0010
1000
0100
1000
0001
1000
0010
1000
0100
1000
0010
,
0100
0001
0010
0001
1000
0010
0100
0010
0100
0001
0010
0001
1000
0010
0100
0010
,
1000
0100
0010
0100
1000
0001
0010
0100
0010
0001
1000
0100
0010
0100
1000
0001
,
0010
0000
0001
0000
1000
0000
0100
0000
0010
0000
0001
0000
0100
0000
0000
0010
0000
0000
1000
0000
0000
0001
0000
0000
0100
0000
0000
0010
0000
0000
1000
0000
0000
0100
0000
0000
0010
0000
0000
0001
0000
0000
0010
0000
0000
0100
0000
0000
,
1000
0000
0010
0000
1000
0000
0100
0000
0000
0010
0000
0000
0001
0000
0000
0100
0000
0000
0010
0000
0000
1000
0000
0000
0010
0000
0000
0100
0000
0000
0001
0000
1000
0000
0010
0000
1000
0000
0000
0100
0000
0000
0010
0000
0000
0100
0000
0000
,
1000
0000
0000
0001
0000
0000
1000
0000
0000
0010
0000
0000
0100
0000
0001
0000
0100
0000
0010
0000
0000
1000
0000
0000
0100
0000
0000
0010
0000
0000
0001
0000
0000
0100
0000
0000
0010
0000
1000
0000
0001
0000
0010
0000
0000
0100
0000
0000
,
1000
0010
0100
0001
0010
0100
0010
0001
1000
0010
0100
0010
1000
0001
0200
0000
,
0320
0000
0000
0000
0000
0000
0031
0100
,
0020
0000
0000
0230
0000
0000
0300
0000
,
0002
0000
0000
2003
0000
0000
0000
0000
,
0000
0002
0000
3000
0200
0000
0000
0003
,
0320
0000
0000
0000
0000
0000
0031
0100
,
0020
0000
0000
2030
0000
0000
3020
0000
,
0032
0000
0000
0000
0013
0000
0001
0000
0000
0000
0000
0100
1000
0000
0000
0000
,
1000
0010
0001
0010
1000
0001
0010
0100
1000
0010
0100
0001
1000
0100
1000
0001
,
0100
0000
0010
0100
0101
0000
1000
0010
,
0000
0000
0000
0000
,
0020
0000
0000
0000
0000
0000
0000
0000
0000
0000
0000
0000
0000
0000
0031
0000
1000
0000
0100
0000
0000
1000
0000
0000
,
0200
0000
0000
0000
0310
0001
1000
0010
,
0100
0000
0001
0000
1000
0000
0010
1000
0001
0000
1000
0000
0010
0000
0001
0000
,
0010
0000
1000
0001
0100
0000
0001
0000
0100
0000
0010
0000
1000
0000
0010
0000
,
0100
0000
0000
0010
0000
0000
1000
0000
0001
0000
0010
0000
0100
0000
1000
0000
0001
0000
0100
0000
0000
0001
0000
0000
0010
0000
0001
0000
1000
0000
0100
0000
0000
1000
0000
0000
0100
0000
0010
0000
0001
0000
1000
0000
0010
0000
1000
0000
,
0001
0010
0100
1000
0010
0100
0001
0010
0100
1000
0100
0010
0200
0000
0000
0000
0000
0000
0000
0000
0000
0000
0000
0000
,
1300
0001
0010
1000
0001
0010
1000
0001
,
0010
0000
0100
0000
1000
0001
1000
0010
0100
0000
0001
0000
0010
0000
0100
0000
,
1000
0100
0010
1000
0100
0010
1000
0100
,
0010
0000
0000
0001
0000
0000
0010
0000
0000
0020
0000
0000
0000
0000
0000
0000
,
1030
0000
0000
0100
0000
0000
1000
0000
0000
0001
0000
0000
0010
0000
0000
0001
0000
0000
0010
0000
0001
0000
0010
0000
0100
0000
0000
0000
0000
0000
1000
0000
0010
0000
1000
0000
0010
0000
0100
0000
0010
0000
0100
0000
0001
0000
0010
0100
,
1000
0000
0010
0000
0100
0000
0001
0000
0010
0000
0100
0000
0010
0000
0001
0000
1000
0000
0100
0000
0010
0000
0100
0000
1000
0000
0010
0000
0100
0000
0001
0000
0000
0100
0000
0000
0020
0000
0000
0000
0000
0000
0000
0000
0000
0000
0000
0000
,
1030
0000
0000
0001
0000
0000
0100
0000
0000
0001
0000
0000
0010
0000
0000
0001
0000
0000
1000
0000
0010
0000
0100
0000
0001
0000
0000
0010
0000
0000
0001
0000
0010
0000
0100
0000
1000
0000
0000
0010
0000
0000
0100
0000
0000
0001
0000
0000
,
0010
0000
0100
0000
1000
0000
0001
0000
0000
0100
0000
0000
0001
0000
0000
0100
0000
0000
0010
0000
0000
1000
0000
0000
0010
0000
0000
1000
0000
0000
0001
0000
0000
0010
0000
0000
0100
0000
0000
0000
1000
0000
0000
0000
0010
0000
0000
0000
,
2002
0000
0000
0000
0000
0000
0203
0320
,
3032
0000
0000
2003
0000
0000
3020
0000
,
0032
0000
0000
0000
0000
0000
2003
0000
0000
3000
0000
0000
0020
0000
0000
0000
,
0230
0000
0000
0000
0000
0000
0301
0010
,
1000
0000
0010
1000
0000
0100
0001
0100
,
0000
0000
1000
0000
0100
1000
0001
0100
0010
1000
0100
0010
0100
1000
0010
0100
,
0001
1000
0001
0100
0010
1000
0001
0010
0001
0100
0010
1000
0100
0010
0001
0010
0100
1000
0020
0000
0000
0000
0000
0000
,
1030
0010
0100
0001
0100
0010
1000
0100
,
0020
0031
0100
0010
1000
0001
0010
0100
,
1001
0000
0000
0101
0000
0101
1010
0101
,
0010
0010
2002
0000
3003
1100
0022
0033
,
1000
0010
0100
0001
0010
0100
1000
0001
0100
0001
1000
0100
0010
0100
1000
0010
,
0100
0000
0000
0001
0000
0000
1000
0000
0000
0010
0000
0000
0100
0000
0000
0001
0000
0000
1000
0000
0000
0100
0000
0000
0010
0000
0001
0000
0010
0000
0100
0000
1000
0000
0100
0000
0010
0000
0001
0000
0010
0000
0100
0000
1000
0000
0100
0000
,
0010
0000
0000
0001
0000
0000
0100
0000
0000
0010
0000
0000
1000
0000
0000
0100
0000
0000
1000
0000
0000
0001
0000
0000
0010
0000
0001
0000
0010
0000
0100
0000
1000
0000
0100
0000
0010
0000
0001
0000
0010
0000
0100
0000
1000
0000
0100
0000
,
0010
0001
0100
0010
1000
0001
0010
0100
0010
0001
0100
0010
1000
0100
0010
0001
,
0100
0001
1000
0100
0010
0001
1000
0010
0100
0001
0010
0100
0010
0001
1000
0010
,
2002
0000
0000
0000
,
0000
0000
0000
3003
,
0110
0000
0000
0000
,
1001
0000
0110
0000
0010
0001
1000
0000
0011
0000
0101
0000
1000
0001
0010
0000
,
0110
0000
1100
0000
0010
0001
0100
0000
1001
0000
1010
0000
0100
0001
0100
0000
,
1010
0000
0101
0000
0010
1000
0100
0000
1010
0000
0101
0000
1000
0100
1000
0000
,
1010
0000
1001
0000
0100
0001
1000
0000
0011
0000
1010
0000
0100
0010
0100
0000
,
0011
0000
1010
0000
0100
1000
0010
0000
1100
0000
0110
0000
1000
0001
0100
0000
,
1100
0000
0011
0000
0100
1000
0010
0000
1100
0000
0110
0000
0100
0001
0010
0000
,
0110
0000
1010
0000
0001
0010
0001
0000
1001
0000
1100
0000
0100
0001
1000
0000
,
0101
0000
1010
0000
0100
0001
0100
0000
0011
1000
0010
0100
0001
1000
0100
0010
,
1001
0000
0011
0000
0001
0010
0001
0000
1100
0000
1010
0000
1000
0001
0010
0000
,
0101
0000
0110
0000
0001
1000
0001
0000
1100
0000
0011
0000
0100
0010
1000
0000
,
1001
0000
0101
0000
0100
0001
0010
0000
0101
0000
0011
0000
0100
0001
1000
0000
,
0110
0000
0001
1000
0001
0000
0110
0000
1000
0100
0010
0000
0011
1000
0100
0010
,
1001
0000
1010
0000
1000
0001
1000
0000
0011
0000
0110
0000
1000
0001
0010
0000
,
1001
0000
1100
0000
0100
0010
0001
0000
0011
0000
0101
0000
0010
1000
0001
0000
,
1010
0000
1001
0000
0010
1000
0010
0000
1100
0000
0011
0000
0010
1000
0100
0000
,
0101
0000
1100
0000
0010
0001
0010
0000
1010
0000
1001
0000
0010
1000
0001
0000
,
0011
0000
1010
0000
0010
0100
0001
0000
0101
0000
1010
0000
0100
0010
0001
0000
,
1010
0000
0110
0000
1000
0010
1000
0000
0011
0000
1100
0000
0010
1000
0010
0000
,
1001
0010
0100
1000
0100
0010
1001
0100
0010
0001
0010
0100
1001
0010
0100
1000
,
0011
0100
1000
0100
0010
0001
0010
0100
1000
0010
0100
0001
1000
0100
0010
0001
,
0100
0000
0000
0100
0011
0000
0000
1000
,
1000
0000
0000
0001
1010
0000
0100
0000
,
0100
0000
1001
0000
,
0101
0000
0000
0001
1001
0000
0000
0000
,
0110
0000
0011
0100
,
0100
0000
0000
1000
1010
0000
0001
0000
,
0001
0000
1001
1000
,
1100
1000
0010
0110
0100
0001
0011
0000
,
1001
0000
0010
0100
1010
0000
0000
0000
,
0011
0000
0000
0000
0000
0000
1000
0000
0001
0000
0100
0000
0011
0000
0000
0000
0000
0000
0100
0000
0000
0100
0000
0000
,
1010
0000
0001
1000
1001
0000
0100
0000
,
0010
0000
0000
0000
0000
0000
0001
0000
0000
1000
0000
0000
1100
0000
1100
0000
0001
0000
0100
0000
0010
0000
1000
0000
,
0100
0000
0000
0000
0010
0100
0010
0100
1001
0000
0000
0000
0100
0000
0000
0000
,
0010
0000
0001
0100
1010
0000
1001
0000
,
1001
0000
0000
0000
0010
0100
0010
0100
1001
0000
0000
0000
1001
0000
0000
0000
,
1000
0000
0000
0010
0000
0000
0100
0000
0000
0001
0000
0000
1010
0000
0000
0000
0000
0000
0100
0000
0000
0000
0000
0000
0100
0000
0000
0000
0000
0000
0000
0000
0100
0000
0000
0000
0010
0000
0000
0000
0100
0000
0000
0000
0000
0000
0000
0000
,
1001
1000
0011
0100
,
0001
0000
0001
0100
1010
0110
0101
0000
,
1100
0000
0000
0000
0010
0001
0100
0010
1001
0000
1000
0000
0000
0000
0010
0000
,
0100
0011
0000
0011
0000
0011
1001
0010
,
1000
0000
0000
0000
0000
0000
0010
0000
0000
0001
0010
0100
1001
0000
0000
0000
0000
0000
0000
0000
0000
0000
0000
0000
,
0001
0100
0110
0100
,
0011
0000
0000
0000
0100
1000
0010
0100
1001
0000
0001
0000
1001
0000
0001
0000
,
0100
0000
0010
1000
0010
0100
0001
0010
1000
0100
0000
0000
,
1001
0000
0000
0100
1100
0000
0010
0100
,
0011
0000
0000
0000
0000
0000
1000
0001
0110
0000
0001
0000
1000
0000
0010
0000
,
0100
0100
1001
0100
,
1001
1010
0000
1010
0000
1010
1001
0000
,
0011
0000
1010
0000
,
1001
0000
0101
0000
,
1001
0000
0000
0101
,
0101
0010
1000
0001
0010
0000
0000
0000
1000
0001
0100
0010
0100
0000
0000
0000
,
0011
1100
1010
0101
0011
1100
1010
0101
,
0011
1100
1010
0101
1001
0011
0101
1010
,
1001
0101
0110
1010
1001
0101
0110
1010
,
1001
0000
0000
0101
0000
0000
0110
0000
0000
1010
0000
0000
1001
0000
0001
0000
0100
0000
0010
0000
1000
0000
0001
0000
,
1100
0110
0011
0110
1100
0110
0011
0110
,
1100
0110
0011
0110
1010
0011
0101
1001
,
1001
0100
0011
1100
,
1010
0011
0110
1100
,
2002
0000
0000
0000
,
0000
3003
0000
0000
;

//---------------dance-single - Standard----------------
#NOTES:
     dance-single:
     Standard:
     Medium:
     12:
     1.000,1.000,1.000,0.224,0.887,3020.000,586.000,101.000,0.000,4.000:





0020
0000
0000
0032
,
2003
0000
3002
0023
,
0230
0000
0000
2300
,
3002
0000
2003
3200
,
0320
0000
0000
0230
,
2300
3002
0203
0320
,
2030
3200
0320
0230
,
0000
0320
0032
0000
,
0023
0000
0000
0032
,
2003
3200
0320
0032
,
0203
0000
0000
0000
0000
0000
0000
0000
0000
0000
0000
0000
0320
0000
0000
0030
,
0020
0000
2030
3002
,
0023
0000
0000
0032
,
2003
3002
0203
0320
,
2030
3020
0230
0302
,
0000
0203
0320
0000
,
1031
0000
0011
0000
0100
1000
0010
0000
0100
0000
1010
0000
0001
1000
0100
0000
,
0001
0000
0110
0000
1000
0001
1000
0000
0010
0000
1001
0000
0100
1000
0010
0000
,
0100
0000
1100
0000
0001
0010
0001
0000
0100
0000
0101
0000
0010
0001
0010
0000
,
1000
0000
1010
0000
0001
1000
0100
0000
0010
0000
0101
0000
0100
0010
0100
0000
,
1001
0000
1100
0000
0010
0100
1000
0000
0001
0000
0011
0000
0100
0010
0001
0000
,
0100
0000
0110
0000
0001
0100
0001
0000
1000
0000
1001
0000
0010
1000
0010
0000
,
0001
0000
0110
0000
0010
0001
1000
0000
0100
0000
1010
0000
0100
0010
0001
0000
,
1000
0010
0100
0001
0010
0100
0010
0001
1000
0020
0000
0000
0100
0000
0100
0030
,
1001
0000
0110
0000
0001
0010
0001
0000
0100
0000
1010
0000
0010
1000
0100
0000
,
0010
0000
1001
0000
1000
0010
1000
0000
0001
0000
1100
0000
0010
1000
0001
0000
,
1000
0000
1010
0000
0010
0001
0010
0000
0001
0000
1010
0000
0100
1000
0010
0000
,
0101
0000
0011
0000
1000
0000
0110
0000
1010
0000
0001
0000
0100
1000
0010
0000
,
1001
0000
0110
0000
1000
0001
0010
0000
1000
0000
0101
0000
0100
1000
0010
0000
,
0001
0000
1100
0000
0001
1000
0001
0000
0100
0000
1001
0000
0100
1000
0010
0000
,
0001
0000
1100
0000
1000
0100
1000
0000
0100
0000
0011
0000
0100
1000
0001
0000
,
0100
0000
1100
0000
0001
0010
0100
0000
1000
0000
0110
0000
0001
0100
0001
0000
,
1001
0000
0100
1000
0010
0100
0001
1000
0001
0100
0001
0010
0100
1000
0010
1000
,
0100
0010
0100
0010
0001
1000
0010
0100
0010
1000
0001
0100
0001
0010
0100
1000
,
0010
0100
0001
1000
0100
1000
0010
0100
0010
1000
0001
0010
0100
0010
0001
1000
,
0100
0010
0100
1000
0010
0100
0001
1000
0010
1000
0001
0010
0001
0100
0010
1000
,
0100
0010
0001
0100
0010
1000
0100
0010
0001
0100
0010
0100
0010
1000
0010
0100
,
0001
1000
0100
0010
0100
1000
0010
0100
0001
0010
0001
0100
0010
1000
0010
0000
,
0202
0000
0000
0000
0000
0000
0000
0303
,
0010
0100
0001
1000
0100
0010
0100
1000
0010
0100
0001
1000
0010
0100
0001
0000
,
1001
0000
0101
0000
0100
1000
0001
0000
1000
0000
1001
0000
0010
0001
1000
0000
,
0010
0000
0101
0000
0100
1000
0100
0000
0001
0000
1001
0000
0100
0001
0100
0000
,
1010
0000
0110
0000
0100
1000
0001
0000
0001
0000
0110
0000
0001
1000
0010
0000
,
0001
0000
1010
0000
0001
1000
0010
0000
0100
0000
1001
0000
0010
0001
0100
0000
,
1001
0000
0110
0000
0001
1000
0001
0000
0100
0000
1001
0000
1000
0001
0100
0000
,
0010
0000
0011
0000
1000
0010
0100
0000
1000
0000
0101
0000
0010
1000
0010
0000
,
0101
0000
0110
0000
1000
0001
0100
0000
0010
0000
1001
0000
0100
1000
0001
0000
,
1001
0000
0000
0001
1000
0100
1000
0010
0100
0001
0010
0100
1000
0100
0010
0000
,
1001
0000
1010
0000
0010
1000
0100
0000
1001
0000
0110
0000
0001
0100
0001
0000
,
1001
0000
0011
0000
0010
1000
0001
0000
0100
0000
1001
0000
0001
0100
0001
0000
,
1010
0000
0101
0000
0010
0001
1000
0000
0010
0000
1100
0000
1000
0001
0010
0000
,
1010
0000
0100
0000
1001
0000
0010
0100
0001
1000
0100
0010
0100
1000
0001
0000
,
0011
0000
0110
0000
1000
0010
1000
0000
0010
0000
0101
0000
1000
0010
0100
0000
,
0011
0000
0110
0000
0010
1000
0010
0000
0100
0000
1010
0000
0100
0001
1000
0000
,
1001
0000
1100
0000
1000
0001
0010
0000
0100
0000
1010
0000
0001
0010
0001
0000
,
1000
0010
0100
0010
1000
0100
1000
0100
0010
0001
0010
0001
1000
0010
0100
0001
,
1000
0001
0100
0001
1000
0100
1000
0010
0100
0001
1000
0010
0100
0010
1000
0001
,
0010
0100
0010
0001
0100
0001
1000
0100
1000
0010
0100
0001
0010
0100
1000
0010
,
0100
0001
0010
0001
1000
0100
0010
0100
1000
0010
0100
0001
0010
0100
1000
0010
,
1000
0100
0010
0100
0010
0100
1000
0010
0100
0010
0100
0010
1000
0100
0010
0100
,
1000
0010
0100
0001
0010
0100
1000
0010
0100
0010
1000
0100
0010
0001
1000
0100
,
1000
0001
0100
0010
0100
0001
0100
0010
1000
0100
0010
0001
1000
0100
1000
0100
,
0010
0001
1000
0010
0100
0001
0010
0001
0100
0010
1000
0100
0010
0001
0100
0001
,
0010
0100
1000
0100
1000
0100
0010
0001
0100
0001
0100
0001
0010
0100
1000
0010
,
0100
0000
0000
0010
0011
0000
0100
0000
,
0001
0000
0000
1000
1010
0000
0001
0000
,
1000
0000
0000
0001
0100
0001
1010
0000
0000
0100
0000
0000
,
0001
0000
0000
1001
0000
0000
0100
0000
0010
0000
1000
0000
0101
0000
0000
0000
0000
0000
0100
0000
0000
0000
0000
0000
,
1000
0000
0010
0001
0101
0000
0001
0000
,
1000
0000
0100
1000
1001
0000
0100
0000
,
0011
0000
1000
0010
0110
0000
0001
0000
,
1100
0000
0000
0000
0000
0000
0100
0000
0010
0000
0100
0000
1001
0000
0000
0100
0000
0000
0000
0000
0000
0100
0000
0000
,
0011
1000
0100
0010
0101
0010
0001
1000
,
0010
0001
0010
0100
1001
0010
0001
0100
,
0010
0100
0001
1000
1010
0001
0100
0010
,
0001
0010
0100
1000
0011
0001
0010
0100
,
0001
0100
0010
0100
0101
0001
0010
0100
,
1000
0010
0100
0001
1100
1000
0010
0001
,
0100
1000
0001
1000
1010
0001
0100
0010
,
1000
0001
0100
0010
0000
0000
0000
1000
0001
0100
0010
1000
0001
0010
0100
0000
,
1001
0000
0011
0000
0001
1000
0100
0000
1001
0000
0110
0000
1000
0010
1000
0000
,
0101
0000
1100
0000
1000
0010
0100
0000
1100
0000
0101
0000
0010
0100
0010
0000
,
1010
0000
0101
0000
0001
1000
0010
0000
0110
0000
1010
0000
0100
0001
0100
0000
,
1010
0000
1100
0000
0010
0001
0010
0000
0101
0000
1001
0000
1000
0010
1000
0000
,
0101
0000
0110
0000
0001
0100
0001
0000
1100
0000
1010
0000
0100
1000
0001
0000
,
1010
0000
0011
0000
1000
0001
0100
0000
1010
0000
1001
0000
0100
0001
0010
0000
,
1100
0000
1010
0000
0001
1000
0001
0000
0011
0000
0110
0000
0010
0001
1000
0000
,
1001
0000
0101
0000
1000
0010
0100
0000
1001
0000
0101
0000
0010
1000
0100
0000
,
0011
0000
1010
0000
1000
0001
0010
0000
1010
0000
0011
0000
0100
0010
0100
0000
,
1010
0000
1100
0000
0001
0100
0010
0000
1001
0000
0011
0000
0010
0001
1000
0000
,
1010
0000
0101
0000
0100
0010
0001
0000
0101
0000
1001
0000
0010
1000
0001
0000
,
0110
0000
1001
0000
0001
1000
0001
0000
0110
0000
1010
0000
0100
1000
0010
0000
,
1010
0000
0110
0000
0100
0001
0100
0000
1001
0000
0011
0000
0010
1000
0010
0000
,
0110
0000
1100
0000
0001
0100
0010
0000
0101
0000
0110
0000
1000
0010
0100
0000
,
1010
0000
0110
0000
1000
0100
0010
0000
1001
0000
1100
0000
0010
0001
1000
0000
,
1001
0000
0010
0100
0001
0000
1010
0000
0100
0001
1000
0000
1100
0000
0010
0000
,
1001
0011
0101
1010
1100
1010
1001
0011
,
0101
1010
0110
0101
0110
1100
1010
0011
,
1001
0000
0000
0000
,
0000
0000
0000
0000
,
0022
0000
0000
0000
,
0000
0000
0000
0000
0000
0000
0000
0033
0010
0100
0010
0100
0001
1000
0010
0000
,
1001
0000
0000
0000
,
0000
0000
0000
0000
,
2200
0000
0000
0000
0000
0000
0000
0000
0000
0000
0000
0000
0000
0000
0000
3300
,
0001
0010
0100
0010
0001
0010
0100
1000
0010
0000
0000
0000
0000
0000
0000
0000
,
1001
0000
0011
0000
0001
0100
0010
0000
1000
0000
1001
0000
0100
0010
0100
0000
,
1000
0000
0101
0000
0010
1000
0100
0000
0001
0000
1010
0000
0100
0001
1000
0000
,
0011
0000
1010
0000
0010
0100
0001
0000
0010
0000
1001
0000
0001
1000
0100
0000
,
0010
0000
0011
0000
1000
0001
0100
0000
1000
0000
0011
0000
0001
1000
0100
0000
,
1001
0000
0011
0000
1000
0001
1000
0000
0010
0000
0101
0000
0001
0100
0010
0000
,
0100
0000
1010
0000
0010
1000
0010
0000
0001
0000
0011
0000
0001
1000
0100
0000
,
0110
0000
1100
0000
0010
0100
0001
0000
0001
0000
0110
0000
0001
0100
0010
0000
,
1001
0000
0000
0010
1000
0010
0100
0010
1000
0001
0010
0100
1000
0100
0010
0000
,
1010
0000
1100
0000
0100
1000
0001
0000
0110
0000
0011
0000
0100
0010
1000
0000
,
1001
0000
0101
0000
0001
1000
0001
0000
1000
0000
0110
0000
0010
1000
0100
0000
,
1001
0000
0011
0000
1000
0100
1000
0000
0001
0000
0011
0000
0010
0100
0001
0000
,
1100
0000
0010
0100
1000
0010
0100
0001
0010
0001
1000
0010
1000
0001
1000
0000
,
1010
0000
0011
0000
1000
0010
1000
0000
0001
0000
1100
0000
0001
0010
0100
0000
,
1010
0000
0011
0000
0100
0010
1000
0000
0100
0000
0101
0000
1000
0100
0010
0000
,
1010
0000
0101
0000
0100
0010
0001
0000
1000
0000
0110
0000
1000
0001
0100
0000
,
0100
0010
0001
0010
0100
1000
0010
0100
0001
0100
0010
0100
0001
1000
0100
0010
,
0001
0010
0001
1000
0010
0100
0010
1000
0001
0010
0100
1000
0100
1000
0010
0100
,
0001
1000
0001
0100
0001
1000
0100
0010
0100
1000
0010
0100
0001
0010
0100
0010
,
0001
1000
0100
1000
0001
0100
0010
1000
0001
0100
0010
1000
0100
0010
0001
0010
,
0100
0010
0001
0010
0001
0010
0100
1000
0010
1000
0010
1000
0100
0010
0001
0100
,
0001
0010
0001
0100
0001
1000
0010
0100
0010
1000
0100
0010
0100
1000
0010
1000
,
0001
0100
0001
0100
0010
0100
0001
1000
0100
0010
0001
0010
0100
1000
0010
0100
,
0010
1000
0100
1000
0100
0010
0001
0100
0010
0100
0001
0010
0100
1000
0010
0100
,
0001
0010
0100
0010
0100
0010
0001
0100
0010
0100
0010
0100
0001
0010
0100
1000
,
0010
0000
0000
0100
0110
0000
0010
0000
,
1000
0000
0000
0100
0011
0000
1000
0000
,
0001
0000
0000
1000
0001
1000
0011
0000
0000
0100
0000
0000
,
0100
0000
0000
1010
0000
0000
0010
0000
0001
0000
0100
0000
1001
0000
0000
0000
0000
0000
0001
0000
1000
0000
0100
0000
,
0010
0000
0001
0001
1100
0000
0001
0000
,
0001
0000
1000
0100
1001
0000
0001
0000
,
1010
0000
0001
0010
0110
0000
0010
0000
,
0101
0000
0000
0000
0000
0000
0010
0000
0001
0000
1000
0000
0110
0000
0000
0010
0000
0000
0000
0000
0000
0001
0000
0000
,
0110
0001
0100
1000
1100
0100
0001
0100
,
0010
0100
1000
0010
0011
0100
1000
0010
,
1000
0001
0100
1000
0110
0010
0001
1000
,
0001
0010
1000
0001
0110
1000
0001
1000
,
0010
1000
0100
0001
0011
0100
1000
0001
,
0100
1000
0001
1000
1100
0010
0001
1000
,
0001
0010
0001
0100
0110
0010
0001
0100
,
0001
1000
0010
0100
0000
0000
0000
0001
1000
0010
0100
0001
0010
0100
0010
0000
,
0011
0000
0101
0000
0100
1000
0010
0000
0110
0000
1100
0000
1000
0010
0100
0000
,
0101
0000
1010
0000
0100
0001
0100
0000
0011
0000
0110
0000
0010
0100
1000
0000
,
1001
0000
1010
0000
1000
0001
0100
0000
0011
0000
1100
0000
0010
0001
1000
0000
,
1001
0000
1010
0000
0100
1000
0001
0000
1001
0000
0101
0000
0010
1000
0010
0000
,
1100
0000
1010
0000
0100
0001
0100
0000
0011
0000
1010
0000
0100
0001
0100
0000
,
1010
0000
0101
0000
1000
0100
0010
0000
1100
0000
0011
0000
0001
0100
0001
0000
,
0101
0000
0110
0000
0010
0001
1000
0000
1001
0000
0110
0000
0100
0010
1000
0000
,
0101
0000
0011
0000
0010
0100
0001
0000
0110
0000
0101
0000
1000
0100
1000
0000
,
0101
0000
0011
0000
0001
0100
0010
0000
1001
0000
0110
0000
0010
0100
1000
0000
,
0101
0000
1100
0000
1000
0001
0010
0000
0101
0000
1010
0000
0010
1000
0001
0000
,
0110
0000
1001
0000
0001
0100
0001
0000
1100
0000
0110
0000
0001
0100
0001
0000
,
1010
0000
0110
0000
0100
0001
1000
0000
1001
0000
0101
0000
0001
0010
0001
0000
,
1010
0000
0110
0000
1000
0010
1000
0000
1001
0000
0011
0000
0010
0001
1000
0000
,
1001
0000
0101
0000
0010
0100
0010
0000
1010
0000
0101
0000
0010
1000
0100
0000
,
1010
0000
1001
0000
0010
0100
0001
0000
1100
0000
1010
0000
0100
0010
0001
0000
,
0101
0000
1000
0010
1000
0000
0011
0000
0001
1000
0100
0000
0011
0000
0100
0000
,
1001
0000
0010
0001
0100
0010
1000
0001
0010
0100
0010
0001
1000
0010
0100
0010
,
1000
0010
0100
0001
1000
0100
1000
0001
0100
0010
0100
0010
1000
0001
0010
0100
,
1000
0100
1000
0010
0100
0001
1000
0100
0010
0100
0010
0001
0100
0010
1000
0001
,
0010
0100
1000
0010
1000
0001
0010
0100
0010
0001
0100
0010
1000
0100
1000
0100
,
0010
0001
0010
0001
1000
0010
0100
0001
0010
0100
1000
0001
0100
0010
0100
0001
,
1000
0010
0100
0010
0100
0001
0010
0100
1000
0001
0100
0001
1000
0010
0100
0001
,
0010
0001
1000
0100
0010
0001
1000
0010
0100
0001
1000
0100
1000
0001
0010
0001
,
0100
0010
0100
0010
0100
0010
0100
0010
1000
0000
0010
0000
0100
0000
0001
0000
,
1010
0001
0100
1001
0000
0010
0100
0011
,
0000
1000
0001
1100
0000
0010
0100
0010
,
0011
1000
0010
0110
0000
0001
1000
0101
,
0000
0010
0100
1010
0000
0000
0011
0000
,
1001
0100
1000
0101
0000
0010
1000
0011
,
0000
0100
0010
1001
0000
0010
0100
0001
,
0101
0010
1000
1100
0000
0010
0100
1001
,
0000
0000
0010
0000
,
1020
0100
1000
0100
,
1000
0100
1000
0100
,
1000
0100
1000
0100
,
1000
0100
1000
0130
,
1100
0000
1001
1010
0101
0000
1001
0110
,
1100
0000
1001
1010
1100
0000
0011
0000
,
0101
0000
1010
1100
0110
0000
1100
0011
,
1001
0000
1010
1001
0101
0000
1001
0000
,
0011
0000
0101
1001
1100
0000
0101
1010
,
0011
0000
0110
0011
1100
0000
0101
0000
,
1001
0000
1100
1001
1100
0000
1100
0101
,
1001
0000
0110
1010
1100
0000
0011
0000
,
0101
0000
0110
0101
1100
0000
1010
0110
,
1001
0000
0011
0101
1010
0000
1001
0000
,
1100
0000
1001
0101
0110
0000
1001
1100
,
0110
0000
0011
0101
1100
0000
1010
0000
,
1001
0010
1010
0010
1001
0001
0011
0001
,
0011
0001
0011
0100
1100
0100
0101
0001
,
0011
1000
0011
0100
1001
1000
1010
0001
,
1010
1000
1100
0010
1001
0100
1010
1000
,
0011
0010
1001
1000
1100
0100
0110
0001
,
0011
1000
0110
0100
1001
1000
0110
0100
,
1001
0001
0110
0100
1001
0001
1010
0100
,
0011
0010
0110
0001
0101
1000
0110
0001
,
1000
0000
0100
0000
0010
0000
0001
0000
0000
0000
0000
0000
0010
0000
0001
0000
0010
0000
0100
0000
0000
0100
0000
0000
,
1000
0000
0100
0000
1000
0000
0010
0000
0000
0000
0000
0000
0100
0000
0010
0000
1000
0000
0100
0000
0000
0010
0000
0000
,
0001
0000
0100
0000
0010
0000
1000
0000
0000
0000
0000
0000
0001
0000
1000
0000
0100
0000
0010
0000
0000
0001
0000
0000
,
0100
0000
0010
0000
0100
0000
0001
0000
0000
0000
0000
0000
0010
0000
0100
0000
0001
0000
0100
0000
0000
0010
0000
0000
,
0001
0010
0100
0010
0001
0100
0010
1000
0001
1000
0100
0010
0001
0100
0010
0100
,
0001
0010
0100
1000
0010
0100
0001
1000
0100
1000
0100
0010
0001
0100
0010
1000
,
0100
0010
0100
1000
0001
0100
0010
1000
0001
0010
0001
1000
0010
1000
0100
0010
,
0001
1000
0001
1000
0100
0000
0000
0000
0010
0000
0000
0000
0100
0000
0000
0000
,
1001
0010
0100
0011
0000
0100
1000
0110
,
0000
1000
0001
1100
0000
0001
0100
0010
,
1001
0100
0010
1100
0000
0010
0001
0110
,
0000
0001
1000
0011
0000
1000
1001
1000
,
0011
0100
0001
1010
0000
0100
1000
0101
,
0000
0010
0001
1100
0000
0010
0100
0010
,
1001
0010
0100
1010
0000
0001
1000
0001
,
1001
0010
0100
1010
0000
0001
1000
0001
,
0011
0100
1000
1001
0000
0001
0100
0011
,
0000
1000
0001
1001
0000
0001
0100
0010
,
1100
0001
0010
0101
0000
0010
0001
1100
,
0000
0001
0010
0101
0000
0010
0001
0100
,
0001
0010
0100
1000
0010
0100
0001
0010
0100
1000
0010
0100
0001
1000
0100
0010
,
0001
0100
0010
1000
0100
0010
0001
1000
0010
0100
0001
1000
0100
0010
0001
0100
,
0010
0000
0010
0010
0010
0000
0001
1000
,
0001
1000
0000
0100
0000
0001
1000
0100
,
0001
0000
0020
1030
0020
0000
0031
0000
,
0100
0000
0010
0000
0000
0000
0002
0000
0000
0000
0000
0000
0000
0003
0000
0000
,
1000
0000
1000
1000
1000
0000
1000
1000
,
0010
1000
0000
0100
0000
0010
0000
0001
,
1000
0001
0010
0100
1000
0100
0010
0001
,
1000
0100
0010
0001
0010
0100
1000
0100
0020
0000
0000
0000
0000
0000
0000
0030
,
0100
0000
0100
0000
0010
0000
0010
1000
0100
0000
0001
0000
0001
0010
0100
0000
,
1000
0001
0001
1000
0100
0100
0020
0000
,
0031
0000
0001
0000
1000
0000
0001
0100
0001
0100
0010
0000
1000
0000
0100
0000
,
0010
0001
0100
0010
0000
1000
0002
0000
,
0103
0100
0010
0100
0100
0001
0100
0100
,
1000
0000
0001
0000
0100
0000
0001
0000
1000
0000
0010
0000
,
0001
0010
0001
0100
0010
0100
0001
1000
0100
0010
0100
1000
0010
0100
0001
0010
,
0100
1000
0010
0100
0001
1000
0001
0100
0020
0000
0000
0000
0000
0000
0000
0000
,
1030
0001
0100
0001
0010
0001
0100
0001
1000
0001
0010
0001
0100
0001
0010
0001
,
1000
0001
1000
0100
1000
0010
1000
0100
1000
0001
1000
0010
1000
0100
1000
0010
,
0100
0001
0010
0001
1000
0010
0100
0010
0100
0001
0010
0001
1000
0010
0100
0010
,
1000
0100
0010
0100
1000
0001
0010
0100
0010
0001
1000
0100
0010
0100
1000
0001
,
0010
0001
0010
0001
0100
0010
1000
0001
0100
0010
1000
0100
0010
0001
0010
0100
,
1000
0010
0100
0001
0010
0100
1000
0001
0010
0100
1000
0001
1000
0001
0010
0100
,
1000
0001
1000
0010
0100
0010
0100
0001
0100
0010
1000
0100
0010
0100
0010
0001
,
0100
0010
0100
0001
0010
0100
0010
0001
1000
0010
0100
0010
1000
0001
0200
0000
,
0320
0000
0000
0000
0000
0000
0031
0100
,
0020
0000
0000
0000
0000
0000
0230
0000
0000
0000
0000
0000
0302
0000
0000
0003
,
0002
0000
0000
2003
0000
0000
0000
0000
,
0000
0002
0000
3000
0200
0000
0000
0003
,
0320
0000
0000
0000
0000
0000
0031
0100
,
0020
0000
0000
2030
0000
0000
3020
0000
,
0032
0000
0000
0000
0013
0000
0001
0000
0000
0000
0000
1000
0100
0000
0000
0000
,
1000
0010
0100
0010
1000
0001
0010
0100
1000
0010
0100
0001
1000
0100
1000
0001
,
0100
0000
0010
0100
0101
0000
1000
0010
,
0020
0000
0000
0000
0000
0000
0000
0000
0000
0000
0000
0000
0000
0000
0000
0030
,
0020
0000
0000
0000
0000
0000
0000
0000
0000
0000
0000
0000
0000
0000
0031
0000
1000
0000
0100
0000
0000
1000
0000
0000
,
0200
0000
0000
0000
0310
0001
1000
0010
,
0100
0000
0001
0000
1000
0000
0010
1000
0001
0000
1000
0000
0010
0000
0001
0000
,
0010
0000
1000
0001
0100
0000
0001
0000
0100
0000
0010
0000
1000
0000
0010
0000
,
0100
0010
1000
0001
0010
0100
0010
0001
0100
0010
1000
0100
0010
0001
0100
0001
,
1000
0001
0010
0100
1000
0001
1000
0010
0200
0000
0000
0000
0000
0000
0000
0000
,
1300
0001
0010
1000
0001
0010
1000
0001
,
0010
0000
0100
0000
1000
0001
1000
0010
0100
0000
0001
0000
0010
0000
0100
0000
,
1000
0100
0010
1000
0100
0010
1000
0100
,
0010
0000
0000
0001
0000
0000
0010
0000
0000
0020
0000
0000
0000
0000
0000
0000
,
1030
0100
1000
0001
0010
0001
0010
0001
0010
0100
1000
0010
0100
0001
0010
0100
,
1000
0001
0010
0100
1000
0010
0100
0001
1000
0100
0010
0001
0020
0000
0000
0000
,
1030
0001
0100
0001
0010
0001
1000
0010
0100
0001
0010
0100
1000
0010
0100
0001
,
0010
0100
1000
0001
0100
0001
0100
0010
1000
0010
1000
0001
0100
0000
0010
0000
,
2002
0000
0000
0000
0000
0000
0203
0320
,
3032
0000
0000
2003
0000
0000
3020
0000
,
0032
0000
0000
0000
0000
0000
2003
0000
0000
3000
0000
0000
0020
0000
0000
0000
,
0230
0000
0000
0000
0000
0000
0301
0010
,
1000
0000
0010
1000
0000
0100
0001
0100
,
0000
0000
1000
0000
0100
1000
0001
0100
0010
1000
0100
0010
0100
1000
0010
0100
,
0001
0010
0001
0010
0100
1000
0100
1000
0001
0100
0001
0100
0020
0000
0000
0000
,
1030
0010
0100
0001
0100
0010
1000
0100
,
0020
0031
0100
0010
1000
0001
0010
0100
,
1001
0000
0000
0101
0000
0101
1010
0101
,
0010
0010
2002
0000
3003
1100
0022
0033
,
1000
0010
0100
0001
0010
0100
1000
0001
0100
0001
1000
0100
0010
0100
1000
0010
,
0100
0001
1000
0010
0100
0001
1000
0100
0010
0001
0010
0001
1000
0010
1000
0010
,
0100
0001
0010
0100
1000
0010
0100
0001
0010
0100
0010
0100
1000
0010
1000
0010
,
0100
0001
0100
0010
1000
0001
0010
0100
0010
0001
0100
0010
1000
0100
0010
0001
,
0100
0001
1000
0100
0010
0001
1000
0010
0100
0001
0010
0100
0010
0001
0100
0000
,
2002
0000
0000
0000
,
0000
0000
0000
0000
0000
0000
0000
0000
0000
0000
0000
0000
0000
0000
0000
3003
,
0110
0000
0000
0000
,
1001
0000
0110
0000
0010
0001
1000
0000
0011
0000
0101
0000
1000
0001
0010
0000
,
0110
0000
1100
0000
0010
0001
0100
0000
1001
0000
1010
0000
0100
0001
0100
0000
,
1010
0000
0101
0000
0010
1000
0100
0000
1010
0000
0101
0000
1000
0100
1000
0000
,
1010
0000
1001
0000
0100
0001
1000
0000
0011
0000
1010
0000
0100
0010
0100
0000
,
0011
0000
1010
0000
0100
1000
0010
0000
1100
0000
0110
0000
1000
0001
0100
0000
,
1100
0000
0011
0000
0100
1000
0010
0000
1100
0000
0110
0000
0100
0001
0010
0000
,
0110
0000
1010
0000
0001
0010
0001
0000
1001
0000
1100
0000
0100
0001
1000
0000
,
0101
0000
1010
0000
0100
0001
0100
0000
0010
1000
0010
0100
0001
1000
0100
0000
,
1001
0000
0011
0000
0001
0010
0001
0000
1100
0000
1010
0000
1000
0001
0010
0000
,
0101
0000
0110
0000
0001
1000
0001
0000
1100
0000
0011
0000
0100
0010
1000
0000
,
1001
0000
0101
0000
0100
0001
0010
0000
0101
0000
0011
0000
0100
0001
1000
0000
,
0110
0000
0001
1000
0001
0000
0110
0000
1000
0100
0010
0000
0010
1000
0100
0000
,
1001
0000
1010
0000
1000
0001
1000
0000
0011
0000
0110
0000
1000
0001
0010
0000
,
1001
0000
1100
0000
0100
0010
0001
0000
0011
0000
0101
0000
0010
1000
0001
0000
,
1010
0000
1001
0000
0010
1000
0010
0000
1100
0000
0011
0000
0010
1000
0100
0000
,
0101
0000
1100
0000
0010
0001
0010
0000
1010
0000
1001
0000
0010
1000
0001
0000
,
0011
0000
1010
0000
0010
0100
0001
0000
0101
0000
1010
0000
0100
0010
0001
0000
,
1010
0000
0110
0000
1000
0010
1000
0000
0011
0000
1100
0000
0010
1000
0010
0000
,
0001
0010
0100
1000
0100
0010
0001
0100
0010
1000
0010
0100
0001
1000
0100
0010
,
0001
1000
0010
0100
0010
1000
0100
0010
0001
0100
0001
1000
0100
1000
0001
0010
,
0100
0000
0000
0100
0011
0000
0000
1000
,
1000
0000
0000
0001
1010
0000
0100
0000
,
0100
0000
1001
0000
,
0101
0000
0000
0001
1001
0000
0000
0000
,
0110
0000
0011
0100
,
0100
0000
0000
1000
1010
0000
0001
0000
,
0001
0000
1001
1000
,
1100
1000
0010
0110
0100
0001
0011
0000
,
1001
0000
0010
0100
1010
0000
0000
0000
,
0011
0000
0000
0000
0000
0000
1000
0000
0001
0000
0100
0000
0010
0000
0000
0000
0000
0000
0100
0000
0000
0100
0000
0000
,
1010
0000
0001
1000
1001
0000
0100
0000
,
0010
0000
0000
0000
0000
0000
0001
0000
0000
1000
0000
0000
0010
0000
0100
0000
0001
0000
0100
0000
0010
0000
1000
0000
,
0100
0000
0000
0000
0010
0100
1000
0010
0100
0000
0000
0000
0100
0000
0000
0000
,
0010
0000
0001
0100
1010
0000
1001
0000
,
1001
0000
0000
0000
0010
0100
0010
0100
0001
0000
0000
0000
1001
0000
0000
0000
,
1000
0010
0100
0001
0010
0000
0100
0000
0100
0000
0000
0000
0010
0000
0000
0000
,
1001
1000
0011
0100
,
0001
0000
0001
0100
1010
0110
0101
0000
,
1100
0000
0000
0000
0010
0001
0100
0010
1000
0000
0100
0000
0000
0000
0010
0000
,
0100
0011
0000
0011
0000
0011
1001
0010
,
1000
0000
0000
0000
0010
0000
0100
0001
0010
0000
0000
0000
0000
0000
0000
0000
,
0001
0100
0110
0100
,
0011
0000
0000
0000
0100
1000
0010
0000
1001
0000
0001
0000
1001
0000
0001
0000
,
0100
0000
0010
1000
0010
0100
0001
0010
0100
1000
0001
0000
,
1001
0000
0000
0100
1100
0000
0010
0100
,
0011
0000
0000
0000
0000
0000
1000
0001
0010
0000
0001
0000
1000
0000
0010
0000
,
0100
0100
1001
0100
,
1001
1010
0000
1010
0000
1010
1001
0000
,
0011
0000
1010
0000
,
1001
0000
0101
0000
,
1001
0000
0000
0100
,
0100
0010
1000
0001
0010
0000
0000
0000
1000
0001
0100
0010
0100
0000
0000
0000
,
0011
0000
0000
0000
1001
0000
0000
0010
,
1000
0000
0000
1000
1001
0000
0100
0000
,
0101
0000
1000
0000
0011
0000
0100
0100
,
0100
0000
0000
0000
0000
0000
0001
0000
0000
0100
0000
0000
0010
0000
1000
0000
0001
0000
0010
0000
0001
0000
1000
0000
,
0100
0000
0010
0000
0101
0000
1000
0001
,
1000
0000
0000
0100
0110
0000
0001
0000
,
1001
0100
0011
1100
,
1010
0011
0110
1100
,
2002
0000
0000
0000
,
0000
3003
0000
0000
;
