#TITLE:AAA;
#SUBTITLE:;
#ARTIST:DJ Amuro vs. DM Ashura;
#TITLETRANSLIT:;
#SUBTITLETRANSLIT:;
#ARTISTTRANSLIT:;
#CREDIT:;
#BANNER:AAA-bn.png;
#BACKGROUND:AAA.png;
#LYRICSPATH:;
#CDTITLE:;
#MUSIC:AAA.mp3;
#OFFSET:-11.920;
#SAMPLESTART:71.954;
#SAMPLELENGTH:12.000;
#SELECTABLE:YES;
#BPMS:0.000=160.000;
#STOPS:;
#BGCHANGES:;
// cache tags:
#FIRSTBEAT:0.250;
#LASTBEAT:486.000;
#SONGFILENAME:Songs/IzzySM Keyboard Mega Pack/AAA/AAA.sm;
#HASMUSIC:1;
#HASBANNER:1;
#MUSICLENGTH:195.061;
// end cache tags

//---------------dance-single - ----------------
#NOTES:
     dance-single:
     :
     Hard:
     12:
     1.000,1.000,0.677,1.000,1.000,1193.000,132.000,201.000,0.000,7.000:
0000
0001
0010
0001
0010
0002
0000
0000
0003
1000
0100
1000
0100
2000
0000
0000
,
3000
0001
0010
0001
0010
0002
0000
0000
0003
1000
0100
1000
0100
2000
0000
0000
,
3000
0010
0100
0010
0100
0020
0000
0030
0000
0001
0010
0100
1000
0020
0000
0030
,
0000
0001
0100
0010
1000
0200
0000
0300
0000
0110
0000
0000
0000
1001
0000
0000
,
0000
0001
0010
0100
1000
0010
0100
0001
0000
0001
0010
0100
1000
0010
0100
0001
,
0000
0001
0010
0001
0010
0001
0010
0001
0000
0001
0010
0100
1000
0110
0000
0000
,
0000
0001
0010
0100
1000
0010
0100
0001
0010
0100
1000
0010
0100
0001
0000
0000
,
0000
0011
0000
0000
0000
1100
0000
0000
0000
0001
0010
0100
1000
0010
0100
0001
,
0010
0220
0000
0000
0000
0000
0000
0000
0000
0000
0000
0000
0000
0330
0000
0000
,
0000
0022
0000
0000
0000
0000
0000
0000
0000
0000
0000
0033
0000
0000
0000
0000
,
0000
0202
0000
0000
0000
0000
0000
0000
0000
0000
0303
0000
0000
0001
0000
0010
,
0000
0200
0000
0000
0000
0000
0000
0000
0000
2000
0300
0000
0000
0000
0000
0000
,
0000
3220
0000
0000
0000
0000
0000
0000
0000
0000
0000
0000
0000
0000
0330
0000
,
0000
0000
0000
0001
0010
0100
1000
0010
0100
0001
0010
0100
1000
0010
0100
0001
,
0100
0010
1000
0100
0010
0100
1000
0100
0010
0001
0010
0100
0010
0100
1000
0001
,
1000
0001
0220
0000
0000
0000
0000
0330
0000
0000
0000
0000
0000
0000
0000
0000
,
0000
0001
0010
0000
0010
0100
1000
0010
0100
0001
0010
0100
1000
0010
0100
0001
,
0100
0010
1000
0100
0010
0001
1000
0001
0010
0100
1000
0010
0100
0001
0010
0000
,
0000
0000
0000
0001
0000
0220
0000
0000
0000
0000
0000
0000
0000
0000
0000
0000
0000
0330
0000
0000
0000
0000
0000
0000
0000
0000
0000
0000
0000
0000
0000
0000
0000
0000
0000
0000
1000
0000
0000
0200
0000
0000
0000
0000
0000
0000
0000
0000
,
0000
0322
0000
0033
0000
0202
0000
0303
0000
1010
0101
0000
0000
1001
0011
0000
,
0000
0110
2200
0000
0000
0000
0000
0000
3300
0001
0000
0000
0000
0000
0000
0000
,
0000
0010
0000
0000
0000
0000
0000
0000
0000
0001
0000
0000
0000
0000
0000
0000
,
0010
0220
0000
0000
0000
0000
0330
0000
0000
0000
0000
0000
0000
0001
0010
0100
,
1000
0010
0100
0001
0010
0100
1000
0010
0100
0001
0010
0100
1000
0010
0100
0001
,
0100
0010
0100
0010
0001
1000
0010
0100
0001
1000
0010
0100
0001
1000
0010
0100
,
0001
0010
0100
1000
0010
0100
0001
0010
0100
1000
0000
0001
0000
0011
0000
0202
,
0000
0000
0303
0000
2020
0000
3030
0202
0000
0303
0000
0202
0000
0000
0303
2020
,
0000
3030
0000
0001
0010
0100
1000
0010
0100
0001
0010
0100
1000
0011
0000
0202
,
0000
0000
0303
0000
1010
0000
0000
0101
0000
0000
0000
0202
0000
0000
0303
2020
,
0000
0000
3030
0000
0001
0010
0100
1000
0010
0100
0001
0010
0100
1000
0010
0100
,
0001
0100
0010
1000
0100
0010
0001
0010
0100
0010
0001
0010
0100
1000
0010
0100
,
0001
0010
0000
0000
0011
0000
0000
2002
0000
3003
0000
2020
3030
0220
0330
0022
,
0000
0000
0033
0000
0011
0100
1000
0010
0100
0001
0010
0100
1000
0110
0000
0202
,
0000
0000
0303
0000
0022
0000
0000
2233
0000
0000
3300
0011
0000
1100
0000
0022
,
0000
0000
0033
0000
1000
0010
0100
0001
0010
0100
1000
0010
1000
0100
0010
0001
,
1000
0100
0010
0001
0100
0001
0010
0100
1000
0001
0010
0100
1000
0100
0010
0100
,
1000
0100
0010
0001
0100
0010
1000
0010
0100
0001
0010
0100
1000
0100
0010
0100
,
0010
0001
1000
0001
0010
0100
1000
0010
0100
0001
0010
0100
0000
1100
0000
0022
,
0000
0000
0033
0001
0010
0100
1000
0010
0100
0001
0010
0100
1000
0001
0010
0100
,
1000
0010
1000
0100
0010
0001
1000
0100
0010
0001
0100
0010
1000
0100
0010
0001
,
0220
0000
0000
0332
0000
0003
0000
0022
0000
0033
0000
0220
0000
0330
0000
2200
,
0000
0000
3300
0002
0000
0000
0003
0220
0000
0330
0000
1100
0000
0100
0000
0011
,
0000
0010
0000
0220
0000
0330
0000
0022
0000
0033
0000
2200
0000
3300
0000
0022
,
0000
0033
0000
0220
0000
0330
0000
0110
0000
0010
0000
0100
0000
1000
0000
2002
,
0000
0000
3003
0100
0010
0100
0000
0022
0000
0033
0000
2200
0000
0000
3300
0022
,
0000
0033
0000
0010
0100
0010
0100
0001
0010
0100
1000
0010
0100
0001
0010
0220
,
0000
0330
0000
0011
0000
1100
0000
0011
0000
0010
0000
2020
0000
3030
0000
0022
,
0000
0033
0000
2200
0000
0000
3300
0001
0010
0001
0010
0100
1000
0010
0100
0021
,
0030
0000
0000
0000
0001
0000
0010
0000
0100
0000
0000
0000
0000
0000
0000
2200
0000
0000
0000
0000
0000
3300
0000
0000
0000
0000
0000
0001
0000
0000
0010
0000
0000
0001
0000
0000
0000
0000
0000
2200
0000
0000
0000
0000
0000
3300
0000
0000
,
0000
0000
0000
0000
0000
0001
0010
0001
0010
0100
1000
0010
0100
0002
0000
0000
,
0003
0000
0000
0001
0000
0010
0000
0100
0000
1000
0000
0010
0000
0100
0000
0202
,
0000
0303
0000
0001
0000
0010
0000
0100
0000
1000
0000
0010
0000
0100
0000
0001
,
0000
0010
0000
0100
0000
0220
0000
0330
0000
0022
0000
0033
0000
1000
0100
1000
,
0000
0100
0000
0010
0000
0011
0000
0010
0000
0100
0000
0110
0000
0011
0000
0220
,
0000
0000
0330
0000
0001
0010
0100
1000
0010
0100
0001
0010
0100
1000
0010
0100
,
0010
0100
1000
0001
1000
0001
0010
0100
1000
0100
0010
0001
0010
0100
1000
0010
,
0200
0000
0000
0000
0300
0001
0010
0100
1000
0010
1000
0101
0010
0100
1000
0010
,
0200
0020
0000
0000
0000
0000
0000
0000
0330
0000
0000
0000
0000
0000
0001
0000
0010
0000
0100
0000
1000
0000
0010
0000
0100
0000
0001
0000
0010
0000
0100
0000
,
1000
0001
1000
0100
0010
0001
1000
0100
0010
0022
0000
0000
0000
0133
1000
0010
,
0100
0001
0010
0100
1000
0010
1000
0010
0100
0001
0010
0100
0010
1000
0100
0010
,
0001
0100
0010
1000
0200
0000
0000
0001
0310
0100
1000
0010
0100
0001
0010
0100
,
1000
0010
0100
0001
0100
0010
1000
0100
0010
0001
0010
0100
0010
0001
0010
0100
,
2000
0000
0000
3001
0010
0100
1000
0010
0100
0001
0110
1000
0100
0010
0001
1000
,
0100
0010
0001
0100
0001
0010
0100
1000
0001
0010
0100
1000
0001
0220
0000
0330
,
0000
1001
0010
0100
1000
0001
0010
0001
0010
0100
1000
0010
0100
0001
0010
0001
,
0010
0100
1000
0100
1000
0100
0010
0001
0010
0100
0010
0001
0010
0100
1000
0010
,
0100
0001
0010
0100
1000
0001
0010
0100
1000
0001
0010
0100
1000
0010
1000
0100
,
0010
0022
0000
0000
0000
0000
0033
0000
0000
0001
0010
0100
1000
0010
0100
0001
,
0010
0100
1000
0010
0100
0001
0010
0100
1000
0001
1000
0001
0010
0100
0010
0100
,
1000
0010
0100
0001
0010
0100
1000
0010
0100
0202
0000
0000
0303
0000
0000
0001
,
0010
0100
1000
0010
0100
0001
0010
0100
1000
0001
0010
0100
1000
0010
1000
0100
,
0010
0001
0010
0100
1000
0010
0100
0001
0010
0100
1000
0010
0100
0001
0010
0100
,
1000
0220
0000
0330
0001
0010
0000
0000
0001
0000
0000
0000
1000
0000
0000
0001
,
0001
0000
0000
0001
0000
0010
0001
0100
0000
1000
0100
0010
0000
0100
0000
0001
,
0000
0220
0000
0000
0000
0000
0000
0000
0330
0000
0000
0001
0010
0100
1000
0010
,
0100
0001
0010
0100
0010
0001
0010
0100
2200
0000
0000
0000
0000
3300
0000
0000
,
0000
0000
0000
0022
0000
0000
0000
0000
0000
0000
0000
0000
0000
0000
0000
0000
0200
0000
0033
0000
0000
0000
0000
0000
,
0000
0000
0000
0000
0000
0000
0000
0000
0000
0000
0000
0000
0000
0020
0300
0000
0030
0000
0000
0002
0000
0003
0000
0000
,
0000
0022
0000
0000
0000
0000
0000
0000
0000
0000
0000
0000
0000
0033
0000
0000
0000
0000
0000
0000
0000
0001
0000
0000
,
0000
0000
0022
0000
0000
0000
0000
0000
0033
0000
0000
0000
0000
0001
0000
0000
,
0001
0010
0000
0000
0000
0000
0000
0000
0000
0000
0000
0000
0001
0000
0000
0001
,
0010
0000
0000
0100
0200
0000
0000
0000
0300
0000
0000
0000
0000
0010
0100
1000
,
0010
0200
0000
0000
0000
0300
0000
0001
0010
0100
1000
0100
0000
0000
0000
0022
,
0000
0033
0000
0220
0000
0330
0000
0022
0000
0033
0000
2020
0000
0000
3030
0001
,
0010
2200
0000
0000
0000
3300
0000
0000
0000
0001
0000
0011
0000
0100
0000
1000
,
0000
0000
0110
0000
0000
0000
0100
0000
0000
0000
0202
0000
0303
0000
0000
0000
0001
0010
0100
0000
0000
0000
0000
0000
0000
0000
1000
0000
0001
0000
0010
0000
,
0100
1000
0010
0100
0001
0010
0100
1000
0010
0100
0001
0100
0010
0001
0010
0100
,
1000
0100
0010
0100
1000
0100
0010
0100
1000
0100
0010
0001
0010
0100
1000
0010
,
0100
0002
0000
0000
0000
0003
0000
1100
0010
0001
0010
0100
1000
0010
0100
0001
,
0100
0220
0000
0000
0000
0000
0000
0000
0000
0000
0000
0330
0000
0000
0000
0000
,
0000
0022
0000
0000
0000
0033
0000
0001
0010
0100
1000
0010
0100
0001
0100
0010
,
1000
0100
0010
0001
1000
0001
0010
0100
0010
0100
1000
0001
1000
0001
0010
0100
,
1000
0001
0010
0100
1000
0100
0010
0100
1000
0100
0010
0001
0100
0010
1000
0100
,
0010
0022
0000
0000
0000
0000
0000
0000
0000
0033
0000
0001
0000
0010
0000
0100
,
0000
0220
0000
0000
0000
0000
0000
0000
0000
0000
0000
0000
0000
0332
0000
0003
,
0000
0202
0000
0000
0000
0000
0000
0000
0000
0000
0000
0000
0303
0000
0000
0001
,
0010
0100
1000
0010
0100
0001
0010
0100
1000
0010
0100
0010
0100
1000
0001
1000
,
0100
0010
0001
0010
0100
0010
0100
1000
0001
1000
0001
0010
0100
1000
0001
0010
,
0100
1000
0010
1000
0100
0010
0001
1000
0100
0010
0001
0010
0100
2200
0000
3300
,
0000
0022
0000
0000
0000
0000
0000
0000
0033
1000
0000
0001
0010
0100
1000
0010
,
0100
0001
0100
0010
1000
0100
0010
0001
0100
0010
0100
0010
0001
1000
0001
1000
,
0100
0010
0001
0010
0100
0010
0100
1000
0001
0010
0100
1000
0010
0100
0001
0010
,
0022
0000
0000
0000
0000
0000
0000
0000
0000
0000
0000
0033
0000
0002
0003
0000
,
0000
0022
0000
0000
0000
0000
0000
0000
0000
0033
0000
0001
1000
0001
1000
0001
,
1000
0001
0000
0011
0000
0110
0000
2200
0000
3300
0000
0022
0000
0033
0000
2200
,
0000
3300
0000
0000
0000
0011
0000
0010
0000
0100
0000
1000
0000
0110
0000
0010
,
0000
0001
0000
0010
0000
0110
0000
0011
0000
0000
0000
0022
0000
0033
0000
2200
,
0000
3300
0000
0001
0010
0100
1000
0010
0100
0001
0010
0100
1000
0010
0100
0001
,
0100
0010
1000
0100
0010
0001
0010
0100
0010
0000
0000
0022
0000
0000
0033
2200
,
0000
3300
0000
0001
0010
0100
1000
0010
0100
0001
0010
0100
1000
0010
0100
0002
,
0000
0000
0003
0000
0000
1000
0010
0100
0001
0010
0100
1100
0000
0000
0000
0022
,
0000
0033
0000
0011
0000
0110
0000
1100
0000
0100
0000
0010
0000
0001
0000
0220
,
0000
0330
0000
1000
0010
0100
0001
0010
0100
1000
0010
0100
0001
0100
0010
1000
,
0100
0010
0001
0010
0100
1000
0010
0100
0001
0010
0100
1000
0001
1000
0001
0010
,
0100
1000
0100
0010
0100
0010
0001
1000
0001
1000
0100
0010
0001
0010
0100
0010
,
0100
1000
0010
0100
0001
0010
0100
1000
0010
0100
0001
0010
0200
0000
0000
0300
,
0000
0001
0010
0100
1000
0010
0100
0001
0010
0100
1000
0010
0100
0001
0100
0010
,
1000
0100
0010
0001
0010
0001
0010
0100
1000
0100
1000
0100
0010
0001
0010
0100
,
0010
0100
1000
0010
0100
0001
0010
0100
1000
0010
0100
0001
0010
0100
0010
0001
,
0010
0100
1000
0010
0100
0001
0010
0100
1000
0010
0100
0001
0010
0100
0010
0001
,
0010
2200
0000
0000
0000
0000
0000
0000
0000
0000
0000
0000
0000
0000
0000
0000
,
0000
0000
3300
0000
;
