#TITLE:I Curry!;
#SUBTITLE:;
#ARTIST:YMCK;
#TITLETRANSLIT:;
#SUBTITLETRANSLIT:;
#ARTISTTRANSLIT:;
#CREDIT:owenviau1;
#BANNER:../owenviau1 Simfiles 6 (Science X Owen).png;
#BACKGROUND:BG.PNG;
#LYRICSPATH:;
#CDTITLE:;
#MUSIC:YMCK - I Curry!.mp3;
#OFFSET:-0.041;
#SAMPLESTART:45.374;
#SAMPLELENGTH:29.999;
#SELECTABLE:YES;
#BPMS:0.000=180.000;
#STOPS:;
#BGCHANGES:;
// cache tags:
#FIRSTBEAT:0.000;
#LASTBEAT:412.667;
#SONGFILENAME:Songs/owenviau1 Simfiles 6/I Curry! - [owenviau1] v1.0.6/I Curry!.sm;
#HASMUSIC:1;
#HASBANNER:1;
#MUSICLENGTH:138.008;
// end cache tags

//---------------dance-single - 11+ (owenviau1)----------------
#NOTES:
     dance-single:
     11+ (owenviau1):
     Medium:
     11:
     1.000,1.000,0.007,0.138,0.971,1061.000,1.000,19.000,0.000,1.000:
1000
0010
0000
0100
0000
0001
0000
1000
,
0020
0000
0000
0000
0000
0000
2030
0000
0000
0000
0000
0000
0000
0000
0000
3000
0000
0000
0002
0000
0000
0000
0003
0000
0200
0000
0000
0000
0000
0000
0310
0000
0000
0000
0000
0000
1000
0000
0000
0000
0000
0000
0000
0000
0000
0000
0000
0000
,
0001
0000
0000
0000
0100
0000
0000
0000
0010
0000
0000
0000
1000
0000
0000
0000
0002
0003
0000
0000
0100
0000
0000
0000
0010
0000
0000
0000
1000
0000
0000
0000
,
0100
0000
1000
0000
0001
0100
0001
0000
1000
0000
0010
0000
0100
0000
0001
0000
,
1000
0000
0000
0000
0100
0000
0000
0000
1000
0000
0000
0000
0001
0000
0000
0000
0200
0300
0000
0000
0001
0000
0000
0000
1000
0000
0000
0000
0010
0000
0000
0000
,
0100
0000
0010
0000
1000
0001
1000
0000
0100
0000
0010
0000
0001
0000
0100
0000
,
0001
0000
0000
0000
1000
0000
0000
0000
0010
0000
0000
0000
0100
0000
0000
0000
0002
0003
0000
0000
1000
0000
0000
0000
0010
0000
0000
0000
1000
0000
0000
0000
,
0001
0000
0100
0000
0010
1000
0010
0000
0100
0000
0001
0000
1000
0000
0100
0000
,
0010
0000
0000
0000
0001
0000
0000
0000
1000
0000
0000
0000
0100
0000
0000
0000
2000
3000
0000
0000
0010
0000
0000
0000
0100
0000
0000
0000
0001
0000
0000
0000
,
1000
0000
0100
0000
0010
0001
0010
0000
0100
0000
1000
0000
0001
0000
0100
0000
,
0001
1000
0010
0100
0001
0010
0001
1000
,
0100
0010
0001
1000
0100
1000
0010
0100
,
0010
1000
0001
0010
0001
0100
0010
1000
,
0100
0010
0001
1000
0100
1000
0010
0100
,
0001
0010
0001
1000
0010
1000
0001
0100
,
0001
1000
0010
0100
0001
1000
0100
0010
,
0001
1000
0001
0010
0100
1000
0001
0010
,
0001
1000
0100
1000
0010
0100
0010
1000
,
0001
0100
0001
1000
0010
0100
0001
1000
,
0100
0010
0001
0010
0100
1000
0001
0010
,
0001
1000
0100
0010
0001
0100
0010
1000
,
0001
0010
0100
1000
0001
0100
0001
1000
,
0010
0100
0010
1000
0001
0010
0001
1000
,
0100
1000
0001
0100
0010
1000
0010
0100
,
0001
1000
0100
0010
0001
0010
0100
1000
,
0001
0010
0001
1000
0100
1000
0001
0100
,
0001
1000
0010
1000
0100
0010
0001
0100
,
0001
1000
0100
1000
0010
0100
0001
0010
,
0001
1000
0100
1000
0001
0010
0100
1000
,
0001
0010
0001
0100
0010
1000
0001
0100
,
0001
1000
0010
0100
0010
1000
0100
1000
,
0001
0010
0001
1000
0100
0010
0001
0100
,
0010
1000
0000
0100
0000
0010
0000
0001
,
0200
0320
0000
2030
3002
0103
0010
0000
,
1000
0100
1000
0001
0010
0001
1000
0100
0010
0001
0100
0010
1000
0001
0100
0001
,
1000
0010
0100
0010
1000
0100
0010
0001
0100
0010
1000
0001
0010
0001
0100
0010
,
0100
0001
1000
0100
0010
0001
1000
0100
1000
0010
0100
0010
1000
0001
0010
0001
,
0100
0010
1000
0001
0100
0001
1000
0010
0100
0010
1000
0001
0010
0001
0100
0010
,
1000
0100
0010
0001
1000
0100
1000
0001
0010
0001
0100
0010
0100
0001
1000
0001
,
0100
0010
1000
0001
0100
0001
1000
0010
0100
0001
0100
0010
1000
0100
0010
0001
,
1000
0010
0100
0001
0100
0010
1000
0100
,
0010
0001
1000
0100
1000
0001
0100
0010
,
1000
0001
0100
0001
0010
0100
1000
0001
0010
0001
0100
0010
1000
0100
0010
0001
,
1000
0100
1000
0010
0100
0010
1000
0001
0010
0001
0100
0010
1000
0100
0010
0001
,
1000
0100
1000
0001
0010
0001
0100
0010
0100
0001
1000
0001
0100
0010
1000
0001
,
0100
0001
1000
0010
0100
0010
1000
0001
0010
0001
0100
0010
1000
0100
0010
0001
,
1000
0100
1000
0001
0010
0001
1000
0100
0010
0001
1000
0001
0010
0100
1000
0010
,
1000
0100
0010
0001
0100
0001
1000
0010
0100
0010
1000
0001
0010
0001
1000
0100
,
0010
0001
1000
0100
1000
0010
0100
0010
,
1000
0100
0010
0001
0010
0100
1000
0001
,
0100
0001
1000
0010
0100
0010
1000
0100
,
0010
0001
1000
0010
0100
0010
1000
0001
,
0100
0010
0100
0001
1000
0001
0100
0010
,
1000
0000
0100
0000
0010
0000
0001
0000
1000
0000
0001
0010
0100
1000
0001
0100
,
0020
0000
0000
0000
,
0000
0030
1000
0100
0010
0001
0100
0001
1000
0010
0100
0001
1000
0100
1000
0010
,
0100
0010
1000
0001
0010
0001
0100
0010
1000
0100
0010
0001
0100
0001
1000
0010
,
0100
0000
0000
0001
0000
0000
1000
0010
1000
0010
0000
0000
0100
0000
0000
0001
0000
0000
1000
0000
0000
0000
0000
0000
,
0000
0000
0010
0100
0001
1000
0100
1000
0010
0100
0001
1000
0100
1000
0010
0100
,
0001
1000
0010
0100
0001
0010
0001
1000
0100
0010
0001
1000
0100
1000
0010
0100
,
0010
1000
0001
0100
0001
1000
0010
0100
0010
1000
0001
0010
0001
0100
0010
1000
,
0100
0010
0001
1000
0100
1000
0001
0010
0100
1000
0100
0010
0001
0100
0010
1000
,
0001
0100
0010
1000
0001
0010
0001
0100
,
0010
1000
0100
0010
0001
1000
0100
1000
,
0010
0100
0010
1000
0001
0100
0001
1000
,
0010
0100
0001
1000
0100
0010
0001
1000
,
0100
1000
0001
0010
0001
0100
0010
1000
,
0100
0010
0001
1000
0100
1000
0001
0100
,
0010
1000
0000
0100
0000
0010
0000
0001
,
0200
0320
0000
2030
3002
0103
0010
0000
,
1000
0100
1000
0001
0010
0001
1000
0100
0010
0001
0100
0010
1000
0001
0100
0001
,
1000
0010
0100
0010
1000
0100
0010
0001
0100
0010
1000
0001
0010
0001
0100
0010
,
0100
0001
1000
0100
0010
0001
1000
0100
1000
0010
0100
0010
1000
0001
0010
0001
,
0100
0010
1000
0001
0100
0001
1000
0010
0100
0010
1000
0001
0010
0001
0100
0010
,
1000
0100
0010
0001
1000
0100
1000
0001
0010
0001
0100
0010
0100
0001
1000
0001
,
0100
0010
1000
0001
0100
0001
1000
0010
0100
0001
0100
0010
1000
0100
0010
0001
,
1000
0010
0100
0001
0100
0010
1000
0100
,
0010
0001
1000
0100
1000
0001
0100
0010
,
1000
0001
0100
0001
0010
0100
1000
0001
0010
0001
0100
0010
1000
0100
0010
0001
,
1000
0100
1000
0010
0100
0010
1000
0001
0010
0001
0100
0010
1000
0100
0010
0001
,
1000
0100
1000
0001
0010
0001
0100
0010
0100
0001
1000
0001
0100
0010
1000
0001
,
0100
0001
1000
0010
0100
0010
1000
0001
0010
0001
0100
0010
1000
0100
0010
0001
,
1000
0100
1000
0001
0010
0001
1000
0100
0010
0001
1000
0001
0010
0100
1000
0010
,
1000
0100
0010
0001
0100
0001
1000
0010
0100
0010
1000
0001
0010
0001
1000
0100
,
0010
0001
1000
0100
1000
0010
0100
0010
,
1000
0000
0100
0000
0010
0000
0001
0000
0010
0100
1000
0001
0100
0010
1000
0001
,
0100
0001
1000
0010
0100
0010
1000
0100
,
0010
0001
1000
0010
0100
0010
1000
0001
,
0100
0010
0100
0001
1000
0001
0100
0010
,
1000
0100
0010
0001
1000
0001
0010
0001
,
0100
0010
1000
0100
0010
0001
1000
0100
,
1000
0010
0100
0010
1000
0001
0100
0001
,
1000
0010
0100
0001
1000
0100
0010
0001
,
1000
0000
0100
0000
1000
0000
0001
0100
0001
1000
0010
0100
0001
1000
0100
0010
,
0001
0100
0010
1000
0001
0010
0001
1000
,
0100
0010
0001
1000
0010
1000
0100
0010
,
0001
0100
0010
1000
0001
0100
0001
1000
,
0010
0000
0100
0000
0001
0000
1000
0000
0100
0000
0010
0001
1000
0100
1000
0010
,
0100
0001
1000
0100
0010
0001
1000
0100
,
1000
0000
0001
0000
0010
0000
0001
0000
0100
0000
0010
1000
0100
0010
0001
1000
,
0010
0000
0100
0000
0001
0000
1000
0000
0100
0000
1000
0001
0100
0001
0010
0100
,
1000
0001
0100
0010
0000
1000
0001
0100
,
0202
0000
0000
0000
,
1303
0010
1000
0010
1000
0000
0000
0000
0000
0000
0000
0000
0000
0000
0000
0000
0000
0000
0000
0000
0000
0000
0000
0000
;

//---------------dance-single - 20 (owenviau1)----------------
#NOTES:
     dance-single:
     20 (owenviau1):
     Hard:
     20:
     1.000,1.000,0.130,0.116,1.000,1766.000,18.000,16.000,0.000,1.000:
1100
0110
0000
0101
0000
1001
0000
1010
,
0120
0000
0000
0000
0000
0000
2030
0000
0000
0000
0000
0000
0000
0000
0000
3000
0000
0000
0002
0000
0000
0000
0003
0000
0200
0000
0000
0000
0000
0000
0310
0000
0000
0000
0000
0000
1001
0000
0000
0000
0000
0000
0000
0000
0000
0000
0000
0000
,
1000
0010
0100
0010
1000
0001
0010
0001
0100
0010
1000
0100
0010
0001
1000
0100
,
1000
0010
0100
0010
1000
0001
0010
0001
0100
0010
1000
0001
0010
0001
0100
0010
,
1000
0010
0100
0001
1000
0001
0100
0010
1000
0100
0010
0001
0010
0100
1000
0001
,
0100
0001
1000
0010
0100
0010
1000
0001
0010
0001
0100
0010
1000
0010
0100
0001
,
1000
0001
0010
0100
1000
0100
0010
0001
1000
0001
0100
0010
0100
0001
1000
0100
,
1000
0001
0010
0001
1000
0100
0010
0001
0100
0010
1000
0010
0100
0001
0010
0001
,
1000
0100
0010
0001
1000
0010
1000
0001
0100
0010
1000
0001
0010
0001
0100
0010
,
0100
0001
1000
0001
0100
0010
1000
0100
0010
0001
1000
0100
1000
0010
0100
0001
,
0010
0001
1000
0010
0100
0001
1000
0001
0010
0100
1000
0100
0010
0001
0100
0010
,
1000
0001
0010
0001
0100
0010
1000
0100
0010
0001
1000
0100
1000
0010
0100
0010
,
1000
0001
0010
0001
0100
0010
1000
0001
0010
0001
0100
0010
1000
0010
0100
0001
,
1000
0001
0100
0010
1000
0100
0010
0001
0010
0100
1000
0001
0100
0001
1000
0010
,
0100
0010
1000
0001
0010
0001
0100
0010
1000
0010
0100
0001
1000
0001
0010
0100
,
1000
0100
0010
0001
1000
0001
0100
0010
0100
0001
1000
0100
1000
0001
0010
0001
,
1000
0100
0010
0001
0100
0010
1000
0010
0100
0001
0010
0001
1000
0100
0010
0001
,
1000
0010
1000
0001
0100
0010
1000
0001
0010
0001
0100
0010
0100
0001
1000
0001
,
0100
0010
1000
0100
0010
0001
1000
0100
1000
0010
0100
0001
0010
0001
1000
0010
,
0100
0001
1000
0001
0010
0100
1000
0100
0010
0001
0100
0010
1000
0001
0010
0001
,
0100
0010
1000
0100
0010
0001
1000
0100
1000
0010
0100
0010
1000
0001
0010
0001
,
0100
0010
1000
0001
0010
0001
0100
0010
1000
0010
0100
0001
1000
0001
0100
0010
,
1000
0100
0010
0001
0010
0100
1000
0001
0100
0001
1000
0010
0100
0010
1000
0001
,
0010
0001
0100
0010
1000
0010
0100
0001
1000
0001
0010
0100
1000
0100
0010
0001
,
1000
0001
0100
0010
0100
0001
1000
0100
1000
0001
0010
0001
1000
0100
0010
0001
,
0100
0010
1000
0010
0100
0001
0010
0001
1000
0100
0010
0001
1000
0010
1000
0001
,
0100
0010
1000
0001
0010
0001
0100
0010
0100
0001
1000
0001
0100
0010
1000
0100
,
0010
0001
1000
0100
1000
0010
0100
0001
0010
0001
1000
0010
0100
0001
1000
0001
,
0010
0100
1000
0100
0010
0001
0100
0010
1000
0001
0100
0001
1000
0100
0010
0001
,
0100
0010
0100
0001
1000
0001
0010
0100
1000
0010
0100
0001
1000
0100
1000
0010
,
0100
0010
1000
0001
0010
0001
1000
0100
0010
0001
1000
0100
1000
0010
0100
0010
,
1000
0001
0100
0001
0010
0100
1000
0001
0010
0001
1000
0100
0010
0001
0100
0010
,
1000
1001
0000
0101
0000
0110
0000
1010
,
0102
0000
0000
0000
0000
0000
2003
0000
0000
0000
0000
0000
0000
0000
0000
3000
0000
0000
0002
0000
0000
0000
0003
0000
0200
0000
0000
0000
0000
0000
0310
0000
0000
0000
0000
0000
2000
0000
0000
0000
0000
0000
0000
0000
0000
3000
0000
0000
,
0001
0010
0100
1000
0001
0100
0010
1000
0010
0100
0001
1000
0001
0100
0010
1000
0001
0010
0001
1000
0100
0010
0001
1000
,
0010
1000
0001
0100
0010
1000
0001
0010
0001
1000
0100
1000
0010
0100
0010
1000
0001
0100
0001
1000
0010
0100
0010
1000
,
0001
0010
0001
1000
0100
0010
0001
0100
0001
1000
0010
0100
0010
1000
0001
0010
0001
1000
0100
0010
0001
1000
0100
1000
,
0001
0100
0001
1000
0010
0100
0010
1000
0001
0010
0001
1000
0100
0010
0001
0100
0001
1000
0010
0100
0010
1000
0001
1000
,
0100
0010
0001
0010
0100
1000
0010
0100
0001
1000
0010
0100
0010
1000
0001
0100
0001
1000
0100
0010
0001
0100
0010
1000
,
0001
0010
0001
1000
0010
0100
0001
1000
0001
0100
0010
0100
0001
1000
0100
0010
0001
0100
0010
1000
0010
0100
0001
1000
,
0010
0100
0001
1000
0001
0100
0010
1000
0001
0010
0001
1000
0100
0010
0001
0100
,
0010
0100
0001
1000
0001
0100
0010
1000
0100
0010
0001
1000
0100
1000
0001
0100
,
0001
1000
0010
0100
0001
1000
0001
0100
0010
1000
0001
0010
0001
1000
0100
0010
0001
1000
0010
1000
0001
0100
0010
1000
,
0001
0010
0001
1000
0100
1000
0010
0100
0010
1000
0001
0100
0001
1000
0010
0100
0010
1000
0001
0010
0001
1000
0100
0010
,
0001
0100
0001
1000
0010
0100
0010
1000
0001
0010
0001
1000
0100
0010
0001
1000
0100
1000
0001
0100
0001
1000
0010
0100
,
0010
1000
0001
0010
0001
1000
0100
0010
0001
0100
0001
1000
0010
0100
0010
1000
0001
1000
0100
0010
0001
0010
0100
1000
,
0010
0100
0001
1000
0010
0100
0010
1000
0001
0100
0001
1000
0100
0010
0001
0100
0010
1000
0001
0010
0001
1000
0010
0100
,
0001
1000
0001
0100
0010
0100
0001
1000
0100
0010
0001
0100
0010
1000
0010
0100
0001
1000
0010
0100
0010
1000
0001
0010
,
0001
1000
0010
0100
0001
1000
0001
0010
0100
1000
0100
0010
0001
0100
0010
1000
,
0001
0010
0001
0100
0010
1000
0100
0010
0001
1000
0100
1000
0010
0100
0010
1000
,
0001
0010
0001
0100
0010
1000
0001
0010
0001
0100
0010
1000
0010
0100
0001
1000
,
0001
0100
0010
1000
0100
0010
0001
0010
0100
1000
0001
0100
0001
1000
0010
0100
,
0010
1000
0001
0010
0001
0100
0010
1000
0010
0100
0001
1000
0001
0010
0100
1000
,
0100
0010
0001
1000
0001
0100
0010
0100
0001
1000
0100
1000
0001
0010
0001
1000
,
0100
0010
0001
0100
0010
1000
0010
0100
0001
0010
0001
1000
0100
0010
0001
1000
,
0010
1000
0001
0100
0010
1000
0001
0010
0001
0100
0010
0100
0001
1000
0001
0100
,
0010
1000
0100
0010
0001
1000
0100
1000
0010
0100
0001
0010
0001
1000
0010
0100
,
0001
1000
0001
0010
0100
1000
0100
0010
0001
0100
0010
1000
0001
0100
0001
1000
,
0100
0010
0001
0100
0010
0100
0001
1000
0001
0010
0100
1000
0010
0100
0001
1000
,
0100
1000
0010
0100
0010
1000
0001
0010
0001
1000
0100
0010
0001
1000
0100
1000
,
0010
0100
0010
1000
0001
0100
0001
0010
0100
1000
0001
0010
0001
1000
0100
0010
,
0001
1000
0100
1000
0010
0100
0001
1000
0001
0010
0100
1000
0001
1000
0010
0100
,
0001
1000
0001
0100
0010
1000
0100
0010
0001
1000
0100
1000
0010
0100
0001
0010
,
0001
1000
0010
0100
0001
1000
0001
0010
0100
1000
0100
0010
0001
0100
0010
1000
,
0001
0100
0001
1000
0100
0010
0001
0100
0010
0100
0001
1000
0001
0010
0100
1000
,
0010
0100
0001
1000
0100
1000
0010
0100
0010
1000
0001
0010
0001
1000
0100
0010
,
0001
1000
0100
1000
0010
0100
0010
1000
0001
0100
0001
0010
0100
1000
0001
0010
,
0001
1000
0100
0010
0001
1000
0100
1000
0010
0100
0001
1000
0001
0010
0100
1000
,
0001
1001
0000
0101
0000
0110
0000
1010
,
0102
0000
0000
0000
0000
0000
2003
0000
0000
0000
0000
0000
0000
0000
0000
3000
0000
0000
0002
0000
0000
0000
0003
0000
0200
0000
0000
0000
0000
0000
0310
0000
0000
0000
0000
0000
2000
0000
0000
0000
0000
0000
0000
0000
0000
3000
0000
0000
,
0001
0010
0100
1000
0001
0100
0010
1000
0010
0100
0001
1000
0001
0100
0010
1000
0001
0010
0001
1000
0100
0010
0001
1000
,
0010
1000
0001
0100
0010
1000
0001
0010
0001
1000
0100
1000
0010
0100
0010
1000
0001
0100
0001
1000
0010
0100
0010
1000
,
0001
0010
0001
1000
0100
0010
0001
0100
0001
1000
0010
0100
0010
1000
0001
0010
0001
1000
0100
0010
0001
1000
0100
1000
,
0001
0100
0001
1000
0010
0100
0010
1000
0001
0010
0001
1000
0100
0010
0001
0100
0001
1000
0010
0100
0010
1000
0001
1000
,
0100
0010
0001
0010
0100
1000
0010
0100
0001
1000
0010
0100
0010
1000
0001
0100
0001
1000
0100
0010
0001
0100
0010
1000
,
0001
0010
0001
1000
0010
0100
0001
1000
0001
0100
0010
0100
0001
1000
0100
0010
0001
0100
0010
1000
0010
0100
0001
1000
,
0010
0100
0001
1000
0001
0100
0010
1000
0001
0010
0001
1000
0100
0010
0001
0100
,
0010
0100
0001
1000
0001
0100
0010
1000
0100
0010
0001
1000
0100
1000
0001
0100
,
0001
1000
0010
0100
0001
1000
0001
0100
0010
1000
0001
0010
0001
1000
0100
0010
0001
1000
0010
1000
0001
0100
0010
1000
,
0001
0010
0001
1000
0100
1000
0010
0100
0010
1000
0001
0100
0001
1000
0010
0100
0010
1000
0001
0010
0001
1000
0100
0010
,
0001
0100
0001
1000
0010
0100
0010
1000
0001
0010
0001
1000
0100
0010
0001
1000
0100
1000
0001
0100
0001
1000
0010
0100
,
0010
1000
0001
0010
0001
1000
0100
0010
0001
0100
0001
1000
0010
0100
0010
1000
0001
1000
0100
0010
0001
0010
0100
1000
,
0010
0100
0001
1000
0010
0100
0010
1000
0001
0100
0001
1000
0100
0010
0001
0100
0010
1000
0001
0010
0001
1000
0010
0100
,
0001
1000
0001
0100
0010
0100
0001
1000
0100
0010
0001
0100
0010
1000
0010
0100
0001
1000
0010
0100
0010
1000
0001
0010
,
0001
1000
0010
0100
0001
1000
0001
0010
0100
1000
0100
0010
0001
0100
0010
1000
,
0001
0010
0001
0100
0010
1000
0100
0010
0001
1000
0100
1000
0010
0100
0010
1000
,
0001
0010
0001
0100
0010
1000
0001
0010
0001
0100
0010
1000
0010
0100
0001
1000
,
0001
0100
0010
1000
0100
0010
0001
0010
0100
1000
0001
0100
0001
1000
0010
0100
,
0010
1000
0001
0010
0001
0100
0010
1000
0010
0100
0001
1000
0001
0010
0100
1000
,
0100
0010
0001
1000
0001
0100
0010
0100
0001
1000
0100
1000
0001
0010
0001
1000
,
0100
0010
0001
0100
0010
1000
0010
0100
0001
0010
0001
1000
0100
0010
0001
1000
,
0010
1000
0001
0100
0010
1000
0001
0010
0001
0100
0010
0100
0001
1000
0001
0100
,
0010
1000
0100
0010
0001
1000
0100
1000
0010
0100
0001
0010
0001
1000
0010
0100
,
0001
1000
0001
0010
0100
1000
0100
0010
0001
0100
0010
1000
0001
0100
0001
1000
,
0100
0010
0001
0100
0010
0100
0001
1000
0001
0010
0100
1000
0010
0100
0001
1000
,
0100
1000
0010
0100
0010
1000
0001
0010
0001
1000
0100
0010
0001
1000
0100
1000
,
0010
0100
0010
1000
0001
0100
0001
0010
0100
1000
0001
0010
0001
1000
0100
0010
,
0001
1000
0100
1000
0010
0100
0001
1000
0001
0010
0100
1000
0001
1000
0010
0100
,
0001
1000
0001
0100
0010
1000
0100
0010
0001
1000
0100
1000
0010
0100
0001
0010
,
0001
1000
0010
0100
0001
1000
0001
0010
0100
1000
0100
0010
0001
0100
0010
1000
,
0001
0100
0001
1000
0100
0010
0001
0100
0010
0100
0001
1000
0001
0010
0100
1000
,
0010
0100
0001
1000
0100
1000
0010
0100
0010
1000
0001
0100
0001
1000
0010
0000
,
0202
0000
0000
0000
,
1303
0100
0010
0001
1000
0000
0000
0000
0000
0000
0000
0000
0000
0000
0000
0000
0000
0000
0000
0000
0000
0000
0000
0000
;

//---------------dance-single - 32+ (owenviau1)----------------
#NOTES:
     dance-single:
     32+ (owenviau1):
     Challenge:
     32:
     1.000,1.000,0.130,0.116,1.000,1959.000,18.000,16.000,0.000,1.000:
1100
0110
0000
0101
0000
1001
0000
1010
,
0120
0000
0000
0000
0000
0000
2030
0000
0000
0000
0000
0000
0000
0000
0000
3000
0000
0000
0002
0000
0000
0000
0003
0000
0200
0000
0000
0000
0000
0000
0310
0000
0000
0000
0000
0000
1001
0000
0000
0000
0000
0000
0000
0000
0000
0000
0000
0000
,
1000
0010
0100
0010
1000
0001
0010
0001
0100
0010
1000
0100
0010
0001
1000
0100
,
1000
0010
0100
0010
1000
0001
0010
0001
0100
0010
1000
0001
0010
0001
0100
0010
,
1000
0010
0100
0001
1000
0001
0100
0010
1000
0100
0010
0001
0010
0100
1000
0001
,
0100
0001
1000
0010
0100
0010
1000
0001
0010
0001
0100
0010
1000
0010
0100
0001
,
1000
0001
0010
0100
1000
0100
0010
0001
1000
0001
0100
0010
0100
0001
1000
0100
,
1000
0001
0010
0001
1000
0100
0010
0001
0100
0010
1000
0010
0100
0001
0010
0001
,
1000
0100
0010
0001
1000
0010
1000
0001
0100
0010
1000
0001
0010
0001
0100
0010
,
0100
0001
1000
0001
0100
0010
1000
0100
0010
0001
1000
0100
1000
0010
0100
0001
,
0010
0001
1000
0010
0100
0001
1000
0001
0010
0100
1000
0100
0010
0001
0100
0010
,
1000
0001
0010
0001
0100
0010
1000
0100
0010
0001
1000
0100
1000
0010
0100
0010
,
1000
0001
0010
0001
0100
0010
1000
0001
0010
0001
0100
0010
1000
0010
0100
0001
,
1000
0001
0100
0010
1000
0100
0010
0001
0010
0100
1000
0001
0100
0001
1000
0010
,
0100
0010
1000
0001
0010
0001
0100
0010
1000
0010
0100
0001
1000
0001
0010
0100
,
1000
0100
0010
0001
1000
0001
0100
0010
0100
0001
1000
0100
1000
0001
0010
0001
,
1000
0100
0010
0001
0100
0010
1000
0010
0100
0001
0010
0001
1000
0100
0010
0001
,
1000
0010
1000
0001
0100
0010
1000
0001
0010
0001
0100
0010
0100
0001
1000
0001
,
0100
0010
1000
0100
0010
0001
1000
0100
1000
0010
0100
0001
0010
0001
1000
0010
,
0100
0001
1000
0001
0010
0100
1000
0100
0010
0001
0100
0010
1000
0001
0010
0001
,
0100
0010
1000
0100
0010
0001
1000
0100
1000
0010
0100
0010
1000
0001
0010
0001
,
0100
0010
1000
0001
0010
0001
0100
0010
1000
0010
0100
0001
1000
0001
0100
0010
,
1000
0100
0010
0001
0010
0100
1000
0001
0100
0001
1000
0010
0100
0010
1000
0001
,
0010
0001
0100
0010
1000
0010
0100
0001
1000
0001
0010
0100
1000
0100
0010
0001
,
1000
0001
0100
0010
0100
0001
1000
0100
1000
0001
0010
0001
1000
0100
0010
0001
,
0100
0010
1000
0010
0100
0001
0010
0001
1000
0100
0010
0001
1000
0010
1000
0001
,
0100
0010
1000
0001
0010
0001
0100
0010
0100
0001
1000
0001
0100
0010
1000
0100
,
0010
0001
1000
0100
1000
0010
0100
0001
0010
0001
1000
0010
0100
0001
1000
0001
,
0010
0100
1000
0100
0010
0001
0100
0010
1000
0001
0100
0001
1000
0100
0010
0001
,
0100
0010
0100
0001
1000
0001
0010
0100
1000
0010
0100
0001
1000
0100
1000
0010
,
0100
0010
1000
0001
0010
0001
1000
0100
0010
0001
1000
0100
1000
0010
0100
0010
,
1000
0001
0100
0001
0010
0100
1000
0001
0010
0001
1000
0100
0010
0001
0100
0010
,
1000
1001
0000
0101
0000
0110
0000
1010
,
0102
0000
0000
0000
0000
0000
2003
0000
0000
0000
0000
0000
0000
0000
0000
3000
0000
0000
0002
0000
0000
0000
0003
0000
0200
0000
0000
0000
0000
0000
0310
0000
0000
0000
0000
0000
2000
0000
0000
0000
0000
0000
0000
0000
0000
3000
0000
0000
,
0001
0010
0100
1000
0001
0100
0001
1000
0010
0100
0010
1000
0001
0010
0001
0100
0010
1000
0001
0010
0001
1000
0100
0010
0001
1000
0001
0010
0100
1000
0010
0100
,
0010
1000
0001
0100
0001
1000
0100
0010
0001
0100
0010
0100
0001
1000
0010
0100
0010
1000
0001
1000
0100
0010
0001
1000
0010
1000
0001
0100
0001
1000
0100
1000
,
0001
0010
0001
1000
0100
0010
0001
0100
0010
1000
0001
0100
0001
1000
0010
0100
0010
1000
0001
0010
0001
1000
0100
0010
0001
0010
0100
1000
0001
0100
0001
1000
,
0010
0100
0010
1000
0001
0010
0001
0100
0010
1000
0001
0010
0001
1000
0100
0010
0001
1000
0001
0010
0100
1000
0010
0100
0010
1000
0001
0100
0001
1000
0100
0010
,
0001
0100
0010
0100
0001
1000
0010
0100
0010
1000
0001
1000
0100
0010
0001
1000
0010
1000
0001
0100
0001
1000
0100
1000
0001
0010
0001
1000
0100
0010
0001
0100
,
0010
1000
0001
0100
0001
1000
0010
0100
0010
1000
0001
0010
0001
1000
0100
0010
0001
1000
0100
1000
0010
0100
0010
1000
0001
0010
0001
1000
0100
0010
0001
1000
,
0010
0100
0001
1000
0001
0100
0010
1000
0001
0010
0001
1000
0100
0010
0001
0100
,
0010
0100
0001
1000
0001
0100
0010
1000
0100
0010
0001
1000
0100
1000
0001
0100
,
0001
0010
0100
1000
0001
0100
0001
1000
0010
0100
0010
1000
0001
0010
0001
0100
0010
1000
0001
0010
0001
1000
0100
0010
0001
1000
0001
0010
0100
1000
0010
0100
,
0010
1000
0001
0100
0001
1000
0100
0010
0001
0100
0010
0100
0001
1000
0010
0100
0010
1000
0001
1000
0100
0010
0001
1000
0010
1000
0001
0100
0001
1000
0100
1000
,
0001
0010
0001
1000
0100
0010
0001
0100
0010
1000
0001
0100
0001
1000
0010
0100
0010
1000
0001
0010
0001
1000
0100
0010
0001
0010
0100
1000
0001
0100
0001
1000
,
0010
0100
0010
1000
0001
0010
0001
0100
0010
1000
0001
0010
0001
1000
0100
0010
0001
1000
0001
0010
0100
1000
0010
0100
0010
1000
0001
0100
0001
1000
0100
0010
,
0001
0100
0010
0100
0001
1000
0010
0100
0010
1000
0001
1000
0100
0010
0001
1000
0010
1000
0001
0100
0001
1000
0100
1000
0001
0010
0001
1000
0100
0010
0001
0100
,
0010
1000
0001
0100
0001
1000
0010
0100
0010
1000
0001
0010
0001
1000
0100
0010
0001
1000
0100
1000
0010
0100
0010
1000
0001
0010
0001
1000
0100
0010
0001
1000
,
0010
1000
0010
0100
0001
1000
0001
0010
0100
1000
0100
0010
0001
0100
0010
1000
,
0001
0010
0001
0100
0010
1000
0100
0010
0001
1000
0100
1000
0010
0100
0010
1000
,
0001
0010
0001
0100
0010
1000
0001
0010
0001
0100
0010
1000
0010
0100
0001
1000
,
0001
0100
0010
1000
0100
0010
0001
0010
0100
1000
0001
0100
0001
1000
0010
0100
,
0010
1000
0001
0010
0001
0100
0010
1000
0010
0100
0001
1000
0001
0010
0100
1000
,
0100
0010
0001
1000
0001
0100
0010
0100
0001
1000
0100
1000
0001
0010
0001
1000
,
0100
0010
0001
0100
0010
1000
0010
0100
0001
0010
0001
1000
0100
0010
0001
1000
,
0010
1000
0001
0100
0010
1000
0001
0010
0001
0100
0010
0100
0001
1000
0001
0100
,
0010
1000
0100
0010
0001
1000
0100
1000
0010
0100
0001
0010
0001
1000
0010
0100
,
0001
1000
0001
0010
0100
1000
0100
0010
0001
0100
0010
1000
0001
0100
0001
1000
,
0100
0010
0001
0100
0010
0100
0001
1000
0001
0010
0100
1000
0010
0100
0001
1000
,
0100
1000
0010
0100
0010
1000
0001
0010
0001
1000
0100
0010
0001
1000
0100
1000
,
0010
0100
0010
1000
0001
0100
0001
0010
0100
1000
0001
0010
0001
1000
0100
0010
,
0001
1000
0100
1000
0010
0100
0001
1000
0001
0010
0100
1000
0001
1000
0010
0100
,
0001
1000
0001
0100
0010
1000
0100
0010
0001
1000
0100
1000
0010
0100
0001
0010
,
0001
1000
0010
0100
0001
1000
0001
0010
0100
1000
0100
0010
0001
0100
0010
1000
,
0001
0100
0001
1000
0100
0010
0001
0100
0010
0100
0001
1000
0001
0010
0100
1000
,
0010
0100
0001
1000
0100
1000
0010
0100
0010
1000
0001
0010
0001
1000
0100
0010
,
0001
1000
0100
1000
0010
0100
0010
1000
0001
0100
0001
0010
0100
1000
0001
0010
,
0001
1000
0100
0010
0001
1000
0100
1000
0010
0100
0001
1000
0001
0010
0100
1000
,
0001
1001
0000
0101
0000
0110
0000
1010
,
0102
0000
0000
0000
0000
0000
2003
0000
0000
0000
0000
0000
0000
0000
0000
3000
0000
0000
0002
0000
0000
0000
0003
0000
0200
0000
0000
0000
0000
0000
0310
0000
0000
0000
0000
0000
2000
0000
0000
0000
0000
0000
0000
0000
0000
3000
0000
0000
,
0001
0010
0100
1000
0001
0100
0001
1000
0010
0100
0010
1000
0001
0010
0001
0100
0010
1000
0001
0010
0001
1000
0100
0010
0001
1000
0001
0010
0100
1000
0010
0100
,
0010
1000
0001
0100
0001
1000
0100
0010
0001
0100
0010
0100
0001
1000
0010
0100
0010
1000
0001
1000
0100
0010
0001
1000
0010
1000
0001
0100
0001
1000
0100
1000
,
0001
0010
0001
1000
0100
0010
0001
0100
0010
1000
0001
0100
0001
1000
0010
0100
0010
1000
0001
0010
0001
1000
0100
0010
0001
0010
0100
1000
0001
0100
0001
1000
,
0010
0100
0010
1000
0001
0010
0001
0100
0010
1000
0001
0010
0001
1000
0100
0010
0001
1000
0001
0010
0100
1000
0010
0100
0010
1000
0001
0100
0001
1000
0100
0010
,
0001
0100
0010
0100
0001
1000
0010
0100
0010
1000
0001
1000
0100
0010
0001
1000
0010
1000
0001
0100
0001
1000
0100
1000
0001
0010
0001
1000
0100
0010
0001
0100
,
0010
1000
0001
0100
0001
1000
0010
0100
0010
1000
0001
0010
0001
1000
0100
0010
0001
1000
0100
1000
0010
0100
0010
1000
0001
0010
0001
1000
0100
0010
0001
1000
,
0010
0100
0001
1000
0001
0100
0010
1000
0001
0010
0001
1000
0100
0010
0001
0100
,
0010
0100
0001
1000
0001
0100
0010
1000
0100
0010
0001
1000
0100
1000
0001
0100
,
0001
0010
0100
1000
0001
0100
0001
1000
0010
0100
0010
1000
0001
0010
0001
0100
0010
1000
0001
0010
0001
1000
0100
0010
0001
1000
0001
0010
0100
1000
0010
0100
,
0010
1000
0001
0100
0001
1000
0100
0010
0001
0100
0010
0100
0001
1000
0010
0100
0010
1000
0001
1000
0100
0010
0001
1000
0010
1000
0001
0100
0001
1000
0100
1000
,
0001
0010
0001
1000
0100
0010
0001
0100
0010
1000
0001
0100
0001
1000
0010
0100
0010
1000
0001
0010
0001
1000
0100
0010
0001
0010
0100
1000
0001
0100
0001
1000
,
0010
0100
0010
1000
0001
0010
0001
0100
0010
1000
0001
0010
0001
1000
0100
0010
0001
1000
0001
0010
0100
1000
0010
0100
0010
1000
0001
0100
0001
1000
0100
0010
,
0001
0100
0010
0100
0001
1000
0010
0100
0010
1000
0001
1000
0100
0010
0001
1000
0010
1000
0001
0100
0001
1000
0100
1000
0001
0010
0001
1000
0100
0010
0001
0100
,
0010
1000
0001
0100
0001
1000
0010
0100
0010
1000
0001
0010
0001
1000
0100
0010
0001
1000
0100
1000
0010
0100
0010
1000
0001
0010
0001
1000
0100
0010
0001
1000
,
0010
1000
0010
0100
0001
1000
0001
0010
0100
1000
0100
0010
0001
0100
0010
1000
,
0001
0010
0001
0100
0010
1000
0100
0010
0001
1000
0100
1000
0010
0100
0010
1000
,
0001
0010
0001
0100
0010
1000
0001
0010
0001
0100
0010
1000
0010
0100
0001
1000
,
0001
0100
0010
1000
0100
0010
0001
0010
0100
1000
0001
0100
0001
1000
0010
0100
,
0010
1000
0001
0010
0001
0100
0010
1000
0010
0100
0001
1000
0001
0010
0100
1000
,
0100
0010
0001
1000
0001
0100
0010
0100
0001
1000
0100
1000
0001
0010
0001
1000
,
0100
0010
0001
0100
0010
1000
0010
0100
0001
0010
0001
1000
0100
0010
0001
1000
,
0010
1000
0001
0100
0010
1000
0001
0010
0001
0100
0010
0100
0001
1000
0001
0100
,
0010
1000
0100
0010
0001
1000
0100
1000
0010
0100
0001
0010
0001
1000
0010
0100
,
0001
1000
0001
0010
0100
1000
0100
0010
0001
0100
0010
1000
0001
0100
0001
1000
,
0100
0010
0001
0100
0010
0100
0001
1000
0001
0010
0100
1000
0010
0100
0001
1000
,
0100
1000
0010
0100
0010
1000
0001
0010
0001
1000
0100
0010
0001
1000
0100
1000
,
0010
0100
0010
1000
0001
0100
0001
0010
0100
1000
0001
0010
0001
1000
0100
0010
,
0001
1000
0100
1000
0010
0100
0001
1000
0001
0010
0100
1000
0001
1000
0010
0100
,
0001
1000
0001
0100
0010
1000
0100
0010
0001
1000
0100
1000
0010
0100
0001
0010
,
0001
1000
0010
0100
0001
1000
0001
0010
0100
1000
0100
0010
0001
0100
0010
1000
,
0001
0100
0001
1000
0100
0010
0001
0100
0010
0100
0001
1000
0001
0010
0100
1000
,
0010
0100
0001
1000
0100
1000
0010
0100
0010
1000
0001
0100
0001
1000
0010
0000
,
0202
0000
0000
0000
,
1303
0010
1000
0010
1000
0010
0000
0000
0000
0000
0000
0000
0000
0000
0000
0000
0000
0000
0000
0000
0000
0000
0000
0000
0000
0000
0000
0000
0000
0000
0000
0000
;

//---------------dance-single - 2 (science)----------------
#NOTES:
     dance-single:
     2 (science):
     Beginner:
     2:
     0.211,0.187,0.000,0.000,0.000,203.000,0.000,0.000,0.000,0.000:
4000
0000
0000
0000
,
0000
0000
3000
0000
,
0001
0000
0010
0000
,
1000
0000
0010
0000
,
0100
0000
0001
0000
,
0100
0000
1000
0000
,
0010
0000
1000
0000
,
0100
0000
1000
0000
,
0001
0000
0010
0000
,
0100
0000
0010
0000
,
0100
0000
1000
0000
,
0001
0000
0010
0000
,
0001
0000
0010
0000
,
0100
0000
0010
0000
,
1000
0000
0001
0000
,
0100
0000
0010
0000
,
1000
0000
0100
0000
,
1000
0000
0010
0000
,
0100
0000
0001
0000
,
0010
0000
1000
0000
,
0100
0000
0010
0000
,
1000
0000
0001
0000
,
0010
0000
0100
0000
,
0001
0000
0100
0000
,
1000
0000
0010
0000
,
1000
0000
0100
0000
,
0001
0000
0010
0000
,
0100
0000
0001
0000
,
1000
0000
0100
0000
,
1000
0000
0010
0000
,
0100
0000
0001
0000
,
0010
0000
0100
0000
,
0001
0000
1000
0000
,
0100
0000
1000
0000
,
0010
0000
0100
0000
,
0001
0000
0010
0000
,
0001
0000
0100
0000
,
1000
0000
0100
0000
,
0010
0000
0100
0000
,
0001
0000
0010
0000
,
1000
0000
0100
0000
,
1000
0000
0010
0000
,
0100
0000
0001
0000
,
0010
0000
0100
0000
,
1000
0000
0100
0000
,
0010
0000
0100
0000
,
0001
0000
0010
0000
,
1000
0000
0010
0000
,
0100
0000
0001
0000
,
0100
0000
1000
0000
,
0010
0000
1000
0000
,
0100
0000
1000
0000
,
0001
0000
0010
0000
,
0100
0000
0010
0000
,
0100
0000
1000
0000
,
0001
0000
0010
0000
,
0001
0000
0010
0000
,
0100
0000
0010
0000
,
1000
0000
0001
0000
,
0100
0000
0010
0000
,
1000
0000
0100
0000
,
1000
0000
0010
0000
,
0100
0000
0001
0000
,
0010
0000
1000
0000
,
0100
0000
0010
0000
,
1000
0000
0001
0000
,
0010
0000
0100
0000
,
0001
0000
0100
0000
,
1000
0000
0010
0000
,
1000
0000
0100
0000
,
0001
0000
0010
0000
,
0100
0000
0001
0000
,
1000
0000
0100
0000
,
1000
0000
0010
0000
,
0100
0000
0001
0000
,
0010
0000
0100
0000
,
0001
0000
1000
0000
,
0100
0000
1000
0000
,
0010
0000
0100
0000
,
0001
0000
0010
0000
,
0001
0000
0100
0000
,
1000
0000
0100
0000
,
0010
0000
0100
0000
,
0001
0000
0010
0000
,
1000
0000
0100
0000
,
1000
0000
0010
0000
,
0100
0000
0001
0000
,
0010
0000
0100
0000
,
1000
0000
0001
0000
,
1000
0000
0001
0000
,
0010
0000
0100
0000
,
0001
0000
0100
0000
,
1000
0000
0100
0000
,
0010
0000
0100
0000
,
0001
0000
0010
0000
,
1000
0000
0010
0000
,
0100
0000
0001
0000
,
0100
0000
1000
0000
,
0010
0000
1000
0000
,
0100
0000
1000
0000
,
0001
0000
0010
0000
,
0100
0000
0010
0000
,
0100
0000
0001
0000
,
1000
0000
0000
0000
;

//---------------dance-single - 8+ (science)----------------
#NOTES:
     dance-single:
     8+ (science):
     Easy:
     8:
     0.856,0.933,0.058,0.101,0.043,805.000,8.000,14.000,0.000,0.000:

0001
0100
0000
0010
0000
1000
0000
0001
,
0200
0000
0000
0000
0000
0000
0302
0000
0000
0000
0000
0000
0000
0000
0000
0003
0000
0000
2000
0000
0000
0000
3000
0000
0020
0000
0000
0000
0000
0000
0130
0000
0000
0000
0000
0000
0001
0000
0000
0000
0000
0000
0000
0000
0000
0000
0000
0000
,
1000
0010
0100
0001
1001
0010
0100
0001
,
0010
0001
1100
0010
0001
0100
0010
1000
,
0001
0010
0001
1000
0110
1000
0001
0100
,
0010
0100
1001
0100
0010
0001
1000
0010
,
1000
0001
0100
0010
1001
0001
0100
0001
,
1000
0010
0101
1000
0010
1000
0001
0010
,
0100
1000
0001
0010
1001
0100
0010
1000
,
0001
0010
1100
0001
0010
0001
1000
0010
,
1000
0001
0100
0010
1000
0100
1000
0001
,
0010
0100
1000
0001
0010
0001
0100
0010
,
0100
0001
1000
0100
1000
0010
0100
0001
,
0010
0100
1000
0001
0010
0001
0100
0010
,
1000
0100
1000
0001
0100
0001
1000
0010
,
1000
0001
0100
0010
1000
0001
0010
0100
,
1000
0001
1000
0100
0010
0001
1000
0100
,
1000
0001
0010
0001
0100
0010
0100
0001
,
1000
0010
1000
0001
0100
0010
1000
0001
,
0010
0100
1000
0100
0010
0001
1000
0100
,
1000
0001
0010
0100
1000
0010
0100
0001
,
1000
0100
0010
0001
1000
0010
1000
0001
,
0100
0010
0100
0001
1000
0100
1000
0001
,
0010
0001
1000
0010
0100
0001
0100
0010
,
1000
0001
0010
0100
1000
0100
0010
0001
,
1000
0100
1000
0001
0010
0001
1000
0010
,
1000
0001
0100
0001
0010
0100
1000
0010
,
1000
0001
0010
0001
0100
0010
1000
0100
,
1000
0001
0010
0001
1000
0100
0010
0001
,
1000
0100
1000
0010
0100
0001
1000
0010
,
1000
0001
0100
0010
0100
0001
0010
0001
,
1000
0100
1000
0001
0010
0100
1000
0010
,
0100
0001
0000
0010
0000
0100
0000
1000
,
0020
0230
0000
0302
2003
3010
0100
0000
,
1000
0001
0100
0010
1000
0100
1000
0001
,
0010
0100
1000
0001
0010
0001
0100
0010
,
0100
0001
1000
0100
1000
0010
0100
0001
,
0010
0100
1000
0001
0010
0001
0100
0010
,
1000
0100
1000
0001
0100
0001
1000
0010
,
1000
0001
0100
0010
1000
0001
0010
0100
,
1000
0001
1000
0100
0010
0001
1000
0100
,
1000
0001
0010
0001
0100
0010
0100
0001
,
1000
0010
1000
0001
0100
0010
1000
0001
,
0010
0100
1000
0100
0010
0001
1000
0100
,
1000
0001
0010
0100
1000
0010
0100
0001
,
1000
0100
0010
0001
1000
0010
1000
0001
,
0100
0010
0100
0001
1000
0100
1000
0001
,
0010
0001
1000
0010
0100
0001
0100
0010
,
1000
0001
0010
0100
1000
0100
0010
0001
,
1000
0100
1000
0001
0010
0001
1000
0010
,
1000
0001
0100
0001
0010
0100
1000
0010
,
1000
0001
0010
0001
0100
0010
1000
0100
,
1000
0001
0010
0001
1000
0100
0010
0001
,
1000
0100
1000
0010
0100
0001
1000
0010
,
2000
0000
0000
0000
0000
0000
0000
3000
,
0000
0000
0100
0000
1000
0000
0001
0000
0010
0000
0100
0000
1000
0000
0010
0010
,
0100
0010
1000
0001
0010
0001
0100
0010
1000
0100
0010
0001
0100
0001
1000
0010
,
0100
0000
0000
0001
0000
0000
1000
0010
1000
0010
0000
0000
0100
0000
0000
0001
0000
0000
1000
0000
0000
0000
0000
0000
,
0000
0000
0010
0100
0001
0000
0010
0000
0001
0000
0100
0000
0010
0000
1000
0000
,
0100
0010
0001
1000
0100
1000
0010
0100
,
0001
0010
0001
0100
0010
1000
0100
0010
,
0001
1000
0100
1000
0010
0100
0010
1000
,
0001
0100
0010
1000
0001
0010
0001
0100
,
0010
1000
0100
0010
0001
1000
0100
1000
,
0010
0100
0010
1000
0001
0100
0001
1000
,
0010
0100
0001
1000
0100
0010
0001
1000
,
0100
1000
0001
0010
0001
0100
0010
1000
,
0100
0010
0001
1000
0100
1000
0001
0100
,
0010
1000
0000
0100
0000
0010
0000
0001
,
0200
0320
0000
2030
3002
0103
0010
0000
,
0001
0010
0001
0100
0010
1000
0100
0010
,
0001
1000
0100
1000
0010
0100
1000
0100
,
1000
0010
0100
0001
0010
0100
1000
0001
,
0010
0001
0100
0010
1000
0100
1000
0001
,
0100
0001
1000
0010
1000
0001
0100
0010
,
1000
0001
0010
0100
1000
0001
1000
0100
,
0010
0001
1000
0100
1000
0001
0010
0001
,
0100
0010
0100
0001
1000
0010
1000
0001
,
0100
0010
1000
0001
0010
0100
1000
0100
,
0010
0001
1000
0100
1000
0001
0010
0100
,
1000
0010
0100
0001
1000
0100
0010
0001
,
1000
0010
1000
0001
0100
0010
0100
0001
,
1000
0100
1000
0001
0010
0001
1000
0010
,
0100
0001
0100
0010
1000
0001
0010
0100
,
1000
0100
0010
0001
1000
0100
1000
0001
,
0010
0001
1000
0010
1000
0001
0100
0001
,
0010
0100
1000
0010
1000
0001
0010
0001
,
1000
0100
1000
0010
0100
0001
0010
0100
,
1000
0001
0010
0001
0100
0010
1000
0100
,
1000
0001
0100
0001
1000
0010
1000
0001
,
0100
0010
1000
0001
0010
0100
1000
0001
,
1000
0100
0010
0001
1000
0100
1000
0001
,
0010
0001
0100
0010
0100
0001
1000
0010
,
1000
0001
0100
0010
1000
0001
0010
0100
,
1000
0100
0010
0001
1000
0100
1000
0001
,
0010
0100
1000
0010
0100
0001
1000
0100
,
0010
0001
1000
0010
1000
0001
0100
0010
,
0100
0001
1000
0100
1000
0001
0010
0001
,
1000
0010
0100
0001
0100
0010
1000
0001
,
0010
0100
1000
0100
0010
0001
1000
0100
,
1000
0001
0010
0001
1000
0010
1000
0001
,
0100
0001
0010
0100
1000
0010
1000
0001
,
0020
0000
0000
0000
,
0031
0000
0000
0000
;
