#TITLE:Innocent;
#SUBTITLE:;
#ARTIST:m1dy;
#TITLETRANSLIT:;
#SUBTITLETRANSLIT:;
#ARTISTTRANSLIT:;
#CREDIT:Gtreed;
#BANNER:;
#BACKGROUND:innocent-bg.png;
#LYRICSPATH:innocent.lrc;
#CDTITLE:;
#MUSIC:innocent.mp3;
#OFFSET:-0.100;
#SAMPLESTART:100.346;
#SAMPLELENGTH:12.000;
#SELECTABLE:YES;
#BPMS:0.000=350.000,73.000=175.001,89.000=262.500,107.000=233.334,112.000=350.000,176.000=175.000,204.000=87.500,206.000=175.000,234.000=87.500,236.000=349.999,300.000=87.500,308.000=131.250,319.250=349.998,319.503=174.999,332.000=87.499,334.000=174.999,346.000=87.499,348.000=174.999,376.000=87.499,378.000=349.998,442.000=174.999,490.000=349.998,544.000=174.999,547.000=1399.992,555.000=350.001,684.000=699.996,715.000=175.002;
#STOPS:170.500=0.086
,319.500=0.086
,514.250=0.086
,514.750=0.086
,515.250=0.086
,515.750=0.086
,520.750=0.043
;
#BGCHANGES:;
// cache tags:
#FIRSTBEAT:9.000;
#LASTBEAT:798.000;
#SONGFILENAME:Songs/new again/(Gtreed)Innocent/innocent.sm;
#HASMUSIC:1;
#HASBANNER:0;
#MUSICLENGTH:195.007;
// end cache tags

//---------------dance-single - ----------------
#NOTES:
     dance-single:
     :
     Challenge:
     11:
     1.000,1.000,1.000,0.159,1.000,1863.000,444.000,31.000,241.000,1.000:
0000
0000
0000
0000
,
0000
0000
0000
0000
,
0000
0000
0100
0010
1000
0100
0010
1000
,
0100
1000
0010
0001
0010
0100
0010
1000
,
0001
0010
0001
0010
1000
0100
0001
0010
,
0100
1000
0100
0010
1000
0001
0010
0100
,
0010
0001
1000
0010
0100
1000
0001
0010
,
0001
1000
0001
0100
1000
0100
0001
0010
,
0100
0010
1000
0100
1000
0010
0100
0001
,
0010
0100
1000
0100
1000
0010
0100
0001
,
0010
0100
1000
0000
0001
0000
0010
0000
0100
0000
0010
0000
1000
0000
0010
0000
,
0100
0001
0010
0100
1000
0001
0010
0100
,
0001
0010
1000
0100
1000
0010
0001
0010
,
0100
1000
0100
1000
0001
0010
0100
0001
,
1010
0100
1000
0010
0101
0010
1000
0001
,
0010
1000
0100
1000
0010
0100
0001
0010
,
0100
0010
1100
0001
1100
0010
1100
0001
,
1100
0010
1100
0001
1100
0010
1100
0001
,
1100
0001
0010
01M0
1M00
M000
0110
0011
,
0000
0100
0001
0110
0000
1100
0001
0010
,
0100
1000
0010
0100
1000
0000
0011
0110
,
0000
1000
0100
0110
0000
0011
1000
0100
,
0010
0000
0000
0000
0001
0000
0000
0000
1000
0000
0000
0100
0000
0000
0010
0000
0000
0000
0000
0000
1000
0000
0000
0100
0000
0000
0010
0000
0000
1000
0000
0000
,
0100
0000
0000
0010
0000
0000
1000
0000
0000
0001
0000
0000
0010
0000
0000
0100
0000
0000
1000
0000
0000
0011
0000
0000
1000
0000
0000
0100
0000
0000
0010
0000
,
0000
0000
0000
0000
1000
0000
0000
0100
0000
0000
0010
0000
0000
1000
0000
0000
0001
0000
0000
0010
0000
0000
1000
0000
0000
0001
0000
0000
0100
0000
0000
0010
,
0000
0000
0100
0000
0000
1010
0000
0000
0100
0000
0000
0010
0000
0000
0001
0000
0000
0000
0000
0000
0100
0000
0000
0010
0000
0000
0001
0000
0000
1000
0000
0000
,
0010
0000
0000
0000
0000
0000
0000
0000
0000
0000
0000
0000
0000
0000
0000
0000
0000
0000
0100
0000
0000
0000
0000
0000
0000
0000
0000
0000
0000
0000
0000
0000
0000
0000
0000
0000
0001
0000
0000
0000
0000
0000
0000
0000
0000
0000
0000
0000
0000
0000
0000
0000
0000
0000
0010
0000
0000
0000
0000
0000
0000
0000
0000
0000
0000
0000
0000
0000
0000
0000
0000
0000
0100
0000
0000
0000
0000
0000
0000
0000
0000
0000
0000
0000
0000
0000
0000
0000
0000
0000
1000
0000
0000
0000
0000
0000
0000
0000
0000
0000
0000
0000
0000
0000
0000
0000
0000
0000
0100
0000
0000
0000
0000
0000
0000
0000
0000
0000
0000
0000
0000
0000
0000
0000
0000
0000
0011
0000
0000
0000
0000
0000
0000
0000
0000
0000
0000
0000
0000
0000
0000
0000
0000
0000
0100
0000
0000
0000
0000
0000
0000
0000
0000
0000
0000
0000
0000
0000
0000
0000
0010
0000
0000
0000
0000
0000
0000
0000
0000
0000
0000
0000
0000
0000
0000
0000
0100
0000
0000
0000
0000
0000
0000
0000
0000
0000
0000
0000
0000
0000
0000
0000
,
0010
0100
0000
0001
1000
0001
1000
0001
0000
0110
1001
0110
,
1001
0000
1000
0100
0010
0000
0100
0010
,
0001
1000
0010
0100
0001
0010
0100
1000
,
0110
1001
0010
0100
1000
0000
0010
0100
,
1000
0010
0100
0001
1000
0010
0100
0001
,
1010
0101
0010
0001
1000
0000
0010
0001
,
1000
0010
0001
0010
0100
1000
0100
0010
,
1100
0011
0100
0010
0001
0000
0100
0010
,
0001
1000
0010
0100
0001
0010
0100
1000
,
0110
1001
0010
0100
1000
0000
0010
0100
,
1000
0001
0100
0010
1000
0100
0010
0001
,
1100
0011
1000
0010
0001
0000
1000
0010
,
0001
0100
0010
1000
0010
0100
0001
0010
,
1100
0011
0100
1000
0010
0000
0100
1000
,
0010
0100
0001
1000
0100
0010
1000
0001
,
0110
0011
1100
0000
0000
0000
0000
0000
,
0000
0000
0000
0000
,
1001
0010
1000
0010
1000
0000
0011
0100
0010
0100
0010
0000
0101
1000
0001
0000
,
0011
0100
0010
1000
0010
0000
1001
0100
0001
0010
0001
0000
1100
0010
0100
0000
,
1001
0100
1000
0010
0001
0000
1010
0100
1000
0010
0001
0000
1100
0010
0100
0000
,
0011
0100
0010
0001
0000
0000
0110
1000
0100
1000
0010
0000
0101
0010
0001
0000
,
0101
0010
0100
0010
0100
0001
1010
0100
0010
0100
0010
0100
1001
0010
0100
0010
,
1100
0010
0100
0001
1000
0010
1001
0010
1000
0010
0100
1000
0011
1000
0010
1000
,
0011
0100
1000
0010
1000
0010
1001
0010
0100
1000
0010
1000
0011
1000
0010
0100
,
0001
0000
0000
0000
MMMM
MMMM
MMMM
MMMM
MMMM
MMMM
MMMM
MMMM
MMMM
0000
0000
0000
0110
0000
1000
0000
0100
0000
1000
0000
0100
0000
0000
0000
1010
0000
0001
0000
,
1000
0001
1000
0000
0011
0100
0010
0000
1010
0001
1000
0100
1000
0000
0110
0001
,
0010
1000
0010
0000
0101
1000
0001
0000
0110
0001
0100
1000
0010
0000
1100
0001
,
0100
1000
0010
0000
0101
1000
0001
0000
1010
0001
1000
0010
0000
0000
1001
0100
,
0001
0100
1000
0000
0011
1000
0010
0000
0011
1000
0001
1000
0001
0010
1100
0001
,
1000
0001
1000
0001
0110
1000
0001
1000
0101
1000
0001
0010
0100
1000
0110
1000
,
0100
1000
0001
0100
1010
0100
1000
0100
1010
0001
0100
1000
0100
1000
0110
1000
,
0001
0000
0100
0000
1000
0000
0100
0000
1010
0000
0100
0000
1000
0000
0001
0000
0010
0000
0000
0000
MMMM
MMMM
MMMM
MMMM
MMMM
MMMM
MMMM
MMMM
0000
0000
0011
0000
,
1100
0010
0101
1000
0101
0010
1100
0001
,
0110
0001
1010
0100
0011
0100
1010
0001
,
0110
0001
1100
0010
0101
1000
0110
0001
,
1100
0010
1100
0010
0101
1000
0011
0100
,
0001
0010
0100
0010
1000
0001
0010
0100
,
1000
0001
1000
0100
0010
0100
0001
1000
,
0100
0010
0100
1000
0010
0100
0001
0010
,
1000
0100
0010
1000
0100
1000
0010
0100
,
0011
1000
0110
0001
1010
0100
0011
1000
,
0110
0001
1010
0001
1100
0010
0101
1000
,
0011
1000
0110
1000
0011
0100
1001
0010
,
1100
0001
0110
0001
1010
0100
0011
1000
,
0001
0100
0010
1000
0100
0001
0010
0100
,
0010
1000
0100
0001
0010
0100
0001
1000
,
0100
0010
1000
0001
0100
0010
1000
0100
,
0010
0000
1000
0000
0001
0000
0100
0000
1000
0001
0010
1000
0100
0000
0001
0000
,
0110
0000
0000
0100
0000
0000
0100
0000
0001
0000
0010
0000
0100
1000
0010
0100
1000
0000
0000
1000
0000
0000
1000
0000
0100
0000
0010
0000
0001
1000
0100
0010
,
0001
0000
0000
1000
0000
0000
0010
0000
0001
0000
1000
0000
0100
0010
1000
0001
0010
0000
0000
0010
0000
0000
0010
0000
0100
0000
0010
0000
0001
1000
0100
0010
,
1001
0000
0000
0000
0000
0000
0000
0000
0000
0001
0000
0000
0000
0000
0000
0000
0000
0000
1001
0000
0000
0000
0000
0000
0010
0000
0000
0000
0000
0000
0100
0000
0000
1000
0000
0000
0011
0000
0000
0100
0000
0000
0001
0000
0000
0010
0000
0000
1001
0000
0000
0000
0000
0000
0000
0000
0000
0100
0000
0000
0000
0000
0000
0000
,
0000
0000
0011
0000
0000
0000
0000
0000
0100
0000
0000
0000
0000
0000
0010
0000
0000
0001
0000
0000
1010
0000
0000
0100
0000
0000
0010
0000
0000
0100
0000
0000
1001
0000
0000
0000
0000
0000
0000
0000
0000
0010
0000
0000
0000
0000
0000
0000
0000
0000
0101
0000
0000
0000
0000
0000
0010
0000
0000
0000
0000
0000
1000
0000
,
0000
0100
0000
0000
0011
0000
0000
1000
0000
0000
0001
0000
0000
0010
0000
0000
1100
0000
0000
0000
0000
0000
0000
0000
0000
0000
0000
0000
0000
0000
0000
0000
0000
0000
0011
0000
0000
0000
0000
0000
0000
0000
0000
0000
0000
0000
0000
0000
0000
0000
0000
0000
1100
0000
0000
0000
0000
0000
0000
0000
0000
0000
0000
0000
,
1001
0010
1000
0010
1000
0000
0011
0100
0010
0100
0010
0000
0101
1000
0001
0000
,
0011
0100
0010
1000
0010
0000
1001
0100
0001
0010
0001
0000
1100
0010
0100
0000
,
1001
0100
1000
0010
0001
0000
1010
0100
1000
0010
0001
0000
1100
0010
0100
0000
,
MM11
MM00
MM00
MM00
MM10
MM00
MM00
MM00
MM01
MM00
MM00
MM00
MM10
MM00
MM00
MM00
MM11
0000
0100
0000
0001
0000
0100
0000
0001
0000
0100
0000
1010
0000
0100
0000
,
0010
0100
0010
0100
1010
0001
1000
0001
0110
1000
0010
1000
0010
1000
0110
0001
,
0100
0001
0100
0001
1010
0100
0010
0100
1010
0100
0001
0010
0001
0010
1001
0100
,
0001
0010
1000
0100
1001
0010
1000
0001
11MM
0000
MM11
0000
11MM
0000
MM11
0000
,
1001
0100
0010
0001
0100
0000
1010
0001
0100
0010
1000
0000
0101
1000
0010
0000
,
1010
0100
0010
1000
0001
0000
0101
1000
0001
0100
0010
0000
1100
0001
0100
0000
,
1010
0100
0010
0001
0100
0000
1010
0001
0100
1000
0001
0000
1100
0001
0010
0000
,
0110
0001
1000
0100
0000
0000
1010
0100
1000
0100
0010
0000
0101
1000
0001
0000
,
1010
0001
0100
0001
0100
0001
1100
0001
0100
0001
0100
1000
0101
0010
0001
1000
,
0110
1000
0100
0010
0001
0010
1001
0010
0100
1000
0010
1000
0110
1000
0100
0010
,
1100
0010
0001
1000
0001
0010
0101
1000
0100
0010
0100
0001
1100
0001
0010
1000
,
0110
0000
0000
0000
0000
0000
0000
0011
1100
0000
0010
0000
0101
0000
1000
0000
,
0101
0010
1100
0001
0110
0001
1010
0100
,
0011
0100
1010
0001
0110
0001
1100
0010
,
0101
1000
0110
0001
1100
0010
1100
0010
,
0101
1000
0011
0100
0001
0010
1100
0010
,
1000
0001
1010
0100
1000
0001
1010
0100
,
0010
0100
0011
1000
0100
0010
0101
1000
,
0010
0100
1001
0010
1000
0100
0011
1000
,
0100
1000
0010
0100
0011
1000
0110
0001
,
1010
0100
0011
1000
0110
0001
1010
0001
,
1100
0010
0101
1000
0011
1000
0110
1000
,
0011
0100
1001
0010
1100
0001
0110
0001
,
1010
0100
0011
1000
0001
0100
0011
1000
,
0100
0001
1010
0100
0010
1000
0110
0001
,
0010
0100
0011
1000
0100
0010
1100
0001
,
0100
0010
1001
0100
0010
1000
0011
0100
,
1000
0001
0010
1000
0100
0000
0001
0000
0010
0000
0100
0000
1000
0000
0000
0000
,
0110
0011
0000
0100
0001
0110
0000
1100
,
0001
0010
0100
1000
0010
0100
1000
0000
,
0011
0110
0000
1000
0100
0110
0000
0011
,
1000
0100
0010
0001
1010
0100
1000
0000
,
0110
0011
0000
0100
0001
0110
0000
1100
,
0001
0010
0100
1000
0010
0100
1000
0000
,
0011
0110
0000
1000
0100
0110
0000
0011
,
1000
0000
0100
0000
0010
0000
0001
0000
1010
0000
0000
0010
0000
0000
0001
0000
,
0010
0000
0100
0010
1000
0100
0010
1000
0101
0000
0000
0001
0000
0000
0010
0000
,
0100
0000
1000
0100
0010
0001
1000
0100
0011
0000
0000
0100
0000
0000
0010
0000
,
1000
0000
0001
0010
0100
0010
0100
1000
0110
0000
0000
0110
0000
0000
0110
0000
,
1000
0000
0000
0011
1100
0011
1100
0011
1100
0000
0001
0000
0010
0000
1100
0000
,
0001
0100
0011
1000
0100
0010
1100
0001
,
1010
0100
1001
0100
1001
0010
0100
0011
,
1000
0100
0011
1000
0001
0100
0011
1000
,
0110
1000
0011
0100
0011
1000
0100
1001
,
0010
0100
1001
0010
1000
0100
0011
1000
,
0101
0010
1100
0010
1MM1
M11M
1MM1
M11M
,
0100
0010
0100
0010
0100
0010
0100
0010
,
0100
0000
0010
MMMM
0000
0000
1000
0000
0010
0000
0101
0000
1000
0000
0100
0000
,
0011
0100
1010
0001
1100
0001
1010
0100
,
0011
1000
0010
0101
0010
0100
1001
0010
,
0100
0010
1001
0100
1010
0001
0110
1000
,
0101
0010
1000
0101
0010
0100
1001
0010
,
0100
1000
0011
1000
0101
1000
0011
0100
,
0011
0000
0000
0000
0000
0000
0000
0000
0000
0000
0000
0000
MMMM
MMMM
MMMM
MMMM
,
MMMM
MMMM
MMMM
MMMM
MMMM
MMMM
MMMM
MMMM
MMMM
MMMM
MMMM
MMMM
MMMM
MMMM
MMMM
MMMM
,
MMMM
MMMM
MMMM
MMMM
MMMM
MMMM
MMMM
MMMM
MMMM
0000
0000
0000
1100
0000
0010
0000
,
0101
1000
0101
0010
1100
0001
0110
0001
,
1010
0100
0011
0100
1010
0001
0110
0001
,
1100
0010
0101
1000
0110
0001
1100
0010
,
1100
0010
0101
1000
0011
0100
0001
0010
,
1100
0010
1000
0001
1010
0100
1000
0001
,
1010
0100
0010
0100
0011
1000
0100
0010
,
0101
1000
0010
0100
1001
0010
1000
0100
,
0011
1000
0100
1000
0010
0100
0011
1000
,
0110
0001
1010
0100
0011
1000
0110
0001
,
1010
0001
1100
0010
0101
1000
0011
1000
,
0110
1000
0011
0100
1001
0010
1100
0001
,
0110
0001
1010
0100
0011
1000
0001
0100
,
0011
1000
0100
0001
1010
0100
0010
1000
,
0110
0001
0010
0100
0011
1000
0100
0010
,
1100
0001
0100
0010
1001
0100
0010
1000
,
0011
0000
0100
0000
1000
0001
0010
1000
0100
0010
0001
0010
1100
0000
0001
0000
,
1100
0010
1100
0001
1010
0100
1001
0100
,
0011
1000
0101
1000
0011
0100
1001
0100
,
1010
0001
1100
0010
1001
0100
1010
0001
,
1010
0001
1100
0010
0101
1000
0100
0001
,
1010
0001
0010
0100
0011
1000
0010
0100
,
0011
1000
0001
1000
0101
0010
1000
0001
,
1100
0010
0001
1000
0110
0001
0010
1000
,
0101
0010
1000
0010
0001
1000
0101
0010
,
1001
0100
0011
1000
0101
0010
1001
0100
,
0011
0100
1010
0001
1100
0010
0101
0010
,
1001
0010
0101
1000
0110
0001
1010
0100
,
1001
0100
0011
1000
0101
0010
0100
1000
,
0101
0010
1000
0100
0011
1000
0001
1000
,
0110
0001
1010
0100
0011
1000
0101
0010
,
1100
0001
1100
0010
1001
0100
0011
1000
,
0011
0100
1010
0001
1100
0001
1100
0010
,
2000
3020
0230
0302
,
2003
3200
2300
3020
,
0032
0203
0320
2030
,
3200
0302
0023
0230
,
0302
2003
3200
2300
,
3020
0230
0302
0023
,
0230
2300
3020
0032
,
2003
0000
0000
0000
3020
0000
0000
0000
0230
0000
0000
0000
0311
0000
0000
0110
,
0000
0000
1100
0000
0000
0110
0000
0000
0101
1000
0001
1000
0011
0100
0001
0100
,
0001
0100
1010
0100
0010
0100
0010
0100
1001
0100
1000
0100
0011
1000
0010
1000
,
0010
1000
0110
1000
0100
1000
0100
1000
0101
1000
0001
1000
0110
0001
0010
0001
,
0010
0001
1100
0001
0100
0001
0100
0001
1010
0001
1000
0001
1010
0001
0010
0001
,
0010
0001
1100
0001
1000
0001
1000
0001
0110
0001
0100
0001
1010
0100
1000
0100
,
1000
0100
1001
0100
0001
0100
0001
0100
0011
0100
0010
0100
1001
0010
1000
0010
,
1000
0010
0101
0010
0001
0010
0001
0010
1100
0010
0100
0010
1001
0100
0001
0100
,
0001
0100
1010
0100
0010
0100
0010
0100
1001
0100
1000
0100
0011
1000
0010
1000
,
0010
1000
0110
1000
0100
1000
0100
1000
0101
1000
0001
1000
0110
0001
0010
0001
,
0010
0001
1100
0001
0100
0001
0100
0001
1010
0001
1000
0001
1100
0010
1000
0010
,
1000
0010
0101
0010
0100
0010
0100
0010
1001
0010
0001
0010
1100
0001
0100
0001
,
0100
0001
0110
0001
0010
0001
0010
0001
1010
0001
1000
0001
0110
1000
0100
1000
,
0100
1000
0011
1000
0010
1000
0010
1000
0101
1000
0001
1000
0101
1000
0100
1000
,
0100
1000
0011
1000
0001
1000
0001
1000
0110
1000
0010
1000
0101
0010
0001
0010
,
0001
0010
1001
0010
1000
0010
1000
0010
1100
0010
0100
0010
1001
0100
0001
0100
,
0001
0100
1010
0100
1000
0100
1000
0100
0011
0100
0010
0100
0011
1000
0100
1000
,
0100
1000
0011
1000
0001
1000
0001
1000
0110
1000
0010
1000
0101
0010
1000
0100
,
0010
1000
0001
0010
0100
1000
0010
0100
0001
1000
0100
0010
0001
1000
0100
1000
,
0010
0100
0001
1000
0100
0010
0100
1000
0001
0010
0100
0001
1000
0100
0010
1000
,
0001
0100
0010
1000
0001
0100
0010
0001
1000
0100
1000
0001
1010
0100
0010
1000
,
0001
0100
1010
0001
0100
0001
0100
0001
1010
0000
0000
0000
0000
0000
0000
0000
;
