#TITLE:Super Heroes;
#SUBTITLE:Feels The Arrow;
#ARTIST:Daft Punk;
#TITLETRANSLIT:;
#SUBTITLETRANSLIT:;
#ARTISTTRANSLIT:;
#CREDIT:Ov3rHell3XoduZ;
#BANNER:../bn.png;
#BACKGROUND:../bg.png;
#LYRICSPATH:;
#CDTITLE:;
#MUSIC:Daft Punk - Superheroes.ogg;
#OFFSET:-0.649;
#SAMPLESTART:43.366;
#SAMPLELENGTH:11.980;
#SELECTABLE:YES;
#BPMS:0.000=140.870;
#STOPS:;
#BGCHANGES:;
// cache tags:
#FIRSTBEAT:2.000;
#LASTBEAT:552.500;
#SONGFILENAME:Songs/EXoduz' Feels The Arrow/SuperHeroes - [Ov3rHell3XoduZ]/Daft Punk - Superheroes.sm;
#HASMUSIC:1;
#HASBANNER:1;
#MUSICLENGTH:237.994;
// end cache tags

//---------------dance-single - Ov3rHell3XoduZ----------------
#NOTES:
     dance-single:
     Ov3rHell3XoduZ:
     Challenge:
     12:
     0.962,0.987,0.408,0.655,1.000,1350.000,97.000,156.000,19.000,0.000:

0000
0000
MMMM
0000
,
0000
0000
MMMM
0000
,
0000
0000
0000
0000
,
2MMM
3200
0320
0000
,
0031
1000
0100
0010
,
0001
0100
0001
1000
,
0100
1000
0010
0100
,
0001
1000
0001
0010
,
0100
1000
0010
0100
,
0010
1000
0100
0010
,
0001
1000
0001
0100
,
0001
1000
0100
0010
,
0001
0000
2000
0000
0000
3200
0000
0310
,
0001
1000
0002
0000
0000
2003
0000
3001
,
1000
0100
0020
0000
0000
0032
0000
1003
,
0100
1000
0002
0000
0000
0203
0000
0310
,
1000
0001
0020
0000
0000
0230
0000
1300
,
0001
1000
0200
0000
0000
0320
0000
0031
,
1000
0001
0020
0000
0000
0230
0000
1300
,
0001
0100
0020
0000
0000
2030
0000
3100
,
0010
0001
0020
0000
0000
0230
0000
1300
,
0001
1000
0200
0000
0000
0320
0000
0031
,
1000
0001
2000
0000
0000
3020
0000
0130
,
0001
0010
0002
0000
0000
2003
0000
3100
,
0010
0001
2000
0000
0000
3020
0000
0130
,
0001
0100
0002
0000
0000
0023
0000
0130
,
1000
0001
0200
0000
0000
0320
0000
1030
,
0100
1000
0020
0000
0000
0230
0000
0301
,
0110
0100
1100
1000
1010
0010
0101
0100
,
0110
0010
1010
1000
1100
0100
0011
0001
,
0101
0100
0110
0010
1010
0100
0101
0001
,
0011
0100
1100
1000
1010
0010
0110
0001
,
0011
0010
0110
0100
1100
1000
1010
0100
,
0101
0001
0011
0010
0110
1000
1010
0100
,
0101
0001
0011
0010
0110
0100
1100
1000
,
1001
0100
0110
0010
1010
1000
0110
0010
,
0011
0001
1001
1000
1010
0100
0101
0001
,
0011
0010
0110
1000
1010
0100
0101
0001
,
0011
0100
1100
0001
0101
0100
0110
0010
,
1010
0100
0101
0001
0011
0100
1100
1000
,
1001
0001
0110
0010
1010
1000
1100
0010
,
0011
0001
0101
0010
1010
1000
1100
0100
,
0110
0001
0101
0100
0110
0010
1010
0100
,
0101
0001
0011
0100
1100
1000
1010
0010
,
0101
0000
0001
0000
0010
0100
1000
0001
0100
0001
2000
0000
0000
0000
3100
0000
,
0010
0000
0001
0000
1000
0010
0100
0001
0010
0001
0020
0000
0000
0000
0130
0000
,
1000
0000
0001
0000
0100
0010
1000
0100
1000
0100
0020
0000
0000
0000
0031
0000
,
1000
0000
0100
0000
0010
0001
0100
0001
1000
0100
0020
0000
0000
0000
0031
0000
,
1000
0000
0100
0000
1000
0010
1000
0100
0010
0001
2000
0000
0000
0000
3100
0000
,
0010
0000
0001
0000
0100
0010
1000
0001
0010
0001
0020
0000
0000
0000
0130
0000
,
1000
0000
0001
0000
0100
0010
1000
0100
0010
0001
2000
0000
0000
0000
3100
0000
,
1000
0000
0010
0000
0100
0001
0010
0001
0010
0100
2000
0000
0000
0000
3001
0000
,
0100
0001
0020
0000
0000
0230
0000
1300
,
0001
1000
0200
0000
0000
0320
0000
0031
,
0100
0001
0020
0000
0000
0230
0000
1300
,
0001
1000
0200
0000
0000
0320
0000
0031
,
1000
0010
0200
0000
0000
0302
0000
0013
,
0100
1000
0002
0000
0000
0203
0000
0310
,
1000
0001
0020
0000
0000
0230
0000
1300
,
0001
1000
0200
0000
0000
0320
0000
0031
,
1000
0100
0010
0001
1000
0001
0100
0001
0010
0001
0010
0100
1000
0010
0100
0010
,
1000
0100
1000
0100
0010
0001
1000
0001
0100
0001
0010
0100
1000
0010
1000
0001
,
0100
0010
1000
0001
0010
0001
0010
0100
1000
0001
0100
0001
1000
0100
0010
0001
,
1000
0100
1000
0010
0100
0001
0010
0001
1000
0100
0010
0001
1000
0010
0100
0001
,
1000
0100
1000
0001
0010
0100
1000
0001
0100
0001
1000
0100
0010
0001
1000
0010
,
1000
0001
0100
0010
1000
0001
0010
0100
1000
0001
0100
0001
1000
0100
0010
0100
,
1000
0001
0010
0001
1000
0010
0100
0001
1000
0100
1000
0001
0010
0100
1000
0001
,
0100
0001
1000
0010
0100
0001
1000
0001
0010
0100
1000
0010
0100
0010
1000
0100
,
1000
0001
0010
0100
1000
0001
0100
0001
0010
0100
0010
0001
1000
0100
1000
0100
,
0010
0001
1000
0010
0100
0001
1000
0001
1000
0100
1000
0010
0100
0001
1000
0001
,
1000
0100
0010
0001
1000
0010
0100
0001
0010
0001
0010
0100
1000
0010
0100
0010
,
1000
0100
0010
0001
1000
0001
0100
0001
0010
0001
1000
0100
0010
0001
1000
0100
,
1000
0010
0100
0001
1000
0001
0010
0001
0010
0100
1000
0010
0100
0001
1000
0100
,
1000
0001
1000
0010
0100
0001
0010
0001
0100
0001
1000
0001
0010
0001
0010
0100
,
1000
0010
0100
0010
1000
0100
0010
0001
1000
0001
0100
0001
0010
0100
0010
0001
,
1000
0100
0010
0100
1000
0001
0100
0001
1000
0010
0100
0010
1000
0100
0010
0001
,
1000
0100
1000
0010
0100
0010
1000
0100
0010
0001
1000
0001
0100
0001
0010
0001
,
0010
0100
1000
0010
0100
0010
1000
0100
0010
0001
1000
0001
0100
0001
0010
0001
,
0010
0100
1000
0010
0100
0010
1000
0100
1000
0001
0010
0100
1000
0001
0100
0001
,
0010
0100
1000
0001
0100
0001
1000
0100
1000
0100
0010
0001
0010
0001
1000
0010
,
1000
0010
0100
0001
0100
0001
1000
0001
1000
0001
0010
0100
1000
0001
0100
0001
,
1000
0100
0010
0001
1000
0010
1000
0010
0100
0001
0010
0100
0010
0001
1000
0010
,
0100
0010
1000
0100
0010
0001
0100
0010
0100
0001
0010
0100
1000
0001
0100
0001
,
0010
0100
1000
0001
0100
0001
1000
0100
1000
0100
0010
0001
1000
0010
0100
0001
,
0010
0000
0100
1000
0001
0100
0001
1000
0100
0010
0001
1000
0001
0010
0100
1000
,
0000
0000
1000
0001
0100
0001
1000
0100
0010
0001
1000
0001
0010
0100
1000
0001
,
0000
0000
0001
0100
0001
1000
0100
1000
0100
0010
0001
1000
0010
0100
0001
0010
,
0000
0000
0010
0100
1000
0001
0100
0001
1000
0100
1000
0100
0010
0001
1000
0001
,
0000
0000
0001
0100
0001
1000
0100
1000
0010
0100
0001
1000
0001
0010
0100
1000
,
0000
0000
1000
0010
0100
0010
1000
0100
0010
0001
1000
0001
0100
0001
0010
0001
,
0000
0000
0001
0100
0001
0010
0100
1000
0010
0100
0010
1000
0100
0010
0001
1000
,
0000
0000
1000
0100
1000
0001
0010
0100
1000
0001
0100
0001
1000
0100
0010
0001
,
2000
3200
2300
3002
,
0203
0320
2030
3002
,
0023
0230
2300
3002
,
0203
0302
2003
3200
,
0320
0032
2003
3020
,
2030
3002
0203
0320
,
2030
3002
0023
0230
,
2300
3002
0203
0302
,
1003
0100
0010
0001
1000
0001
0100
0001
0010
0100
1000
0010
0100
0010
1000
0100
,
0000
0000
0010
0001
0100
0001
0010
0100
1000
0001
0100
0001
1000
0100
0010
0001
,
0000
0000
1000
0100
1000
0001
0100
0001
0100
0010
1000
0100
0010
0001
1000
0001
,
0000
0000
0010
0100
1000
0001
0100
0001
1000
0100
0010
0001
1000
0010
0100
0001
,
0000
0000
1000
0100
1000
0001
0010
0100
1000
0001
0100
0001
1000
0100
0010
0001
,
0000
0000
1000
0100
1000
0010
1000
0010
0100
0001
0010
0001
0010
0100
1000
0001
,
0000
0000
0100
0001
0010
0100
1000
0001
0100
0001
1000
0100
1000
0100
0010
0001
,
0000
0000
1000
0010
1000
0100
0010
0001
1000
0001
0100
0001
0100
0010
1000
0001
,
0022
0033
0220
0330
2200
3300
2002
3003
,
0202
0303
2020
3030
0220
0330
0202
0303
,
0022
0033
0220
0330
2200
3300
2020
3030
,
0202
0303
2200
3300
0220
0330
0022
0033
,
0202
0303
2020
3030
0022
0033
0220
0330
,
2200
3300
2020
3030
0202
0303
2002
3003
,
2200
3300
0022
0033
0202
0303
0220
0330
,
2020
3030
0202
0303
0022
0033
0220
0330
,
1000
0100
0010
0001
1000
0001
0100
0001
0010
0100
1000
0010
1000
0010
0100
0001
,
0000
0000
0010
0100
1000
0001
0100
0001
0010
0100
1000
0010
0100
0010
1000
0100
,
0000
0000
0010
0001
0010
0001
1000
0100
0010
0001
0010
0001
1000
0100
0010
0001
,
0000
0000
1000
0010
1000
0010
0100
0010
1000
0100
0010
0001
1000
0001
0100
0010
,
0000
0000
1000
0100
1000
0001
0010
0001
0010
0100
1000
0001
0100
0001
1000
0100
,
0000
0000
0010
0100
1000
0010
0100
0010
1000
0100
0010
0001
1000
0001
0100
0010
,
0000
0000
1000
0100
1000
0001
0010
0001
0010
0100
1000
0010
0100
0010
1000
0100
,
0000
0000
0010
0001
1000
0001
0100
0001
0010
0001
0010
0100
1000
0010
0100
0001
,
0010
0100
1000
0001
0100
0001
1000
0100
1000
0100
0010
0001
1000
0001
1000
0010
,
1000
0001
1000
0001
0100
0001
0010
0001
0010
0100
1000
0010
0100
0010
1000
0100
,
1000
0100
0010
0001
1000
0010
0100
0001
0010
0001
0010
0100
1000
0010
0100
0010
,
1000
0100
0010
0001
0010
0001
1000
0100
1000
0001
0010
0001
0010
0100
1000
0010
,
0100
0010
1000
0100
0010
0001
1000
0001
0100
0001
0010
0001
0010
0100
1000
0010
,
0100
0010
1000
0100
0010
0001
1000
0001
0100
0001
1000
0100
1000
0100
0010
0001
,
1000
0000
0100
0010
0001
0100
0001
0010
0100
1000
0001
0100
0001
1000
0100
0010
,
000M
0000
0001
0100
0001
0010
0001
0010
0100
1000
0010
0100
0010
1000
0100
0010
,
000M
0000
0001
0100
0001
0010
0100
1000
0001
0100
0001
1000
0100
1000
0100
0010
,
000M
0000
0001
0100
0001
1000
0100
0000
0010
0001
1000
0001
0100
0000
0010
1000
,
0100
1000
0001
0000
0010
0100
1000
0100
0010
0000
0001
0100
0001
1000
0100
0000
,
0010
0001
1000
0001
1000
0000
0010
0100
0001
0010
0100
0000
1000
0001
0100
0001
,
1000
0000
0100
1000
0100
0010
0001
0000
1000
0010
1000
0010
0100
0000
0001
0010
,
0001
0010
0100
0000
1000
0001
0100
0001
2000
0000
0M00
0000
0M00
0000
0M00
0000
,
3M00
0M00
0000
0000
0000
0000
0000
0000
;
