#TITLE:The Prototype;
#SUBTITLE:;
#ARTIST:Dimrain47;
#TITLETRANSLIT:;
#SUBTITLETRANSLIT:;
#ARTISTTRANSLIT:;
#CREDIT:;
#BANNER:The Prototype.jpg;
#BACKGROUND:The Prototype-bg.jpg;
#LYRICSPATH:;
#CDTITLE:!macTitle.png;
#MUSIC:The Prototype.mp3;
#OFFSET:-0.040;
#SAMPLESTART:99.680;
#SAMPLELENGTH:12.000;
#SELECTABLE:YES;
#BPMS:0.000=175.000,96.000=87.500,112.000=175.000,335.000=87.500,337.000=175.000;
#STOPS:335.000=0.345
;
#BGCHANGES:;
// cache tags:
#FIRSTBEAT:0.000;
#LASTBEAT:448.000;
#SONGFILENAME:Songs/Fabulously Fresh Flock of Fantastic Files F5/(macgravel) The Prototype/The Prototype.sm;
#HASMUSIC:1;
#HASBANNER:1;
#MUSICLENGTH:160.530;
// end cache tags

//---------------dance-single - ----------------
#NOTES:
     dance-single:
     :
     Hard:
     11:
     1.000,1.000,0.779,0.417,1.000,1391.000,125.000,67.000,0.000,0.000:

1000
1000
0100
0010
0001
0100
0010
0100
,
0001
0010
0100
1000
0010
1000
0100
0010
,
0100
0100
0010
0001
0100
0010
0100
0001
,
1000
0010
0100
0001
0010
0100
1000
0010
,
1100
0100
0110
0010
0011
0001
0011
0010
,
0110
0000
0100
0000
1100
0000
1000
0000
1100
0000
1000
0000
0110
0000
0001
0010
,
0100
1000
0011
1000
0011
0100
0110
1001
,
0110
0000
0100
0000
1100
0000
0010
0000
1001
0000
0010
0000
1000
0100
0010
0001
,
1000
0100
1000
0100
1000
0100
1000
0100
1000
0100
1000
0100
1000
0100
1000
0100
,
1000
0100
1000
0100
1000
0100
1000
0100
0010
0001
0010
0001
0010
0001
0010
0001
,
0100
0010
0100
0010
0100
0010
0100
0010
0100
0010
0100
0010
0100
0010
0100
0010
,
1000
0001
1000
0001
1000
0001
1000
0001
1000
0001
1000
0001
0200
0320
2030
3020
,
0230
0301
0010
0001
0010
0001
0010
0001
0010
0001
0010
0001
0010
0001
0010
0001
,
0010
0001
0010
0001
0010
0001
0010
0001
1000
0010
1000
0010
1000
0010
1000
0010
,
0100
0001
0100
0001
0100
0001
0100
0001
0100
0001
0100
0001
0100
0001
0100
0001
,
1000
0100
1000
0100
1000
0100
1000
0100
1000
0000
0100
0000
1000
0000
0100
0000
,
1000
0100
0010
0001
0100
0010
0100
0001
0010
0100
0010
0100
0010
0100
1000
0010
,
1000
0100
1000
0010
0100
0001
0100
0010
0100
0001
0010
0100
1000
0010
1000
0001
,
0100
0010
0100
0001
0010
0100
0010
0001
1000
0100
1000
0010
1000
0100
0010
0001
,
0100
0010
0100
0001
0010
0100
0010
0001
0010
0100
1000
0010
2000
3200
2300
3020
,
2030
3001
0100
0010
0100
0001
0010
0100
0010
0001
1000
0100
1000
0010
0100
0001
,
0010
0100
0010
0001
1000
0100
1000
0010
1000
0100
0010
0001
1000
0100
0010
0001
,
0100
0010
0100
0001
0010
0100
1000
0010
1000
0100
1000
0010
0100
0001
0100
0010
,
0100
0001
0010
0100
1000
0010
1000
0100
0010
0001
0100
0010
0100
0001
1000
0010
,
1001
0100
0010
0000
0001
0010
0100
0000
1000
0010
1000
0000
0100
0010
0001
0100
0010
0000
0100
0000
0001
0010
0100
0000
1000
0010
1000
0000
0100
1000
0010
0000
,
1000
0100
0010
0000
0001
0100
0010
0000
0100
0001
0010
0000
0001
0010
0100
0010
0001
0010
0001
0000
0010
0100
0010
0000
0100
1000
0010
0000
1000
0100
0010
0001
,
0100
0010
1000
0000
0001
0010
0001
0000
0010
0100
0010
0000
0100
1000
0010
1000
0100
0010
0001
0000
0100
0010
0100
0000
0001
0010
0001
0000
0010
0100
1000
0000
,
0010
1000
0010
0000
0100
0010
0100
0000
0001
0010
0001
0000
0010
0100
1000
0010
1000
0100
1000
0000
0010
0100
0001
0000
1000
0001
1000
0000
0001
0000
0100
0010
,
1000
0000
0000
0000
0110
0000
0000
0000
0011
0000
0000
0000
0201
0300
0020
0030
,
1002
0003
0000
0000
0110
0000
0000
0000
0101
0000
0000
0000
1002
0003
0000
0000
,
2010
3000
0000
0000
0101
0000
0000
0000
1010
0000
0000
0000
0110
0000
0000
0000
,
1020
0030
0000
0000
1100
0000
0000
0000
2010
3000
0200
0300
1020
0030
0002
0003
,
1020
0030
0000
0000
0101
0000
0000
0000
0110
0000
0000
0000
1001
0000
0200
0300
,
1020
0030
0000
0000
0110
0000
0002
0003
0201
0300
0020
0030
0201
0300
0002
0003
,
0021
0030
0000
0000
1001
0000
0000
0000
0110
0000
0000
0000
0101
0000
0200
0300
,
2010
3000
0020
0030
1200
0300
0002
0003
0120
0030
0200
0300
0001
1000
0001
1000
,
0001
0000
0101
1000
0001
1000
1001
0010
,
0000
1000
0101
0100
1000
0001
1010
0100
,
1000
0001
0110
0010
0100
0100
1001
0001
,
1000
0000
0010
0000
0110
0000
0001
0000
2002
3003
0110
0000
2002
3003
0110
0000
,
1001
0000
0001
1000
0001
0000
1000
0010
1000
0000
0100
0000
0110
0000
0001
0000
,
0100
0010
0101
0001
0010
0100
1010
0010
,
1000
0000
0100
1000
0100
0000
1000
0010
1000
0000
0100
0000
0011
0000
0001
0000
,
1000
0000
0010
0000
0101
0000
0001
0000
2000
3000
0002
0003
2000
3000
0002
0003
,
1000
0001
1000
0001
1000
0001
1000
0001
1000
0001
1000
0001
1000
0001
1000
0001
,
1000
0001
1000
0001
1000
0001
1000
0001
0100
0010
0100
0010
0100
0010
0100
0010
,
1000
0100
1000
0100
1000
0100
1000
0100
1000
0100
1000
0100
1000
0100
1000
0100
,
0010
0001
0010
0001
0010
0001
0010
0001
0010
0001
0010
0001
2000
3200
0320
0230
,
2300
3010
0100
0010
0100
0010
0100
0010
0100
0010
0100
0010
0100
0010
0100
0010
,
0100
0010
0100
0010
0100
0010
0100
0010
1000
0001
1000
0001
1000
0001
1000
0001
,
0010
0100
0010
0100
0010
0100
0010
0100
0010
0100
0010
0100
0010
0100
0010
0100
,
1000
0010
1000
0010
1000
0010
1000
0010
1000
0000
0010
0000
1000
0000
0010
0000
,
1000
0100
0010
0001
0100
0010
0100
0001
0010
0100
0010
0001
0010
0100
1000
0010
,
1000
0010
0100
0001
0100
0010
0100
0001
0010
0100
1000
0010
1000
0100
0010
0001
,
0100
0010
0100
0001
0010
1000
0010
0001
0100
0010
0100
0001
0010
0100
1000
0010
,
1000
0100
1000
0010
0100
0001
0100
0010
0100
0001
0010
0100
2000
3020
0230
0320
,
2030
3001
0100
0010
0100
0001
0010
0100
1000
0010
1000
0001
0100
0010
0100
0001
,
0010
0100
1000
0010
1000
0100
1000
0001
1000
0010
0100
0001
0100
0010
0100
0001
,
0010
0100
0010
0001
0100
0010
0100
0001
0010
0100
1000
0010
1000
0001
0100
0010
,
0100
0001
0010
1000
0010
0001
0100
0010
1000
0000
0001
0000
1000
0000
0001
0000
,
1000
0010
1000
0100
1000
0010
1000
0100
0010
0001
0100
0010
0100
0001
0010
0100
,
0010
0001
0100
0010
0100
0001
0010
0100
1000
0010
1000
0001
0100
0010
0100
0001
,
0010
0100
1000
0010
1000
0100
1000
0010
1000
0001
0100
0010
0100
0001
0010
0100
,
0010
0001
0010
0001
0100
0001
1000
0010
0100
0010
1000
0100
0010
0001
0100
0001
,
1000
0010
0100
0001
0010
0100
1000
0010
1000
0001
0100
0010
0100
0001
0010
0100
,
0010
0001
1000
0010
1000
0100
1000
0010
0100
0001
0100
0010
0100
0001
0010
0100
,
0010
0100
1000
0010
1000
0001
0100
0010
0100
0001
0010
0100
1000
0010
1000
0001
,
0100
0010
0100
0001
0100
0010
0100
0001
0010
0100
0010
0001
1000
0100
1000
0010
,
1000
0100
1010
0001
0101
0010
1100
0001
,
0110
0100
1001
0010
1010
0000
1100
0010
,
0101
0100
0011
0100
1001
0010
0110
1000
,
0011
1000
0101
0100
1010
1000
0101
0100
,
1010
1000
0011
0100
1010
0100
0101
0010
,
0101
1000
0110
1000
0101
0000
1001
0010
,
0110
0100
0011
0010
0101
1000
0110
1000
,
0101
0000
1000
0000
1010
0000
0100
0000
0101
0000
0100
0000
0002
2003
3002
2003
,
3002
0003
0110
0000
0100
0000
0001
0000
1100
0000
1100
0000
0010
0000
1000
0000
,
0101
0101
0100
0001
0110
0110
1000
0010
,
0101
0101
0010
1000
1100
1100
0010
0100
,
0101
0101
0010
0100
0011
0011
0100
0010
,
1001
1001
0010
0100
0110
0110
0001
0010
,
0110
0110
0100
1000
1010
1010
0010
1000
,
1100
1100
0100
0010
0011
0011
0001
0100
,
0101
0101
0010
0100
0110
0110
0010
2000
,
0000
0000
0000
0000
3001
0010
0100
1000
0010
1000
0100
0010
0001
0100
0010
0100
,
0001
0010
0100
0010
0100
1000
0010
1000
0001
0100
0010
0100
0001
0010
0100
1000
,
0010
1000
0001
0100
0010
0100
0001
0010
0001
0010
0100
0010
0100
1000
0010
1000
,
0100
1000
0010
0100
0001
0100
0010
0100
0001
0010
0100
1000
0010
1000
0001
0100
,
0020
0230
0302
0023
0230
1300
0010
1000
0001
0100
0010
0100
0001
0010
0100
1000
,
0010
1000
0100
1000
0010
0100
0001
0100
0010
0100
0001
0010
0100
0010
0001
0010
,
0100
1000
0010
1000
0001
0100
0010
0100
0001
0010
0100
1000
0001
0010
0100
1000
,
0100
1000
0001
0010
0001
0100
0010
0100
0001
0010
0100
1000
0010
1000
0100
1000
,
0010
0100
0001
0100
0010
1000
0001
1000
0010
0100
0001
0010
0100
1000
0010
1000
,
0001
0100
0010
0100
0001
0010
0001
0010
0100
0010
0100
0010
0100
1000
0100
1000
,
0010
1000
0010
0100
0010
0100
0001
0010
0100
1000
0010
1000
0001
0100
0010
0100
,
0001
0010
0100
1000
0010
1000
0100
1000
0010
0100
0001
0010
0100
0010
0001
0010
,
0100
1000
0010
1000
0001
0100
0010
0100
0001
0010
0100
0010
0001
1000
0010
1000
,
0100
1000
0010
0100
0001
0100
0010
0100
0001
0010
0100
0010
0001
1000
0010
1000
,
0001
0100
0010
0100
0001
0010
0100
1000
0010
1000
0100
1000
0010
1000
0100
0010
,
0001
0100
0010
0100
0001
0010
0100
0010
0001
0100
0010
1000
0001
1000
0010
1000
,
0100
1000
0010
1000
0100
0010
0100
0010
0100
0010
0100
0010
0100
0010
0100
0010
,
0100
0010
0100
0010
0100
0010
0100
0010
0100
0010
0100
0010
0001
1000
0001
1000
,
0001
1000
0001
1000
0010
0100
0010
0100
0010
0100
0010
0100
0010
0100
0010
0100
,
0010
0100
0010
0100
0001
0010
0001
0010
0001
0010
0001
0010
0001
0010
0001
0010
,
0001
0010
0100
1000
0001
0000
0010
0000
0100
0000
1000
0000
0001
0010
0000
0000
,
0000
0000
0000
0000
0000
0000
0000
0000
0000
0000
1000
0000
0001
1000
0010
0000
,
0010
0100
0001
1000
0010
1000
0001
0000
0000
0000
0000
0000
0000
0000
0000
0000
,
0000
0000
0001
0000
1000
0001
1000
0000
0001
0000
0010
0000
0100
1000
0010
0100
,
0001
0010
0100
1000
0001
0010
0100
1000
2002
0000
0000
0000
0000
0000
0000
0000
,
0000
0000
0000
0000
,
0000
0000
0000
0000
,
0000
0000
0000
0000
,
3003
0000
0000
0000
;
