#TITLE:COOL EDITION;
#SUBTITLE:;
#ARTIST:朝倉涼子;
#TITLETRANSLIT:;
#SUBTITLETRANSLIT:;
#ARTISTTRANSLIT:;
#CREDIT:;
#BANNER:;
#BACKGROUND:;
#LYRICSPATH:;
#CDTITLE:;
#MUSIC:cool.mp3;
#OFFSET:-0.660;
#SAMPLESTART:53.440;
#SAMPLELENGTH:12.000;
#SELECTABLE:YES;
#DISPLAYBPM:170.000;
#BPMS:0.000=147.000,324.000=73.550,332.000=294.200,364.000=147.000;
#STOPS:;
#BGCHANGES:;
// cache tags:
#FIRSTBEAT:32.000;
#LASTBEAT:544.250;
#SONGFILENAME:Songs/toune/cool/cool.sm;
#HASMUSIC:1;
#HASBANNER:0;
#MUSICLENGTH:228.762;
// end cache tags

//---------------dance-single - ----------------
#NOTES:
     dance-single:
     :
     Challenge:
     7:
     0.476,0.625,0.323,0.262,0.011,628.000,74.000,60.000,0.000,0.000:
0000
0000
0000
0000
,
0000
0000
0000
0000
,
0000
0000
0000
0000
,
0000
0000
0000
0000
,
0000
0000
0000
0000
,
0000
0000
0000
0000
,
0000
0000
0000
0000
,
0000
0000
0000
0000
,
0001
0100
0020
1000
1030
0100
0010
0000
,
1000
0200
0010
0310
0001
0100
0010
0000
,
1001
0001
0100
0000
1001
1000
0010
0000
,
1200
0310
0201
0310
,
0001
0100
0010
0000
1100
0000
0110
0000
,
0100
0010
0001
0000
1001
0000
0101
0000
,
1000
0001
0100
0010
1000
0100
0001
0000
,
0100
1000
0010
0100
0001
0010
0100
1000
,
1001
0000
0000
0110
0000
0000
0000
0000
0000
0000
0000
0000
0000
0000
0000
0000
,
2000
0000
0000
0000
,
0002
0000
0000
3003
,
0001
0100
0010
0000
0001
0100
0010
0000
,
1000
0001
0100
1000
0100
0001
1000
0000
,
0002
0000
0000
0000
,
2000
0000
0000
3003
,
1000
0100
0010
0000
1000
0100
0010
0000
,
0001
1000
0100
0001
0100
1000
0001
0000
,
0100
1000
0100
0010
0100
0001
0100
0010
,
0100
1000
0100
0001
0100
0010
1000
0000
,
0010
0100
0010
0001
0010
1000
0010
0001
,
0010
0100
0010
1000
0100
0010
0001
0000
,
1000
0100
1100
0000
0100
0001
0101
0000
,
1100
0011
1100
1001
,
0001
0000
0100
0000
0010
0000
0100
0000
0001
0000
0000
1000
0000
0000
0020
0000
,
0200
0000
0000
0330
,
1100
0000
0101
0000
0010
1000
0100
0000
,
0011
0000
1001
0000
0001
0100
0010
0000
,
0010
0100
0010
0001
0010
0100
0010
1000
,
0100
0010
0001
1000
0100
0010
0001
0000
,
2100
0000
3001
0000
0001
0100
0101
0000
,
0001
0000
1001
0000
1000
0100
0110
0000
,
2100
0010
3200
0310
,
0001
1000
0100
1000
0001
0100
0010
0000
,
2000
0001
3002
0203
2300
0100
3100
0000
,
0020
0100
0230
0302
0023
0100
0130
0000
,
0001
0010
0200
1000
1300
0010
0110
0000
,
1000
0001
0200
0010
0310
1000
1100
0000
,
1002
0000
0013
0000
0100
1000
0010
0200
,
0000
0000
0000
0300
,
0001
0010
0001
0010
0100
0010
0100
0010
,
0100
1000
0010
0100
0100
0001
0010
0000
,
0010
0001
0100
0010
0001
0100
0010
0001
,
0100
1000
0001
0100
0001
1000
0010
1000
,
0200
0000
0000
0000
0000
0000
0000
0000
1300
0000
0000
1001
0000
0000
0200
0000
,
0000
0000
0002
0303
,
0001
1000
1100
0000
0001
1000
1100
0000
,
1001
0100
0010
1000
0100
0001
1000
0000
,
2002
0000
0000
3000
,
0200
0000
0000
0303
,
0010
1000
1100
0000
0100
1000
1010
0000
,
0010
0100
0001
0010
0100
1000
0001
0100
,
0010
1000
0010
0001
0010
0100
0010
1000
,
0100
0010
0100
1000
0100
0001
0100
0010
,
0100
1000
0100
0001
0100
1000
0100
0001
,
0100
1000
0010
0001
0010
1000
0100
0000
,
0100
0010
0100
1000
0010
0100
0001
0010
,
0100
0010
0100
1000
0100
0001
0100
2000
,
0002
0000
0000
0000
3003
0000
0000
0000
1001
0000
0000
0101
0000
0000
0220
0000
,
0000
0000
0000
0330
,
0002
0000
0103
0000
2000
0010
3020
0000
,
1000
0000
1030
0000
0100
0010
0001
0000
,
0100
0010
1000
0000
0100
0010
1000
0000
,
1001
0100
0010
0000
1001
0100
1000
0000
,
0002
0103
2000
3100
,
1000
0000
1100
0000
0010
0001
0100
0001
,
1000
0001
0010
0100
1000
0100
1000
0000
,
0001
0100
0010
0100
0001
0010
0100
0000
,
0001
0200
1000
0000
1300
0100
0001
0000
,
1000
0100
0020
0000
0130
1000
0010
0000
,
2100
0000
3001
0000
0001
0100
0010
0000
,
0001
0101
1000
0110
,
0001
0010
0100
1000
0010
0100
0001
0200
,
0000
0000
0000
0300
,
0002
0000
0000
0000
,
0000
0000
0000
0000
,
2000
0000
0000
0000
,
0000
0000
0000
0000
,
0000
0000
0000
0000
,
0000
0000
0000
0000
,
0000
0000
0000
0000
,
0000
0000
0000
0000
,
0000
0000
0000
0000
,
0000
0000
0000
3003
,
0101
0010
1000
1100
,
0010
0001
0100
0000
1100
0000
0101
0000
,
0001
1100
0010
0001
,
1000
0001
0100
0000
0101
0000
1100
0000
,
0001
0100
0010
1000
,
0001
1100
0101
0010
,
0001
1000
0100
0000
0010
0000
0101
0000
,
1000
0001
0100
0000
0010
0000
1001
0000
,
0001
1000
0100
1000
0001
1000
0100
1000
,
0010
0100
0001
0100
0010
0100
0001
0100
,
0010
1000
0100
1000
0010
1000
0100
1000
,
0001
0010
0100
0010
0001
0010
0100
0010
,
0100
1000
0010
0001
0100
1000
0100
0001
,
0100
1000
0010
0100
0010
0001
0100
0001
,
2000
0000
0000
0000
,
3020
0000
0000
0000
,
0230
0000
0000
0000
,
0302
0000
0000
0000
,
0023
0000
0000
0000
,
0000
0000
0000
0000
,
0000
0001
1000
0100
,
0001
0000
0100
0000
1000
0000
0031
0100
,
0010
0000
1100
0000
0010
1000
0100
0000
,
1000
0001
0101
0000
0010
0000
1100
0000
,
0001
1000
0110
0000
1100
0000
0101
0000
,
0001
1000
0100
0000
0100
1000
0010
0100
,
0002
0000
0103
0000
0010
1000
1100
0000
,
1002
0000
0023
0000
0130
1000
0100
0000
,
1000
0001
0100
0000
1000
0001
0010
0000
,
0100
1000
0010
0100
0001
0010
0100
1000
,
0002
0000
0100
0000
1003
0010
0200
0000
,
0010
0000
0301
0100
0001
0010
0100
0000
,
1000
0100
1100
0000
0101
0000
0010
1000
,
1100
0000
0001
0100
0010
1000
0010
0000
,
1000
0010
0100
0001
0010
1000
0010
0002
,
0000
0000
0000
0003
,
1000
0000
1100
0000
0010
0001
0200
0000
,
0310
1000
0010
0000
0100
0000
0101
0000
,
1100
0000
0010
1000
0001
0100
0010
0000
,
0001
1000
0100
0001
0100
1000
0100
0000
,
0010
0000
0011
0000
1001
0010
0100
0000
,
1100
0000
0010
0001
0100
0010
1000
0000
,
0001
0100
1000
0010
0100
0010
0001
0100
,
1000
0100
0010
0001
0010
0100
0001
0100
,
0011
0000
0000
0022
0000
0000
0000
0000
0000
0000
0000
0000
0000
0000
0000
0000
,
0000
0033
0000
0000
0000
0000
0000
0000
0000
0000
0000
0000
0000
0000
0000
0000
;
