#TITLE:Hong Kong Magic;
#SUBTITLE:;
#ARTIST:tiger YAMATO;
#TITLETRANSLIT:;
#SUBTITLETRANSLIT:;
#ARTISTTRANSLIT:;
#CREDIT:;
#BANNER:HongKongMagic-bn.png;
#BACKGROUND:HongKongMagic-bg.png;
#LYRICSPATH:;
#CDTITLE:!joeCDtitle.png;
#MUSIC:tiger yamato - Hong Kong Magic.mp3;
#OFFSET:-0.080;
#SAMPLESTART:40.080;
#SAMPLELENGTH:12.000;
#SELECTABLE:YES;
#BPMS:0.000=150.000;
#STOPS:;
#BGCHANGES:;
// cache tags:
#FIRSTBEAT:0.000;
#LASTBEAT:263.250;
#SONGFILENAME:Songs/Fabulously Fresh Flock of Fantastic Files F5/(-joe-) Hong Kong Magic/HongKongMagic.sm;
#HASMUSIC:1;
#HASBANNER:1;
#MUSICLENGTH:106.874;
// end cache tags

//---------------dance-single - ----------------
#NOTES:
     dance-single:
     :
     Hard:
     12:
     1.000,1.000,1.000,0.505,1.000,698.000,172.000,54.000,0.000,0.000:
1100
0001
0010
0001
1000
0100
1000
0010
,
0100
0010
1000
0001
0010
1000
0001
0100
,
1010
0001
1000
0100
1000
0001
0010
0001
,
1000
0000
0000
0000
0001
0000
0000
0000
1000
0000
0000
0000
0010
0000
0000
0000
1000
0010
0100
0001
1000
0010
0100
0001
1000
0010
0100
0001
1000
0010
0100
0001
,
1010
1000
1000
1000
1001
0001
0001
0001
,
0101
0000
1100
0000
0101
0000
1100
0000
0100
0001
0100
0001
0100
0001
0100
0010
,
1001
0010
1100
0010
2020
3030
1001
0100
,
1000
0010
1001
0100
2200
3300
0110
0001
,
0022
0033
1001
0010
0010
0100
0110
0001
,
2000
0000
3001
0100
0001
0000
1000
0000
0010
0000
1000
0000
1001
0000
1000
0000
,
1001
0001
1100
0010
2002
3003
1001
0010
,
0100
1000
0101
0010
0202
0303
1001
0010
,
0220
0330
1001
0100
1100
1000
0011
0100
,
0001
0000
0001
0100
0011
0000
1001
0000
0100
0100
0010
0010
1000
1000
0001
0000
,
1001
0011
0011
0010
0010
1100
1100
1000
,
0010
0110
0110
0100
1000
0011
0011
0010
,
1000
1100
1100
0010
1000
0011
0011
0001
,
0001
0010
0100
1000
0001
0010
0100
1000
0001
0010
0100
1000
0001
0010
0100
1000
0001
0010
0100
1000
0001
0010
0100
1000
0001
0010
0100
1000
0001
0010
0100
1000
,
0001
0011
1100
0001
1000
1100
0011
0001
,
1000
0100
0010
0001
1000
0100
0010
0001
1000
0100
0010
0001
1000
0100
0010
0001
1000
0100
0010
0001
1000
0100
0010
0001
1000
0100
0010
0001
1000
0100
0010
0001
,
1000
1010
1010
0010
0100
0101
0101
1000
,
0001
0100
0010
1000
0001
0100
0010
1000
0001
0100
0010
1000
0001
0100
0010
1000
0001
0100
0010
1000
0001
0100
0010
1000
0001
0100
0010
1000
0001
0100
0010
1000
,
0001
1000
0001
0000
1100
0000
0001
0000
0001
0000
0010
1000
0001
0000
0011
0000
,
0100
0000
0010
1000
0001
0000
0100
0000
1000
0010
1000
0010
1000
0000
0100
0000
,
0010
0000
1000
0001
0100
0000
1000
0000
1000
0000
0100
0001
0010
0000
1000
0000
,
0100
0000
0100
0001
0100
0000
1000
0000
0002
0000
0000
0003
0002
0000
0000
0000
,
1003
0010
1000
0010
1000
0000
0010
0000
0101
0000
0100
0000
1001
0000
0001
0000
,
1000
0010
0100
0001
1000
0010
0100
0001
1000
0010
0100
0001
1000
0010
0100
0001
1000
0010
0100
0001
1000
0010
0100
0001
1000
0010
0100
0001
1000
0010
0100
0001
,
1000
0001
0100
0001
1000
0000
0010
0000
1001
0000
0010
0000
0110
0000
0100
0000
,
1010
0000
0000
0011
0000
0000
1001
0000
0000
0101
0000
0000
1001
0000
0000
0000
,
2002
0000
3003
1000
0001
1001
1100
0101
,
0110
1010
1001
0101
1010
1001
0110
0101
,
1001
1010
0110
1100
0101
0011
1010
0110
,
0101
0000
0000
0000
1001
0000
0000
0000
0101
0000
0000
0000
0010
0100
0001
1000
0010
0100
0001
1000
0010
0100
0001
1000
0010
0100
0001
1000
0010
0100
0001
1000
,
0010
0100
1010
0001
0101
0010
0101
0100
,
0110
1000
0110
0100
0022
0033
1100
0001
,
0220
0330
1001
1000
0220
0330
0011
1100
,
1010
0000
0002
0203
0320
2030
3002
0023
0032
2003
3200
2300
3020
0230
0302
2003
,
3002
0013
0100
1000
1002
0013
0100
1000
,
1001
0000
0110
0000
1001
0000
0110
0000
1000
0001
1000
0001
1000
0001
1000
0001
,
1100
0010
1000
0010
2020
3030
1000
0100
,
1000
0010
1000
0100
2200
3300
0010
0001
,
0022
0033
0001
0010
0110
0100
1100
0001
,
2000
0000
3001
0100
0001
0000
1000
0000
0001
0100
0001
0100
0010
1000
0010
1000
,
0011
0100
1000
0010
2002
3003
0101
0010
,
0100
1000
1100
0010
0202
0303
1001
0010
,
0220
0330
1001
0100
0010
1000
1010
0100
,
0001
0100
0001
0100
0001
0100
0001
0100
0010
1000
0010
1000
0010
1000
0010
1000
,
0010
1100
1100
0001
0010
0101
0101
0010
,
1000
1010
1010
0010
1000
0011
0011
0001
,
0010
1100
1100
0010
0100
1001
1001
0100
,
0001
0010
0100
1000
0001
0010
0100
1000
0001
0010
0100
1000
0001
0010
0100
1000
0001
0010
0100
1000
0001
0010
0100
1000
0001
0010
0100
1000
0001
0010
0100
1000
,
0001
1001
1100
0001
1000
0110
0011
0010
,
0010
1100
0101
0010
0100
1001
1010
0010
,
1000
1001
1100
0010
0100
1001
0011
1000
,
0001
1000
0001
1000
0001
1000
0001
0000
0000
0000
1100
0000
1100
0000
0010
0000
,
1000
0000
0001
0010
1100
0000
0100
0000
0101
0000
1000
0100
1001
0000
0010
0000
,
1100
0000
0001
0010
1100
0000
0010
0000
0001
1000
0010
0100
0001
1000
0001
0000
,
0110
0000
0100
0010
0101
0000
0010
0000
1001
0000
0001
0100
1010
0000
0010
0000
,
0101
0000
0100
0001
1100
0000
1000
0000
0001
0001
0100
0100
0010
0010
1001
0000
,
1000
0001
1000
0001
1000
0000
0010
0000
0101
0000
0100
0000
1001
0000
0001
0000
,
1010
0001
1001
0001
1010
0010
1001
0010
,
1000
0001
0100
0001
1000
0000
0010
0000
1001
0000
0100
0000
0110
0000
0010
0000
,
0101
0000
0000
1100
0000
0000
1001
0000
0000
1010
0000
0000
0110
0000
0000
0000
,
2002
0000
0000
0000
,
0000
0000
0000
0000
0000
0000
0000
0000
0000
0000
0000
0000
0000
3003
0000
0000
;
