#TITLE:Re-Sublimity;
#SUBTITLE:;
#ARTIST:Kotoko;
#TITLETRANSLIT:;
#SUBTITLETRANSLIT:;
#ARTISTTRANSLIT:;
#CREDIT:;
#BANNER:resublimity.png;
#BACKGROUND:resublimity-bg.png;
#LYRICSPATH:;
#CDTITLE:ddrace.png;
#MUSIC:resublimity.mp3;
#OFFSET:1.580;
#SAMPLESTART:44.444;
#SAMPLELENGTH:12.000;
#SELECTABLE:YES;
#BPMS:0.000=135.000;
#STOPS:;
#BGCHANGES:;
// cache tags:
#FIRSTBEAT:4.000;
#LASTBEAT:232.000;
#SONGFILENAME:Songs/Fresh Flock of Fantastic Files F4/(ddrace) Re-Sublimity/Re-Sublimity.sm;
#HASMUSIC:1;
#HASBANNER:1;
#MUSICLENGTH:104.960;
// end cache tags

//---------------dance-single - ----------------
#NOTES:
     dance-single:
     :
     Hard:
     10:
     0.983,0.857,0.781,0.486,1.000,589.000,82.000,51.000,0.000,0.000:
0000
0000
0000
0000
,
0001
0100
0010
1000
0001
0100
0010
1000
,
0100
0010
0001
1100
0001
0110
1000
1010
,
0100
0001
1000
0010
0110
0001
0101
1000
,
0100
0000
0110
0000
0001
0000
1000
0000
0010
0100
0001
1000
0100
0010
0001
0100
,
0010
1000
0010
0100
0101
0010
1100
0001
,
1000
0001
1000
0000
0010
0100
0001
0000
0100
0010
0100
0001
1000
0010
0100
0000
,
0101
0000
0100
0000
1010
0100
0000
0010
0101
0000
0001
1100
0000
0000
1001
0000
,
0010
0000
0101
0000
0010
0000
1000
0000
0001
1000
0001
1000
0010
0100
0010
0000
,
0001
0000
0100
1010
0000
0100
0101
0000
0001
0100
0010
1000
0100
0000
0202
0000
,
0000
0000
0000
0000
0303
0000
1001
0000
1100
0000
0010
0100
0000
0100
0001
0000
,
1001
0010
0101
0100
1010
0100
1001
0220
,
0000
0000
0330
0000
0001
0000
0100
0000
0010
1000
0001
0100
0010
1000
0100
0000
,
1001
0000
0001
0101
0000
0100
1100
0000
1001
0000
0100
0110
0000
0000
0120
0000
,
0000
0000
1030
0000
0100
0000
0010
0000
1001
0000
0010
0100
0001
1000
0100
0010
,
0002
0000
1003
0010
0200
0301
0010
0100
2000
3010
0100
0001
0200
0310
1000
0100
,
0020
0031
1000
0100
0020
0031
0010
0100
2000
3001
0010
0100
2000
3010
0200
0000
,
0000
0000
0002
0000
0300
0000
0020
0000
0003
0000
0200
0000
0030
0000
1300
0100
,
0001
0100
1000
0010
0001
0010
1000
0100
0001
0100
1000
0010
0001
0010
2000
0000
,
0000
0000
0200
0000
3000
0000
0020
0000
0300
0000
0002
0000
0030
0000
0103
0010
,
0100
0010
1000
0001
1000
0001
0100
0010
0100
0010
1000
0100
0010
0001
2000
0000
,
0000
0002
3000
0200
0003
0020
0000
0000
,
0330
0000
0000
0000
0001
1000
0001
0000
0000
0000
0010
0100
0010
0000
0000
0000
1000
0000
0100
0000
0010
0000
0000
0000
0001
0000
0100
0000
0010
0000
0000
0000
,
1001
0000
0001
1000
0010
0000
0100
0001
1000
0000
0100
0010
0001
0000
0001
0010
,
1000
0000
1000
0010
0001
0000
0100
0010
1000
0000
1010
0000
1001
0000
0202
0000
,
0303
0000
1001
0000
0000
1010
0000
0000
1100
0000
0000
0000
1001
0000
0010
0000
,
1010
0000
0100
0101
0000
0100
1100
0000
1002
0000
0000
0000
0200
0000
0303
0000
,
1000
0000
0010
1001
0000
0001
0000
1000
0011
0000
0100
0000
1100
0000
0010
0000
,
0100
0110
0000
0001
0000
1000
0000
0010
0100
0000
0001
0000
0010
0000
2100
0000
,
0000
0000
0000
0000
0000
3000
0101
0102
0000
0000
0000
0000
2003
0000
3020
0000
,
0230
0000
0301
0010
0100
1000
0010
0100
0001
0010
0100
1000
0010
0100
0001
0000
,
1000
0001
1000
0000
0001
1000
0001
0000
0010
0100
1000
0000
0010
0100
0001
0000
,
1001
0100
0011
0100
1010
0100
0101
1001
,
0010
0100
1000
0000
0010
0100
0001
0000
1000
0100
0010
0001
1000
0100
0010
0001
,
1000
0000
0001
0010
1000
0000
1000
0010
0001
0000
0110
0000
1001
0000
0010
0100
,
1000
0010
0100
0001
1000
0010
0100
0000
0110
0000
0110
0000
0001
0100
0010
0000
,
1000
0100
0010
0000
0001
0100
0010
0000
1100
0000
1100
0000
0001
0000
0100
0000
,
0020
2030
3200
0320
,
0031
0000
0000
0101
0000
0000
1001
0000
1100
0010
0100
0001
0010
0100
1000
0010
,
0110
0000
0010
0000
0100
0001
1000
0010
0100
0001
0010
0100
1000
0010
0100
0001
,
0000
1000
0010
0100
0001
0010
0100
1000
0000
1000
0100
0010
0001
1000
0100
0010
,
0001
0000
0001
0100
0010
1000
0100
0010
0001
0000
0001
0010
0100
1000
0001
0010
,
0200
2300
3020
0230
,
0301
0100
1000
0100
0001
0010
0100
1000
0010
0000
0100
0001
0100
1000
0100
0001
,
0000
1000
0100
0001
0100
1000
0010
0100
0000
0100
0001
1000
0100
0010
0001
0100
,
0010
1000
0100
0010
0001
1000
0100
0010
0001
0100
0010
1000
0001
0100
0010
1000
,
0100
0010
0001
0100
0010
1000
0100
0001
0100
1000
0010
0100
0001
0100
1000
0100
,
0001
0000
1001
0000
0100
0000
0010
0011
0000
0000
0011
0000
1100
0000
0010
1001
,
0000
0100
0010
0001
0000
1000
0010
0100
0000
0001
0100
0010
1000
0100
0020
0000
,
0000
0000
0030
0011
0000
1100
0010
1001
,
0001
0100
0010
0000
1000
0100
0010
0000
0001
0100
0010
1000
0001
0100
0010
1000
,
0001
0000
1000
0100
0001
0000
0001
0100
1000
0000
0010
0100
0001
0000
1000
0100
,
0010
0000
0010
0001
1000
0010
0100
0001
0010
0100
1000
0010
0100
0001
0220
0000
,
0330
0000
0001
1000
0001
0000
1000
0010
0100
0000
0001
0100
0001
0000
1000
0001
,
1000
0010
0100
0001
1000
0001
0010
0100
1000
0010
0100
0001
0010
1000
0010
0001
,
0100
0010
2000
0000
0000
0000
0000
0000
3200
0000
0320
0000
0032
0000
0003
0000
,
1001
0010
0100
0001
0011
0010
0100
1000
1010
0100
0001
0010
1001
0110
1001
0110
,
2002
0000
0000
0000
,
3003
0000
0000
0000
;
