#TITLE:The Deadfaced Dimension;
#SUBTITLE:;
#ARTIST:Angerfist & Mc Nolz;
#TITLETRANSLIT:;
#SUBTITLETRANSLIT:;
#ARTISTTRANSLIT:;
#CREDIT:;
#BANNER:../BN.png;
#BACKGROUND:../BG.png;
#LYRICSPATH:;
#CDTITLE:../CDTitleKIRBY.png;
#MUSIC:The Deadfaced Dimension - Angerfist & Mc Nolz.ogg;
#OFFSET:-0.102;
#SAMPLESTART:141.281;
#SAMPLELENGTH:29.999;
#SELECTABLE:YES;
#BPMS:0.000=170.000;
#STOPS:;
#BGCHANGES:;
// cache tags:
#FIRSTBEAT:32.000;
#LASTBEAT:886.000;
#SONGFILENAME:Songs/Index Gradation/The Deadfaced Dimension - [Kirby5464]/The Deadfaced Dimension.sm;
#HASMUSIC:1;
#HASBANNER:1;
#MUSICLENGTH:312.973;
// end cache tags

//---------------dance-single - ----------------
#NOTES:
     dance-single:
     :
     Challenge:
     17:
     0.933,1.000,0.144,0.754,1.000,1762.000,45.000,236.000,10.000,0.000:
0000
0000
0000
0000
,
0000
0000
0000
0000
,
0000
0000
0000
0000
,
0000
0000
0000
0000
,
0000
0000
0000
0000
,
0000
0000
0000
0000
,
0000
0000
0000
0000
,
0000
0000
0000
0000
,
1000
0010
0100
0001
0010
0001
1000
0100
,
0010
0001
1000
0010
1000
0100
0010
0100
,
1000
0001
0100
0001
0010
0100
1000
0010
,
0100
0010
1000
0100
1000
0001
0010
0001
,
1000
0010
0100
0001
0010
0100
1000
0001
,
0010
0100
0010
0001
1000
0100
1000
0010
,
0100
0010
1000
0001
0100
0010
1000
0001
,
1000
0100
0010
0001
0100
0010
0100
0001
,
2000
3000
0000
0000
0110
0000
0000
0000
0011
0000
0000
0000
1010
0000
0000
0000
,
0101
0110
1100
0011
,
1001
0110
1010
0101
,
0011
1100
1001
0110
,
1000
0001
0010
0001
1000
0010
0100
0001
,
0010
0100
1000
0010
0100
0010
1000
0100
,
2000
3000
0000
0000
,
0000
0000
0000
0000
,
0001
0010
0100
1000
0010
0100
0010
1000
0100
0010
0100
1000
0001
0010
0100
1000
,
0010
0100
0010
1000
0100
1000
0001
0010
0001
1000
0010
0100
0001
1000
0001
0100
,
0010
0100
0001
0010
0100
1000
0010
0100
0010
1000
0001
1000
0100
0010
0001
1000
,
0020
0230
0302
2003
3002
0203
0320
2030
,
3001
0100
0001
1000
0100
1000
0010
0100
0010
1000
0001
0010
0100
1000
0010
0100
,
0010
1000
0100
0010
0001
1000
0010
0100
0001
0010
0100
0010
0001
1000
0100
1000
,
0001
0100
0001
1000
0100
1000
0010
0100
0010
1000
0001
1000
0010
0100
0001
1000
,
0020
0000
2030
0000
3002
0023
0230
2300
,
3001
0000
0010
0000
0001
0000
1000
0000
0100
0000
0010
0000
0001
0000
1000
0000
0010
0000
0100
0000
0001
0000
1000
0000
0100
0000
0000
0010
0000
0000
0001
0000
0000
1000
0000
0000
0010
0000
0000
0100
0000
0000
0001
0000
0000
1000
0000
0000
,
0010
0100
0001
0010
0001
1000
0100
1000
0010
0100
0010
1000
0001
0010
0100
0010
,
0001
1000
0100
1000
0010
0100
0010
1000
0001
0100
0010
1000
0100
0010
0100
1000
,
0001
0100
0001
0010
0100
1000
0010
0100
0020
0000
2030
0000
3002
0000
0023
0000
,
0130
1000
0010
0100
0010
1000
0100
0010
0100
1000
0001
0100
0001
0010
0100
1000
,
0001
0010
0001
1000
0100
1000
0010
0100
0010
1000
0001
1000
0100
0010
0001
0100
,
0020
2030
3002
0023
0230
0000
2300
3002
,
0203
0320
2030
3002
0203
0000
0300
0000
,
0110
0000
0000
0000
,
0000
0000
0000
0000
,
0000
0000
0000
0000
,
0000
0000
0000
0000
,
2000
0000
0000
0000
,
0000
0000
0000
0000
,
0000
0000
0000
0000
,
3020
0230
0302
0023
0230
2300
3020
0230
,
0302
0000
0000
0000
,
2003
0000
3020
0230
0302
0000
0023
0230
,
2300
0000
0000
0000
,
3000
0001
0010
0100
2000
0000
3020
0000
,
0130
0000
0000
0011
,
0000
0000
0000
0000
0000
0000
0000
0000
2020
3030
0000
0000
0000
0000
0000
0000
,
0002
0000
2003
0000
3000
0000
0010
0100
,
0001
0000
1000
0000
,
0110
0000
0000
0000
0000
0000
0001
0100
,
0001
0000
0000
0000
0000
0000
0000
0000
2002
3003
0000
0000
0000
0000
0000
0000
,
1000
0001
0100
0000
0000
0000
0000
0000
,
0000
0000
0000
0000
,
0020
2030
3000
0000
,
0002
0000
0023
0230
2300
0000
3002
0203
,
0320
0000
0230
0000
0300
0000
1000
0001
,
2000
0000
3002
0023
0230
0000
2300
3020
,
0230
0302
0003
0000
,
2000
0000
3200
2300
3002
0000
0203
0320
,
2030
3000
0000
0000
0000
0000
0000
0000
0000
0000
0000
0000
0000
0000
0000
0000
,
0000
0000
0000
0000
,
0002
0003
0000
0000
0000
0000
1000
0010
,
0200
0000
0302
2003
3020
0000
0230
0320
,
2030
0000
3002
0000
0003
0000
0100
0010
,
2000
0000
3002
0203
0320
2030
3200
0320
,
0031
0000
0000
1001
,
0000
0000
0000
0000
0000
0000
0000
0000
0220
0330
0000
0000
0000
0000
0000
0000
,
1000
0001
0100
0000
0000
0000
0000
0000
,
0000
0000
0000
0000
,
0011
0000
0000
0000
,
0000
0000
0000
0000
,
0000
0000
0000
0000
,
0000
0000
0000
0000
,
1000
0001
0100
0010
,
1000
0100
1000
0001
,
0100
0001
0010
0100
,
1000
0010
0100
0010
,
2000
3000
0002
0003
2000
3000
0200
0300
,
0020
0030
0002
0003
2000
3000
0200
0300
,
0020
0030
0200
0300
2000
3000
0002
0003
,
0200
0300
0002
0003
0020
0030
0200
0300
,
2000
3000
0020
0030
0200
0300
0020
0030
,
2000
3000
0200
0300
2000
3000
0002
0003
,
0020
0030
0002
0003
2000
3000
0020
0030
,
0200
0300
0002
0003
0020
0030
0200
0300
,
1001
0011
0110
1010
,
1001
0101
1100
0011
,
0110
1001
0011
0110
,
1100
1010
0101
0110
,
1000
0100
0010
0001
1000
0010
0100
0001
,
0010
0001
1000
0010
0100
0001
1000
0001
,
0M00
00M0
M000
000M
0M00
0000
00M0
0000
,
M000
000M
0000
0M00
,
0010
0100
0001
0010
0100
1000
0010
0100
0010
1000
0100
1000
0001
0100
0001
0010
0100
1000
0001
0010
0100
0010
0001
1000
,
0100
1000
0010
0100
0010
1000
0001
0010
0100
1000
0010
0100
0010
1000
0001
1000
0100
0010
0001
0100
0010
1000
0001
0010
,
0100
1000
0010
0100
0010
1000
0100
1000
0001
0010
0001
1000
0100
0010
0100
1000
0001
0100
0001
0010
0100
1000
0010
0100
,
0010
1000
0100
1000
0001
0010
0001
1000
0010
0100
0001
0010
0100
1000
0001
0100
0010
1000
0002
0000
0000
0003
0000
0000
,
0100
0010
1000
0001
0010
0100
1000
0001
0010
0001
1000
0100
1000
0010
0100
0001
1000
0010
0100
0010
1000
0100
0010
0001
,
0100
0010
0100
0001
1000
0001
0010
0100
1000
0001
0100
0001
0010
0100
1000
0001
0010
0100
0010
0001
1000
0100
1000
0010
,
0100
0001
1000
0100
0010
0100
1000
0001
0100
0001
0010
0100
1000
0010
0100
0010
1000
0100
1000
0001
0010
0001
1000
0010
,
0200
0320
2030
3000
0002
0023
0230
2300
,
3001
0000
0000
0100
0000
0000
0010
1000
0100
0010
0001
0100
0010
0100
0001
0010
0001
1000
0100
1000
0001
0100
0010
1000
,
0001
1000
0100
0010
0001
1000
0100
0010
0100
1000
0001
0010
0001
1000
0010
1000
0100
0010
0001
0100
0010
1000
0001
0010
,
0100
1000
0010
0100
0010
1000
0100
1000
0001
0100
0010
1000
0100
0010
0001
0100
0010
0100
0001
0010
0001
1000
0100
1000
,
0001
0010
0100
1000
0010
0100
0010
1000
0100
0010
0100
1000
0001
0010
0001
1000
0010
0100
0002
0000
0000
0003
0000
0000
,
1000
0010
0100
0001
0010
0001
1000
0100
1000
0010
0100
0010
1000
0001
0010
0100
0010
0001
1000
0100
1000
0001
0100
0001
,
0010
0100
1000
0010
0100
0010
1000
0100
1000
0001
0010
0001
1000
0010
0100
0001
0010
0100
1000
0001
0100
0010
1000
0001
,
0100
0011
1100
0110
,
0001
0100
0010
1000
0100
0010
0001
1000
,
0010
0100
0001
1000
0001
0010
0100
1000
0001
0100
0001
0010
0100
1000
0001
0100
0010
1000
0100
0010
0100
1000
0001
0010
,
0001
1000
0100
1000
0010
0100
0010
1000
0001
0010
0100
1000
0010
0100
0010
1000
0001
0100
0010
1000
0001
1000
0100
0010
,
0001
1000
0010
1000
0001
0010
0100
1000
0010
0100
0010
1000
0100
1000
0001
0100
0001
0010
0100
1000
0010
0100
0010
1000
,
0002
0203
0320
2030
3200
0320
0032
2003
,
3010
0100
0001
0010
0100
1000
0001
0010
0001
1000
0100
1000
0010
0100
0010
1000
,
0001
0010
0100
0010
0001
1000
0100
1000
0010
0100
0010
1000
0001
0100
0010
1000
,
0001
1000
0010
0100
,
0001
0000
1000
0000
0001
0000
0200
0300
,
0010
0000
0000
1000
,
0001
0000
0000
0000
0000
0000
0000
0000
0202
0303
0000
0000
0000
0000
0000
0000
,
1000
0001
0000
0100
,
0010
0000
0000
1000
,
0002
0003
0000
0000
0000
0000
0000
0000
0000
0000
0000
0000
0100
0000
0000
0000
,
0000
0000
0000
0000
0000
0000
0000
0000
0220
0330
0000
0000
0000
0000
0000
0000
,
1000
0000
0000
0000
,
0000
0000
0000
0000
,
0002
2003
3000
0000
,
0002
0000
2003
3020
0230
0000
0302
2003
,
3020
0000
0230
0000
0300
0000
1000
0001
,
2000
0000
3002
0023
0230
0000
2300
3020
,
0230
0302
0003
0000
,
2000
0000
3200
2300
3002
0000
0203
0320
,
2030
3000
0000
0000
0000
0000
0000
0000
0000
0000
0000
0000
0000
0000
0000
0000
,
0000
0000
0000
0000
,
0002
0003
0000
0000
1000
0000
0010
0000
,
0100
0001
0010
0001
,
1000
0010
1000
0100
,
0010
0001
1000
0100
,
1000
0001
0010
0001
,
0100
0010
0100
0001
,
1000
0010
0100
0010
,
1000
0100
1000
0001
,
0200
0300
0020
0030
2000
3000
0200
0300
,
0020
0030
0002
0003
2000
3000
0020
0030
,
0200
0300
0002
0003
0020
0030
0200
0300
,
2000
3000
0002
0003
0200
0300
0020
0030
,
1000
0001
0100
0010
1000
0100
0010
0001
,
0100
0010
0100
0001
1000
0001
0010
0100
,
2000
3020
2030
3002
0203
0000
0320
2030
,
3002
0203
0302
2003
3020
0000
0030
0000
,
0100
0001
1000
0010
0100
0001
0010
0100
1000
0001
0100
0001
1000
0100
1000
0010
0100
0010
1000
0001
0100
0010
1000
0001
,
0010
0100
1000
0010
0100
0010
1000
0100
1000
0001
0010
0001
1000
0100
0010
0001
1000
0010
0100
0001
0010
0100
1000
0010
,
0100
0010
1000
0100
1000
0001
0100
0001
0010
0100
1000
0010
0100
0010
1000
0100
1000
0001
0010
0001
1000
0010
0100
0001
,
0010
0100
1000
0001
0010
0100
0010
0001
1000
0100
1000
0001
0100
0001
0010
0100
1000
0010
0200
0000
0000
0300
0000
0000
,
0001
1000
0010
0100
0001
0010
0001
1000
0100
1000
0010
0100
0010
1000
0100
0010
0001
0100
0010
1000
0001
0010
0100
0010
,
0001
1000
0100
1000
0001
0100
0001
0010
0100
1000
0010
0100
0010
1000
0100
1000
0001
0100
0010
1000
0100
0010
0001
1000
,
0010
0100
0001
0010
0100
1000
0010
0100
0010
1000
0100
1000
0001
0100
0010
1000
0100
0010
0100
1000
0001
0100
0001
1000
,
0020
0230
0302
0023
0230
2300
3002
0203
,
0320
0000
0000
2030
0000
0000
3001
0010
0001
1000
0100
0010
0001
1000
0100
1000
0001
0010
0100
0010
0001
1000
0100
1000
,
0001
0100
0001
0010
0100
1000
0010
0100
0010
1000
0100
1000
0001
0010
0001
1000
0010
0100
0001
1000
0001
0010
0100
1000
,
0010
0100
0010
1000
0100
1000
0001
0010
0001
1000
0010
0100
0001
0010
0100
1000
0001
0100
0001
0010
0100
1000
0001
0100
,
0010
1000
0100
0010
0100
1000
0001
0010
0001
1000
0010
0100
0001
0010
0100
1000
0001
0100
0020
0000
0000
0030
0000
0000
,
1000
0100
0010
0001
1000
0100
1000
0010
0100
0001
0010
0100
1000
0010
0100
0010
,
1000
0100
0010
0100
1000
0001
0010
0001
1000
0010
1000
0100
0010
0001
1000
0010
,
0200
0300
0000
0000
0000
0000
0000
0000
0000
0000
0000
0000
0000
0000
0000
0000
,
0000
0000
0000
0000
,
0100
0001
1000
0001
0010
0100
1000
0010
0100
0010
1000
0100
0010
0001
1000
0100
,
0010
0100
1000
0001
0010
0001
1000
0010
0100
0001
1000
0100
1000
0001
0010
0100
,
1000
0010
0100
0010
1000
0001
0100
0001
0010
0100
1000
0001
0100
0010
1000
0001
,
0200
0302
2003
3020
,
0130
0001
1000
0100
0010
0001
1000
0100
1000
0001
0010
0001
1000
0010
0100
0001
,
0010
0100
1000
0001
0010
0100
0010
0001
1000
0100
1000
0001
0100
0001
0010
0100
,
1000
0010
0100
0010
1000
0100
1000
0001
0010
0001
1000
0010
0100
0001
1000
0001
,
0020
0000
0230
0000
2300
3002
0203
0000
,
0301
1000
0010
0100
0001
1000
0001
0100
0010
0100
0001
1000
0100
0010
0001
0100
,
0010
0100
0001
0010
0001
1000
0100
1000
0001
0100
0001
0010
0100
1000
0001
0010
,
0100
0010
0001
1000
0100
1000
0001
0100
0010
1000
0100
0010
0100
1000
0001
0100
,
0001
0010
0100
1000
0001
0100
0010
1000
0002
0000
0023
0000
0032
0000
2003
0000
,
3010
0100
0010
1000
,
0100
0010
0001
1000
,
1100
0000
0000
0000
,
0000
0000
0000
0000
,
0010
0001
1000
0010
0100
0001
0010
0100
1000
0001
0100
0001
1000
0100
0010
0100
,
1000
0001
0010
0001
0100
0010
0100
0001
1000
0100
0010
0001
0100
0010
0100
0001
,
0010
0001
1000
0100
1000
0001
0010
0100
0010
0001
1000
0100
1000
0010
0100
0010
,
1000
0001
1000
0100
0010
0001
0100
0010
0100
0001
1000
0100
0010
0100
1000
0001
,
0010
0001
1000
0010
1000
0100
0010
0001
1000
0001
0100
0010
1000
0001
1000
0010
,
0100
0010
1000
0001
0010
0100
1000
0010
0100
0010
1000
0100
1000
0001
0010
0001
,
1000
0010
1000
0100
0010
0001
1000
0100
0010
0100
1000
0001
0010
0001
1000
0010
,
0100
0001
0010
0100
0010
0001
1000
0010
1000
0100
0010
0001
1000
0010
0100
0001
,
1000
0100
0010
0001
1000
0100
1000
0001
0010
0001
1000
0010
0100
0001
0010
0100
,
1000
0001
0010
0100
0010
0001
1000
0100
1000
0001
0100
0001
0010
0100
1000
0010
,
0100
0010
1000
0100
1000
0001
0010
0001
1000
0010
0100
0001
1000
0001
0010
0100
,
1000
0001
0100
0010
1000
0001
1000
0010
0100
0001
1000
0100
0010
0001
0100
0010
,
0100
0001
0010
0001
1000
0100
0010
0100
1000
0001
0010
0001
1000
0001
0010
0001
,
0100
0010
1000
0100
0010
0001
0100
0010
0100
0001
1000
0001
0010
0100
1000
0001
,
0010
0001
1000
0010
,
0100
0001
2000
3000
,
0001
1000
0100
1000
,
0001
0010
0001
0100
,
0010
1000
0100
0010
,
0001
0100
0010
1000
,
0001
0010
0001
1000
,
0100
1000
0010
0100
,
0010
0000
0000
0000
,
0000
0000
0000
0000
,
0000
0000
0000
0000
,
0000
0000
0000
0000
,
0000
0000
0000
0000
,
0000
0000
0000
0000
,
0000
0000
0000
0000
,
0000
0000
0000
0000
,
0000
0000
0000
0000
,
0000
0000
0000
0000
,
0000
0000
0000
0000
,
0000
0000
00M0
0000
;
