#TITLE:SUN/光線;
#SUBTITLE:;
#ARTIST:Des-ROW･組スペシアルz;
#TITLETRANSLIT:SUN/Light Ray;
#SUBTITLETRANSLIT:;
#ARTISTTRANSLIT:Des-Row Gumi Special Z;
#CREDIT:;
#BANNER:Des-Bossa.PNG;
#BACKGROUND:Des-Bossa-bg.png;
#LYRICSPATH:;
#CDTITLE:Pop'n Music.PNG;
#MUSIC:Des-Bossa.mp3;
#OFFSET:-0.139;
#SAMPLESTART:64.940;
#SAMPLELENGTH:12.000;
#SELECTABLE:YES;
#BPMS:0.000=155.000;
#STOPS:;
#BGCHANGES:;
// cache tags:
#FIRSTBEAT:32.000;
#LASTBEAT:248.000;
#SONGFILENAME:Songs/toune/Des-Bossa/Des-Bossa.sm;
#HASMUSIC:1;
#HASBANNER:1;
#MUSICLENGTH:99.408;
// end cache tags

//---------------dance-single - EASY----------------
#NOTES:
     dance-single:
     EASY:
     Easy:
     3:
     0.263,0.343,0.101,0.181,0.000,155.000,10.000,18.000,0.000,0.000:
0000
0000
0000
0000
,
0000
0000
0000
0000
,
0000
0000
0000
0000
,
0000
0000
0000
0000
,
0000
0000
0000
0000
,
0000
0000
0000
0000
,
0000
0000
0000
0000
,
0000
0000
0000
0000
,
0001
0000
1000
0000
,
0001
0100
0010
0100
,
0001
0000
1000
0000
,
0010
0100
0010
1000
,
0100
0000
1000
0000
,
0001
0010
0001
0010
,
0002
0000
0000
0003
,
2000
0000
0000
3000
,
0010
0000
0100
0000
,
0001
0100
0001
0100
,
0001
0000
1000
0000
,
0010
1000
0010
0100
,
0010
0000
1000
0000
,
0001
0010
0100
0010
,
0002
0000
0000
0003
,
0200
0000
0000
0300
,
0220
0000
0000
0330
,
2002
0000
0000
3003
,
0001
1000
0001
0000
,
2000
0000
3200
0000
,
0310
0100
0010
0000
,
0100
1000
0001
0000
,
0001
0010
0001
0000
,
2000
0000
3020
0000
,
1030
0100
1000
0000
,
0001
0010
0001
0000
,
1001
0000
1001
0000
,
0001
1000
0001
0000
,
1000
0010
0100
0010
,
1000
0010
0100
0000
,
0110
0000
0110
0000
,
0010
1000
0010
0000
,
0100
0001
0010
0001
,
0100
0001
0010
0000
,
0001
1000
0010
1000
,
0010
1000
2020
3030
,
1000
0001
0010
0001
,
0100
0001
0202
0303
,
0100
0100
0010
0010
,
1000
0001
2002
3003
,
0001
1000
0100
0010
,
0001
1000
0010
1000
,
0001
1000
0001
1000
,
0001
0000
1000
0000
,
0001
0100
0001
0100
,
0001
0000
1000
0000
,
0010
0100
0010
0100
,
0010
0000
1000
0000
,
0001
0100
0010
0100
,
0010
0000
1000
0000
,
0001
0001
0001
0000
,
1000
1000
1000
0000
,
0001
0001
0001
0000
,
1000
0001
1000
0001
,
1001
0000
0000
0000
;

//---------------dance-single - NORMAL----------------
#NOTES:
     dance-single:
     NORMAL:
     Medium:
     5:
     0.417,0.437,0.111,0.141,0.000,265.000,11.000,14.000,0.000,0.000:
0000
0000
0000
0000
,
0000
0000
0000
0000
,
0000
0000
0000
0000
,
0000
0000
0000
0000
,
0000
0000
0000
0000
,
0000
0000
0000
0000
,
0000
0000
0000
0000
,
0000
0000
0000
0000
,
1000
1000
1000
0000
0001
0001
0001
0000
,
1000
0100
0010
0100
,
1000
1000
1000
0000
0010
0010
0010
0000
,
1000
0100
0001
0100
,
1000
0100
1000
0000
0100
0010
0100
0000
,
0010
0001
0010
0000
0001
0010
0001
0000
,
2000
0000
3010
0100
0000
0100
0001
0000
,
0200
0000
0310
1000
0000
1000
0100
0000
,
1000
1000
1000
0000
0001
0001
0001
0000
,
0100
0001
0010
0100
,
1000
1000
1000
0000
0001
0001
0001
0000
,
1000
0010
0001
0010
,
1000
0100
0010
0000
0001
0010
0100
0000
,
1000
0010
0100
0000
0001
1000
0100
0000
,
0020
0000
0031
1000
0000
1000
0100
0000
,
0020
0000
0130
1000
0000
1000
0010
0000
,
2010
0000
0000
0010
0000
0000
3010
0000
,
0201
0000
0000
0001
0000
0000
0301
0000
,
0001
0001
1000
1000
,
0010
0100
0010
0000
1000
0000
0001
0000
,
0100
0100
0010
0010
,
1000
0010
1000
0000
0001
0000
1000
0000
,
0001
1000
0100
0000
0010
0001
0010
0000
,
0100
1000
0001
0000
1000
0010
1000
0000
,
0001
0001
1000
1000
,
0001
0001
1000
1000
,
0010
0100
0010
0000
1000
0100
1000
0000
,
0001
0010
0001
0000
0001
0000
1000
0000
,
1000
1100
0100
0110
,
0010
0011
0001
1001
,
0001
1000
0001
0000
1000
0100
1000
0000
,
0010
0100
0010
0000
1000
0000
0001
0000
,
1000
1100
0100
0110
,
0010
0011
0001
1001
,
0001
0000
0100
0001
0100
0000
0010
0100
,
0010
1000
0001
0010
,
0001
0000
1000
0100
1000
0000
0010
0100
,
0010
1000
0100
0010
,
0001
0000
0100
0010
0100
0000
0001
0010
,
0001
1000
0001
1000
,
0001
0000
1000
0001
0010
0000
0100
1000
,
0100
0010
0001
1000
,
0002
1003
2000
3010
,
0100
0010
0100
0000
0001
0010
0001
0000
,
0200
0310
0020
1030
,
0001
0010
0001
0000
1000
0100
1000
0000
,
0002
1003
2000
3100
,
0010
0100
0010
0001
0100
0001
0100
0000
,
0002
0013
0200
1300
,
0001
1000
0010
0100
0010
1000
0010
0000
,
1000
0010
1000
0010
,
1000
0100
0010
0001
,
1000
0001
0100
0001
,
0100
0010
0100
0001
,
1001
0000
0000
0000
;

//---------------dance-single - HYPER----------------
#NOTES:
     dance-single:
     HYPER:
     Hard:
     7:
     0.523,0.530,0.211,0.121,0.000,331.000,21.000,12.000,0.000,0.000:
0000
0000
0000
0000
,
0000
0000
0000
0000
,
0000
0000
0000
0000
,
0000
0000
0000
0000
,
0000
0000
0000
0000
,
0000
0000
0000
0000
,
0000
0000
0000
0000
,
0000
0000
0000
0000
,
1000
0100
0010
0000
0001
0010
0100
0000
,
1000
0010
1000
0010
0100
0010
0100
0000
,
0010
1000
0100
0000
0010
0001
0010
0000
,
1000
0010
0100
0010
1000
0001
0010
0000
,
0001
0000
0001
0000
1000
0100
0010
0000
,
0001
0000
0001
0000
1000
0010
0100
0000
,
0001
0010
0001
0010
0001
0000
0101
0000
,
0100
0010
0100
0010
0100
0000
0110
0000
,
0100
0010
1000
0000
0001
0010
0100
0000
,
1000
0100
0001
0100
1000
0010
0100
0000
,
0010
1000
0100
0000
0010
0001
0010
0000
,
0100
1000
0100
0010
0001
0100
0010
0000
,
1000
0001
0010
0001
0100
0010
0100
0010
,
1000
0100
1000
0010
0100
0010
1000
0001
,
0010
0100
0010
0001
0100
0000
0101
0000
,
0001
1000
0100
0010
0100
0000
0110
0000
,
2000
0000
3001
0010
0001
0100
0010
0000
,
0200
0000
0310
0100
0010
1000
0100
0000
,
2000
0000
3001
0001
,
0002
0000
0103
0100
,
0200
0000
0310
0010
,
0020
0000
1030
1000
,
1000
0010
1000
0000
0010
0100
0010
0000
,
0100
0001
0100
0000
0001
0010
0001
0000
,
1000
0100
0001
0100
1000
0010
0100
0010
,
1000
0001
0010
0100
0010
0001
1000
0000
,
0001
0010
0001
0000
0100
0010
0100
0000
,
0010
1000
0010
0100
0010
1000
0001
0000
,
0100
0010
0100
0001
0010
0001
1000
0010
,
1000
0100
0010
0100
1000
0001
0010
0000
,
0100
1000
0100
0000
0001
0010
0001
0000
,
1000
0100
0001
0010
0001
0100
1000
0000
,
0001
1000
0100
0010
0100
1000
0001
0010
,
0001
0100
0010
0100
0010
1000
0100
0000
,
1000
0000
0001
0010
0100
0000
1000
0001
,
0010
0011
1100
0011
,
1000
0000
0010
0100
0010
0000
1000
0001
,
0010
1100
0101
1100
,
0001
1000
0100
0010
0100
1000
0010
0100
,
0001
1001
0110
1001
,
1000
0001
0100
0010
0100
0001
1000
0100
,
0010
0011
1010
0011
,
0002
0000
1003
0100
0020
0000
0031
1000
,
0020
1030
1100
1100
,
0002
0000
1003
0010
0200
0000
0310
0100
,
0002
1003
1010
1010
,
0001
1000
0100
0010
0100
1000
0010
0100
,
0010
0100
0001
0100
0001
0010
0100
0010
,
0001
0100
0010
0100
0010
1000
0010
1000
,
0001
1000
0100
0010
0100
1000
0001
0000
,
0001
1000
0100
1000
0000
0001
1000
0000
,
0100
0010
1000
0010
0000
0100
0001
0000
,
0001
1000
0100
0010
0100
1000
0001
0000
,
0001
0010
0001
1000
0100
0010
0001
0000
,
1001
0000
0000
0000
;

//---------------dance-single - BEGINNER----------------
#NOTES:
     dance-single:
     BEGINNER:
     Beginner:
     2:
     0.115,0.187,0.010,0.000,0.000,79.000,1.000,0.000,0.000,0.000:
0000
0000
0000
0000
,
0000
0000
0000
0000
,
0000
0000
0000
0000
,
0000
0000
0000
0000
,
0000
0000
0000
0000
,
0000
0000
0000
0000
,
0000
0000
0000
0000
,
0000
0000
0000
0000
,
1000
0000
0000
0000
,
0001
0000
0000
0000
,
1000
0000
0000
0000
,
0001
0000
0000
0000
,
1000
0000
1000
0000
,
1000
0000
0000
0000
,
0001
0000
0001
0000
,
0001
0000
0000
0000
,
0100
0000
0000
0000
,
0100
0000
0000
0000
,
0010
0000
0000
0000
,
0010
0000
0000
0000
,
1000
0000
1000
0000
,
1000
0000
0000
0000
,
0001
0000
0001
0000
,
0001
0000
0000
0000
,
1000
0000
0000
0000
,
0001
0000
0000
0000
,
1000
0000
1000
0000
,
0010
0000
0010
0000
,
0010
0000
0000
0000
,
1000
0000
0000
0000
,
0001
0000
0001
0000
,
1000
0000
1000
0000
,
0001
0000
0000
0000
,
1000
0000
0000
0000
,
0001
0000
0001
0000
,
1000
1000
1000
0000
,
0001
0000
0001
0000
,
0100
0100
0100
0000
,
0010
0000
0010
0000
,
1000
1000
1000
0000
,
0001
0000
0001
0000
,
1000
1000
1000
0000
,
0001
0000
0000
0000
,
1000
0000
0000
0000
,
0001
0000
0000
0000
,
1000
0000
0000
0000
,
0010
0000
0000
0000
,
0100
0000
0000
0000
,
0010
0000
0000
0000
,
1000
0000
0000
0000
,
0001
0000
1000
0000
,
0001
0000
0000
0000
,
1000
0000
0001
0000
,
1000
0000
0000
0000
,
0010
0000
0100
0000
,
0010
0000
0000
0000
,
0100
0000
0010
0000
,
0100
0000
0000
0000
,
0001
0000
0000
0000
,
1000
0000
0000
0000
,
0001
0000
0000
0000
,
1000
0000
0000
0000
,
1001
0000
0000
0000
;
