#TITLE:Air TV;
#SUBTITLE:Tori no Uta (TV Edit);
#ARTIST:Lia;
#TITLETRANSLIT:;
#SUBTITLETRANSLIT:;
#ARTISTTRANSLIT:;
#CREDIT:Beethoven_21;
#BANNER:Tori no Uta-banner.png;
#BACKGROUND:Tori no Uta-bg.png;
#LYRICSPATH:;
#CDTITLE:beethoven_21_anime2-cdtitle.png;
#MUSIC:Tori no Uta.mp3;
#OFFSET:1.240;
#SAMPLESTART:66.324;
#SAMPLELENGTH:12.000;
#SELECTABLE:YES;
#BPMS:0.000=122.090;
#STOPS:;
#BGCHANGES:32.500=Tori no Uta.avi=1.000=1=0=1,
99999=-nosongbg-=1.000=0=0=0 // don't automatically add -songbackground-
;
// cache tags:
#FIRSTBEAT:2.500;
#LASTBEAT:212.000;
#SONGFILENAME:Songs/toune 5/Beethoven_21 - (Air TV) Tori no Uta TV/Tori no Uta.sm;
#HASMUSIC:1;
#HASBANNER:1;
#MUSICLENGTH:104.260;
// end cache tags

//---------------dance-single - ----------------
#NOTES:
     dance-single:
     :
     Medium:
     5:
     0.378,0.432,0.048,0.566,0.082,212.000,5.000,59.000,0.000,0.000:
0000
0000
0000
0000
,
0000
0000
0000
0000
,
0000
0000
0000
0000
,
0000
0000
0000
0000
,
0000
0000
0000
0000
,
0000
0000
0000
0000
,
0000
0000
0000
0000
,
0000
0000
0000
0000
,
0000
0000
0000
0000
0000
0000
0200
0000
0000
0300
0100
0000
0010
0000
0001
0000
,
0200
0000
0000
0300
0001
0000
0010
2000
0000
0000
0000
0000
0000
0000
0000
3000
,
0000
0000
0100
0001
1000
0100
0001
0010
,
2000
0000
0000
3000
0010
0000
0100
0002
0000
0000
0000
0000
0000
0000
0003
0000
,
0000
0000
0000
0000
0000
0000
0020
0000
0000
0030
1000
0000
0001
0000
0010
0000
,
0200
0000
0000
0300
0001
0000
1000
0020
0000
0000
0000
0000
0000
0000
0000
0030
,
0000
0000
0100
0001
0100
1000
0010
1000
,
0020
0000
0000
0000
,
2000
0000
0000
0000
0000
0000
0000
0000
3030
0000
0000
0000
0201
0000
0000
0300
,
0002
0000
0000
0000
0000
0000
0000
0000
0000
0000
0000
0000
0000
0003
0100
0000
,
0200
0001
0001
0301
,
0100
0000
0000
0000
1000
0000
0001
0000
1000
0000
0000
0010
0000
0000
1000
0000
,
0100
0000
0000
0001
0000
0000
0100
0000
0000
0000
1000
0000
0000
0000
0001
0000
,
0100
0000
0000
0001
0000
0000
1000
0000
0000
0000
0010
0000
2000
0000
0000
0000
,
0000
0000
0000
0000
0000
0000
0000
3000
0020
0000
0200
0330
0200
0000
0000
0300
,
0000
0000
0000
0000
0000
0000
0001
0000
0020
0000
0030
2000
0000
3000
0010
0000
,
0200
0000
0300
0002
0000
0003
0200
0000
0020
0330
0020
0000
0000
0030
1000
0000
,
0200
0000
0001
0301
,
0100
1000
0001
1000
0010
0100
0010
1000
,
0100
0000
0001
0000
0100
0000
1000
0020
0000
0000
0000
0000
0000
0000
0000
0000
,
0030
0000
0000
0000
2000
0000
0000
3000
0020
0000
0000
0030
0200
0000
0000
0300
,
0020
0000
0000
0130
0002
0000
0000
0000
,
0000
0000
0003
0010
1000
0010
0000
0000
,
2000
0000
0000
3000
0200
0000
1300
0002
0000
0000
0000
0000
0010
0000
0000
0000
,
1000
0000
1000
0000
0013
0000
1000
0100
,
0001
0000
0000
0000
0100
0000
1000
0000
0010
0000
0200
0000
0000
0300
0002
0000
,
0000
0003
0000
0001
0010
0001
1000
0010
,
2000
0000
0000
3000
0100
0000
0001
0020
0000
0000
0000
0000
1000
0000
0000
0000
,
1030
0000
0010
0100
1000
0100
0010
0001
,
0200
0000
0000
0300
0001
0000
0010
2000
0000
0000
0000
0000
0010
0000
0000
0000
,
3100
0000
0010
0001
0100
0001
0010
1000
,
0002
0000
0000
0003
0100
0000
0010
0200
0000
0000
0000
0000
0010
0000
0000
0000
,
0301
0000
0010
1000
0100
0001
0010
1000
,
1010
0000
0000
0101
0000
0000
2020
0000
0000
0000
0000
0000
3030
0000
0010
0000
,
2000
0000
0000
3000
0002
0000
0000
0003
0020
0000
0000
0030
0200
0000
0000
0300
,
2000
0000
0000
0000
3010
0000
0001
0200
0000
0000
0000
0000
1000
0000
0000
0000
,
0310
0000
1000
0001
0100
0010
0001
0100
,
0002
0000
0000
0003
0010
0000
0100
0020
0000
0000
0000
0000
0100
0000
0000
0000
,
1030
0000
0100
0001
0100
0001
1000
0010
,
2000
0000
0000
3000
0010
0000
0100
0002
0000
0000
0000
0000
1000
0000
0000
0000
,
0013
0000
1000
0100
0001
0010
1000
0010
,
0200
0000
0000
0000
0000
0000
0300
0001
,
2000
0000
0000
0000
0010
0000
0000
0000
0100
0000
0000
0000
3020
0000
0000
0030
,
0002
0000
1000
0000
0010
0000
0103
1000
,
0020
1000
0100
1030
,
1001
0000
0000
0000
;

//---------------dance-single - ----------------
#NOTES:
     dance-single:
     :
     Challenge:
     9:
     0.822,0.864,1.000,0.355,0.475,451.000,112.000,37.000,0.000,0.000:
0000
0000
0000
0000
0000
1100
0011
0110
,
1001
0000
0000
0001
0100
0110
1010
0101
,
1001
0000
0000
0001
0100
0110
1100
0110
,
0101
0000
0000
0010
0000
0001
0100
0011
,
1100
0000
0101
1010
0000
0011
1100
0110
,
1001
0000
0000
0001
0100
0011
1100
0110
,
0110
0000
0000
0001
0010
0011
1100
0110
,
1001
0000
0000
0100
0000
0010
0001
0100
,
0001
0000
1000
0000
0010
0000
0100
0000
0001
0000
0010
0000
0200
0000
1000
0000
0001
0000
0310
0000
2000
3000
0100
0000
0002
0003
0010
0000
0200
0300
0010
0000
,
2000
0000
0000
3000
0100
0000
0010
0200
0000
0000
0000
0000
0000
0000
0000
0300
,
0000
0000
0100
0010
1000
0010
0100
0001
,
0020
0000
0000
0030
0001
0000
0010
2000
0000
0000
0000
0000
0000
0000
0100
3000
,
0100
1000
0001
0010
0001
0010
0100
1000
,
0020
0000
0000
0030
0001
0000
0100
2000
0000
0000
0000
0000
0000
0000
0000
0000
,
3000
0000
0000
0000
0000
0000
1000
0000
0000
0001
0000
0000
0100
0000
0000
0001
0000
0000
1000
0000
0000
0010
0100
0010
,
0002
0000
0000
0000
0000
0000
0000
0000
0000
0000
0000
0000
0100
0000
0000
0000
0000
0000
0010
0000
0100
0000
1000
0000
0100
0000
1000
0000
0100
0000
0010
0000
0100
0000
0010
0000
0100
0000
1000
0000
0100
0000
1000
0000
0000
0003
0000
0000
,
0020
0000
0000
0000
0000
0000
1000
0000
0000
0000
0000
0000
0000
0000
0000
0100
0000
0000
0000
0000
0000
1000
0000
0000
0030
0000
0000
0000
0000
0000
0100
0000
0000
0010
0000
0000
0002
0000
0000
0000
0000
0000
0000
0000
0003
0000
0000
0000
,
0102
0010
0000
0100
0010
0000
0010
1000
0100
0010
1000
0000
0100
1003
0100
0001
,
0210
1000
0010
0000
0010
1000
0000
1000
0010
0001
0010
1000
0300
0010
1000
0000
,
0100
0010
0110
0001
1000
0010
0101
1000
,
0010
0001
1010
0100
0001
1000
0011
0001
,
0100
0010
1001
0100
0010
0100
1010
0001
,
1000
0000
0100
0000
0011
0000
0100
0000
1000
0000
0010
0100
0011
0000
0100
0000
,
1001
0010
1010
0010
1001
0010
1100
0001
,
0010
0100
1010
0100
0001
0100
1100
0011
,
1100
0010
0101
0010
1000
0001
1100
0001
,
0010
0100
0001
0100
0010
0001
1000
0010
1000
0001
0010
0100
0001
0100
0010
0001
,
0100
0001
1100
0001
1000
0100
1010
0100
,
1000
0001
1001
1000
0010
0100
0101
0100
,
0010
0001
0110
0100
1000
0010
1001
1000
,
0001
0000
0100
0000
1010
0000
0001
0000
1000
0000
0001
0010
1100
0000
0100
0000
,
1010
0100
1100
0010
0100
0001
1010
0001
,
1000
0010
0011
0100
1000
0001
1100
0101
,
1001
0000
0000
0100
0000
0000
0101
0000
0000
1000
0000
0000
0010
0000
0000
0100
0000
0000
0010
0001
0010
0001
0010
0100
,
1100
0000
0000
0000
0000
0000
1100
0000
0000
0001
0000
0000
0010
0100
0010
0001
0010
0100
0010
0001
0100
0010
0001
0010
,
2100
0000
0000
3000
0100
0000
0001
0020
0100
0000
0000
0000
1000
0000
0000
0000
,
1030
0000
0011
0100
1010
0100
0011
0001
,
1200
0000
0000
0300
0011
0000
0010
2000
0001
0000
0000
0000
0010
0000
0000
0000
,
3100
0000
0000
0000
0110
0000
0001
0010
1100
0000
0101
0000
0011
0000
1010
0000
,
0102
0000
0000
0003
1100
0000
0010
0200
0001
0000
0000
0000
0010
0000
0000
0000
,
0301
0000
0011
1000
1100
0001
0110
1000
,
1010
0100
1000
0101
0010
0100
2010
0001
0010
0100
0010
0001
3010
0100
1010
0100
,
2001
0010
0100
3010
0102
1000
0010
0103
1020
0100
0001
0130
1200
0010
0001
0310
,
2100
0000
0000
0000
3010
0000
0001
0200
0010
0000
0000
0000
1000
0000
0000
0000
,
0310
0000
1100
0001
0110
0010
0011
0100
,
1002
0000
0000
0003
0110
0000
0100
0020
1000
0000
0000
0000
0100
0000
0000
0000
,
1030
0000
0110
0001
1100
0011
1100
0011
,
2001
0000
0000
3000
0110
0000
0100
0002
0010
0000
0000
0000
1000
0000
0000
0000
,
0013
0000
1010
0100
0101
0010
1010
0010
,
0201
0000
0010
0000
1000
0010
0000
0001
0010
0000
1000
0000
1300
0010
0001
0000
,
2010
0000
0001
0000
0010
0000
0001
0000
3100
0000
0001
0000
0120
0000
1000
0030
,
0102
0010
0100
0010
1000
0100
0010
0100
0010
0100
1000
0010
0103
0010
1000
0000
,
1020
0100
1000
0001
0100
0001
1000
0100
0001
0100
0001
1000
0001
0100
1000
0031
,
1001
0000
0000
0000
;
