#TITLE:Vortex Infinitum;
#SUBTITLE:;
#ARTIST:Shin Hae Chul & N.EX.T.;
#TITLETRANSLIT:;
#SUBTITLETRANSLIT:;
#ARTISTTRANSLIT:;
#CREDIT:Juppy;
#BANNER:../Zeppelin_bn.png;
#BACKGROUND:../bg_Zeppelin.png;
#LYRICSPATH:;
#CDTITLE:../cdtitle_ZAiA.png;
#MUSIC:Shin Hae Chul & N.EX.T. - Vortex Infinitum.ogg;
#OFFSET:-0.081;
#SAMPLESTART:50.260;
#SAMPLELENGTH:22.520;
#SELECTABLE:YES;
#BPMS:0.000=172.001;
#STOPS:;
#BGCHANGES:;
// cache tags:
#FIRSTBEAT:0.000;
#LASTBEAT:520.000;
#SONGFILENAME:Songs/Cirque du Zeppelin/Vortex Infinitum - [Zaia]/Vortex Infinitum.sm;
#HASMUSIC:1;
#HASBANNER:1;
#MUSICLENGTH:184.920;
// end cache tags

//---------------dance-single - 4/16/4 FS----------------
#NOTES:
     dance-single:
     4/16/4 FS:
     Challenge:
     13:
     0.951,1.000,0.022,0.395,0.622,1108.000,4.000,73.000,0.000,0.000:
1000
0000
0000
0000
0000
0000
1000
0000
0000
0000
0000
0000
0002
0003
0000
0000
0000
0000
0100
0000
0000
0000
0000
0000
0100
0000
0000
0000
0000
0000
0020
0030
0000
0000
0000
0000
1000
0000
0000
0000
0000
0000
0002
0003
0000
0000
0000
0000
,
0001
0000
0000
0000
0000
0000
0010
0000
0000
0000
0000
0000
0200
0300
0000
0000
0000
0000
2000
3000
0000
0000
0000
0000
0010
0000
0000
0000
0000
0000
2000
3000
0000
0000
0000
0000
0001
0000
0000
0000
0000
0000
0100
0000
0000
0000
0000
0000
,
0001
0000
0000
0000
0000
0000
0001
0000
0000
0000
0000
0000
0020
0030
0000
0000
0000
0000
0100
0000
0000
0000
0000
0000
0100
0000
0000
0000
0000
0000
2000
3000
0000
0000
0000
0000
0001
0000
0000
0000
0000
0000
0020
0030
0000
0000
0000
0000
,
0010
0000
0000
0000
0000
0000
0002
0003
0000
0000
0000
0000
2000
3000
0000
0000
0000
0000
0002
0003
0000
0000
0000
0000
2000
3000
0000
0000
0000
0000
0020
0030
0000
0000
0000
0000
0100
0000
0000
0000
0000
0000
0002
0003
0000
0000
0000
0000
,
1000
0000
0000
0000
0000
0000
0100
0000
0000
0000
0000
0000
1000
0000
0000
0000
0000
0000
0001
0000
0000
0000
0000
0000
1000
0000
0000
0000
0000
0000
0010
0000
0000
0000
0000
0000
1000
0000
0000
0000
0000
0000
0200
0300
0000
0000
0000
0000
,
0010
0000
0000
0000
0000
0000
0001
0000
0000
0000
0000
0000
1000
0000
0000
0000
0000
0000
0020
0030
0000
0000
0000
0000
0100
0000
0000
0000
0000
0000
0001
0000
0000
0000
0000
0000
1000
0000
0000
0000
0000
0000
0001
0000
0000
0000
0000
0000
,
0020
0030
0000
0000
0000
0000
0100
0000
0000
0000
0000
0000
1000
0000
0000
0000
0000
0000
0100
0000
0000
0000
0000
0000
0010
0000
0000
0000
0000
0000
0001
0000
0000
0000
0000
0000
1000
0000
0000
0000
0000
0000
0020
0030
0000
0000
0000
0000
,
0100
0000
0000
0000
0000
0000
0010
0000
0000
0000
0000
0000
1000
0000
0000
0000
0000
0000
0200
0300
0000
0000
0000
0000
0010
0000
0000
0000
0000
0000
0001
0000
0000
0000
0000
0000
1000
0000
0000
0000
0000
0000
0001
0000
0000
0000
0000
0000
,
0100
0010
1000
0001
0010
0100
1000
0001
0100
0001
0010
0001
1000
0010
1000
0100
,
0010
0100
1000
0001
0100
0010
1000
0001
0010
0001
0100
0001
1000
0100
1000
0010
,
0100
0001
0010
0100
1000
0001
0100
0010
1000
0001
1000
0100
0010
0100
1000
0001
,
0100
0010
0100
0001
0010
0001
1000
0010
0200
0000
0000
0000
0301
0000
0000
0000
,
1010
0010
0100
0001
1000
0001
0010
0100
,
1000
0010
1000
0001
0100
0001
0040
0030
,
1000
0100
1000
0001
0010
0001
1000
0010
,
0100
0010
1000
0001
0010
0100
1000
0001
,
0100
0010
1000
0100
1000
0001
1000
0040
,
0030
0001
1000
0400
0300
0001
1000
0010
,
0400
0300
1000
0001
0010
0001
1000
0040
,
0030
0000
0000
0100
0000
0000
1000
0000
0000
0400
0000
0000
0300
0000
0000
0001
0000
0000
0010
0000
0000
0001
1000
0001
,
0010
0100
0010
0001
1000
0001
0100
0010
,
1000
0100
1000
0001
0010
0001
0400
0300
,
1000
0010
1000
0001
0100
0001
1000
0100
,
0010
0100
1000
0001
0100
0010
1000
0001
,
0010
0100
1000
0010
1000
0001
1000
0400
,
0300
0001
1000
0040
0030
0001
1000
0100
,
1000
0010
0100
0001
0010
0100
1000
0001
0010
0001
1000
0010
0100
0001
1000
0100
,
0020
0000
0000
0000
0000
0000
0000
0000
0000
0230
0000
0000
0000
0000
0000
0000
0000
0000
1300
0001
1000
0010
1000
0001
,
1000
0100
1000
0010
0100
0001
0010
0100
,
0010
0001
0100
0010
1000
0001
0040
0030
,
1000
0100
1000
0001
0010
0001
0100
0010
,
0100
0001
0010
0100
1000
0001
0100
0020
,
0000
0000
1030
0002
0000
0000
0013
0200
,
0000
0000
1300
0002
0000
0000
0103
0020
,
0000
0000
1030
0200
0000
0000
0310
0002
,
0000
0000
0000
0000
0000
0000
1003
0000
0000
0020
0000
0000
0000
0000
0000
0000
0000
0000
0130
0000
0000
0001
0100
0001
,
1000
0010
1000
0100
0010
0001
0100
0010
,
0100
0001
0010
0100
1000
0001
0400
0300
,
1000
0010
1000
0001
0100
0001
0010
0100
,
0010
0000
0000
0001
0000
0000
0100
0000
0000
0010
0000
0000
1000
0000
0000
0001
0000
0000
0010
0000
0000
0200
0300
0000
,
0000
0000
0000
0000
0000
0000
1000
0000
0000
0002
0000
0003
0000
0000
0000
1000
0000
0000
0100
0000
0000
0020
0000
0000
,
0030
0000
0000
0001
0000
0000
0100
0000
0000
0020
0000
0000
0000
0030
0000
1000
0000
0000
0001
0000
0000
0020
0000
0000
,
0000
0000
0030
0001
0000
0000
1000
0000
0000
0020
0000
0000
0000
0000
0000
0130
0000
0000
0001
0000
0000
0020
0000
0000
,
0000
0000
0000
0000
0000
0000
0000
0000
0000
0000
0000
0000
0000
0000
0000
0030
0000
0000
0001
0000
0000
1000
0010
0100
,
0001
0100
0010
1000
0100
0010
0001
0100
,
0001
0010
0001
1000
0010
1000
0001
0100
,
0001
0010
0100
1000
0010
0100
0001
0010
,
0100
1000
0001
1000
0001
1000
0010
1000
,
0100
0010
0001
0100
0010
1000
0100
0010
,
0100
1000
0010
1000
0001
0010
0001
1000
,
0100
1000
0010
0100
0001
0010
0100
1000
,
0010
0000
0000
0100
0000
0000
0001
0000
0000
1000
0000
0000
0001
0000
0000
1000
0000
0000
0001
0010
0001
1000
0001
0010
,
0002
0000
0000
0000
0000
0000
0000
0000
0023
0000
0000
0000
0000
0000
0000
0000
0032
0000
0000
0000
0000
0000
0000
0000
0203
0000
0000
0000
0000
0000
0000
0000
0320
0000
0000
0000
0000
0000
0000
0000
2030
0000
0000
0000
0000
0000
0000
0000
3200
0000
0000
0000
0000
0000
0000
0000
2300
0000
0000
0000
0000
0000
0000
3000
,
1001
0001
0100
0010
0100
0001
0010
0001
,
1000
0001
0100
0010
1000
0001
0040
0030
,
0100
0010
1000
0100
1000
0010
1000
0001
,
0010
0100
0010
0001
0100
0010
1000
0100
,
0010
0100
1000
0100
1000
0100
1000
0040
,
0030
0100
1000
0040
0030
0001
1000
0001
,
0400
0300
1000
0010
1000
0001
1000
0400
,
0300
0000
0000
0001
0000
0000
0010
0000
0000
0400
0000
0000
0300
0000
0000
0001
0000
0000
1000
0000
0000
0001
0010
0001
,
1000
0001
0010
0100
0010
0001
0100
0001
,
1000
0001
0010
0100
1000
0001
0400
0300
,
0010
0100
1000
0010
1000
0100
1000
0001
,
0100
0010
0100
0001
0010
0100
1000
0010
,
0100
0010
1000
0010
1000
0010
1000
0400
,
0300
0010
1000
0400
0300
0001
1000
0001
,
0040
0030
1000
0100
1000
0001
1000
0040
,
0030
0001
0100
0040
0030
0001
1000
0001
,
0100
0010
1000
0001
0100
0001
0010
0100
1000
0001
0100
0001
0010
0001
1000
0010
,
1000
0100
1000
0001
0010
0001
0100
0001
1000
0100
0010
0001
0100
0001
1000
0100
,
0010
0100
1000
0001
0100
0001
0010
0100
1000
0001
0100
0001
0010
0100
1000
0010
,
1000
0001
0100
0010
1000
0100
1000
0001
0100
0010
1000
0100
1000
0001
0100
0001
,
0010
0100
1000
0001
0010
0001
0100
0010
1000
0001
0010
0001
0100
0001
1000
0100
,
1000
0010
1000
0001
0100
0001
0010
0001
1000
0010
0100
0001
0010
0001
1000
0010
,
0100
0010
1000
0001
0010
0001
0100
0010
1000
0001
0010
0001
0100
0010
1000
0100
,
1000
0001
0010
0100
1000
0010
1000
0001
0010
0100
1000
0010
1000
0001
0010
0001
,
0100
0010
1000
0001
1000
0100
1000
0001
0100
0010
1000
0001
1000
0100
0010
0001
,
1000
0010
0100
0010
1000
0001
0010
0001
1000
0010
0100
0001
1000
0001
0010
0100
,
1000
0010
0100
0001
1000
0010
1000
0001
0010
0100
1000
0001
1000
0010
0100
0001
,
1000
0100
0010
0100
1000
0001
0100
0001
1000
0100
0010
0001
1000
0001
0100
0010
,
1000
0100
0010
0001
1000
0010
1000
0001
0010
0100
1000
0001
1000
0010
0100
0001
,
1000
0100
0010
0100
1000
0001
0100
0001
1000
0100
0010
0001
1000
0001
0100
0010
,
1000
0001
0100
0010
0100
0001
1000
0010
1000
0001
0010
0001
1000
0100
1000
0001
,
1000
0010
0100
0010
1000
0001
0100
0001
1000
0100
1000
0001
0010
0001
1000
0100
,
1000
0010
0400
0300
1000
0040
0030
0001
,
1000
0400
0300
0010
0400
0300
1000
0001
,
1000
0040
0030
0001
0400
0300
1000
0100
,
0010
0001
1000
0001
1000
0001
0100
0001
,
1000
0100
0040
0030
1000
0400
0300
0001
,
1000
0040
0030
0100
0040
0030
1000
0001
,
1000
0400
0300
0001
0040
0030
1000
0010
,
0100
0000
0000
0010
0000
0000
1000
0000
0000
0001
0000
0000
1000
0000
0000
0001
0000
0000
1000
0100
1000
0001
1000
0100
,
2000
0000
0000
0000
0000
0000
0000
0000
3200
0000
0000
0000
0000
0000
0000
0000
2300
0000
0000
0000
0000
0000
0000
0000
3020
0000
0000
0000
0000
0000
0000
0000
0230
0000
0000
0000
0000
0000
0000
0000
0302
0000
0000
0000
0000
0000
0000
0000
0023
0000
0000
0000
0000
0000
0000
0000
0032
0000
0000
0000
0000
0000
0000
0003
,
1001
1000
0010
0100
0010
1000
0100
1000
,
0001
1000
0010
0100
0001
1000
0400
0300
,
0010
0100
0001
0010
0001
0100
0001
1000
,
0100
0010
0100
1000
0010
0100
0001
0010
,
0100
0010
0001
0010
0001
0010
0001
0400
,
0300
0010
0001
0400
0300
1000
0001
1000
,
0040
0030
0001
0100
0001
1000
0001
0040
,
0030
0000
0000
1000
0000
0000
0100
0000
0000
0040
0000
0000
0030
0000
0000
1000
0000
0000
0001
0000
0000
1000
0100
1000
,
0001
1000
0100
0010
0100
1000
0010
1000
,
0001
1000
0100
0010
0001
1000
0040
0030
,
0100
0010
0001
0100
0001
0010
0001
1000
,
0010
0100
0010
1000
0100
0010
0001
0100
,
0010
0100
0001
0100
0001
0100
0001
0040
,
0030
0100
0001
0040
0030
1000
0001
1000
,
0001
0010
0100
1000
0010
0100
0001
1000
0010
1000
0001
0010
0100
1000
0001
0100
,
0020
0000
0000
0000
0000
0000
0000
0000
0000
0230
0000
0000
0000
0000
0000
0000
0000
0000
0301
1000
0001
0010
0001
1000
,
0001
0100
0001
0010
0100
1000
0010
0100
,
0010
1000
0100
0010
0001
1000
0040
0030
,
0001
0100
0001
1000
0010
1000
0100
0010
,
0100
1000
0010
0100
0001
1000
0100
0020
,
0000
0000
0031
2000
0000
0000
3010
0200
,
0000
0000
0301
2000
0000
0000
3100
0020
,
0000
0000
0031
0200
0000
0000
0310
2000
,
0000
0000
0000
0000
0000
0000
3001
0000
0000
0020
0000
0000
0000
0000
0000
0000
0000
0000
0130
0000
0000
1000
0100
1000
,
0001
0010
0001
0100
0010
1000
0100
0010
,
0100
1000
0010
0100
0001
1000
0400
0300
,
0001
0010
0001
1000
0100
1000
0010
0100
,
0010
0000
0000
1000
0000
0000
0100
0000
0000
0010
0000
0000
0001
0000
0000
1000
0000
0000
0010
0000
0000
0200
0300
0000
,
0000
0000
0000
0000
0000
0000
0001
0000
0000
2000
0000
3000
0000
0000
0000
0001
0000
0000
0100
0000
0000
0020
0000
0000
,
0030
0000
0000
1000
0000
0000
0100
0000
0000
0020
0000
0000
0000
0030
0000
0001
0000
0000
1000
0000
0000
0020
0000
0000
,
0000
0000
0030
1000
0000
0000
0001
0000
0000
0020
0000
0000
0000
0000
0000
0130
0000
0000
1000
0000
0000
0020
0000
0000
,
0000
0000
0000
0000
0000
0000
0000
0000
0000
0000
0000
0000
0000
0000
0000
0030
0000
0000
1000
0000
0000
0001
0100
0001
,
1000
0010
0100
0001
1000
0100
1000
0001
0010
0001
0100
0010
1000
0100
0010
0100
,
1000
0001
0100
0010
1000
0001
0010
0001
1000
0100
1000
0010
0100
0001
0010
0100
,
1000
0010
0100
0001
1000
0100
0010
0001
1000
0001
0100
0010
0100
0001
0010
0100
,
1000
0001
0100
0001
1000
0001
0010
0100
1000
0000
0000
0000
0022
0000
0033
0000
;

//---------------dance-single - ----------------
#NOTES:
     dance-single:
     :
     Medium:
     9:
     0.890,1.000,0.092,0.963,0.046,957.000,17.000,178.000,0.000,1.000:
1000
0000
0000
0000
0001
0000
0000
0000
0200
0300
0000
0000
0001
0000
0000
0000
1000
0000
0000
0000
0002
0003
0000
0000
0100
0000
0000
0000
0020
0030
0000
0000
,
1000
0000
0000
0000
0100
0000
0000
0000
0020
0030
0000
0000
0200
0300
0000
0000
1000
0000
0000
0000
0002
0003
0000
0000
0100
0000
0000
0000
0010
0000
0000
0000
,
0100
0000
0000
0000
0010
0000
0000
0000
2000
3000
0000
0000
0100
0000
0000
0000
1000
0000
0000
0000
0002
0003
0000
0000
1000
0000
0000
0000
0020
0030
0000
0000
,
0100
0002
2003
3002
2003
3100
0010
0100
,
1000
0000
0000
0000
0100
0000
0000
0000
1000
0000
0000
0000
0100
0000
0000
0000
1000
0000
0000
0000
0100
0000
0000
0000
1000
0000
0000
0000
0020
0030
0000
0000
,
0100
0000
0000
0000
0010
0000
0000
0000
0100
0000
0000
0000
0002
0003
0000
0000
1000
0000
0000
0000
0100
0000
0000
0000
1000
0000
0000
0000
0100
0000
0000
0000
,
0020
0030
0000
0000
0100
0000
0000
0000
1000
0000
0000
0000
0001
0000
0000
0000
1000
0000
0000
0000
0001
0000
0000
0000
1000
0000
0000
0000
0020
0030
0000
0000
,
0100
0000
0000
0000
0010
0000
0000
0000
1000
0000
0000
0000
0002
0003
0000
0000
0100
0000
0000
0000
0010
0000
0000
0000
1000
0000
0000
0000
0010
0000
0000
0000
,
2000
3000
0020
0030
0200
0300
0002
0003
0200
0300
0020
0030
2000
3000
0002
0003
,
0020
0030
0002
0003
2000
3000
0020
0030
2000
3000
0200
0300
2000
3000
0002
0003
,
0200
0300
0020
0030
2000
3000
0200
0300
0020
0030
0002
0003
0200
0300
0002
0003
,
2000
3000
0200
0300
0020
0030
0200
0300
2000
0000
0000
0000
3001
0000
0000
0000
,
1100
0100
1000
0001
0100
0010
0100
0001
,
0010
0100
1000
0010
1000
0001
0200
0000
,
0301
1000
0010
0100
0001
0010
0100
0010
,
0001
0100
0010
1000
0001
0010
0100
1000
,
0001
0100
0001
0100
0001
0100
0001
0020
,
0000
0031
0100
0020
0000
1030
0001
1000
,
0100
0010
0001
0100
0001
0100
0001
1000
,
0100
0000
1000
0000
0001
0000
0010
0000
0001
0000
1000
0000
0100
0000
1000
0001
,
1000
0001
0010
0100
0010
0001
1000
0100
,
0010
0001
0100
0001
1000
0001
0200
0000
,
0301
0010
0100
0010
0001
0100
0010
1000
,
0100
0010
0100
1000
0010
0100
0001
0010
,
0001
0100
0001
0100
0001
0100
0001
0020
,
0000
0031
1000
0200
0000
1300
0100
1000
,
0002
0003
0200
0300
0020
0030
2000
3000
0020
0030
0200
0300
0002
0003
2000
3000
,
0020
0000
0000
0000
0000
0000
0230
0000
0000
0000
0000
0000
0310
0000
0100
0010
,
0100
0010
1000
0001
0010
0001
0100
0010
,
1000
0100
1000
0010
0100
0001
0020
0000
,
0031
1000
0100
1000
0010
0100
0001
0010
,
0100
0010
0001
1000
0010
0100
0001
2000
,
0000
0000
3001
0200
0000
0000
0301
0020
,
0000
0000
0130
2000
0000
0000
3001
0200
,
0000
0000
0310
2000
0000
0000
3001
0020
,
0000
0000
0000
0000
0031
0000
2000
0000
0000
0000
0000
0000
3001
0000
1000
0010
,
1000
0100
0010
0001
0100
0010
0100
0001
,
0010
0100
1000
0010
0100
0001
0020
0000
,
0031
0100
0010
1000
0001
0010
0100
0010
,
0001
1000
0010
1000
0100
0010
0001
0200
,
0000
0000
0301
0020
0000
0031
0100
0020
,
0000
1030
0100
0020
0000
0031
0010
0200
,
0000
1300
0010
0200
0000
0301
1000
0020
,
0000
0000
0000
0000
0000
0000
0000
0000
0000
0000
0030
0000
0100
0000
0010
1000
,
0010
0000
0000
0000
1000
0000
0000
0000
0002
0003
0000
0000
0100
0000
0000
0000
0001
0000
0000
0000
2000
3000
0000
0000
0100
0000
0000
0000
1000
0000
0000
0000
,
0010
0000
0000
0000
0100
0000
0000
0000
0002
0003
0000
0000
0100
0000
0000
0000
0010
0000
0000
0000
2000
3000
0000
0000
0001
0000
0000
0000
0010
0000
0000
0000
,
0100
0000
0000
0000
1000
0000
0000
0000
0200
0300
0000
0000
0010
0000
0000
0000
0001
0000
0000
0000
0200
0300
0000
0000
0001
0000
0000
0000
0010
0000
0000
0000
,
0100
2000
3002
0203
0302
0013
0100
0010
,
0001
0000
0000
0000
1000
0000
0000
0000
0200
0300
0000
0000
1000
0000
0000
0000
0010
0000
0000
0000
0200
0300
0000
0000
0001
0000
0000
0000
0010
0000
0000
0000
,
0001
0000
0000
0000
0100
0000
0000
0000
0020
0030
0000
0000
1000
0000
0000
0000
0010
0000
0000
0000
0200
0300
0000
0000
0001
0000
0000
0000
0010
0000
0000
0000
,
0100
0000
0000
0000
0010
0000
0000
0000
0002
0003
0000
0000
0100
0000
0000
0000
0001
0000
0000
0000
2000
3000
0000
0000
0100
0000
0000
0000
1000
0000
0000
0000
,
0001
0000
0000
0000
0200
0000
0000
0000
0320
0000
0000
0000
0230
0000
0000
0000
0302
0000
0000
0000
2003
3000
0000
0000
0100
0000
0000
0000
0010
0000
0000
0000
,
0002
0203
0302
0023
0230
2300
3020
2030
,
3101
0100
0010
1000
0001
0010
0100
0010
,
0001
1000
0010
1000
0001
1000
0200
0000
,
1300
0100
0010
0001
0010
0100
1000
0010
,
0100
0010
1000
0100
0010
0001
1000
0010
,
0100
0001
0100
0001
0100
0001
0100
0020
,
0000
0130
0001
2000
0000
3001
0010
0001
,
0100
0010
1000
0001
0010
0100
1000
0010
,
0000
0000
0100
0000
0001
0000
0100
0000
0010
0000
1000
0000
0001
0000
1000
0001
,
1000
0001
0010
0100
1000
0010
0100
0001
,
0010
0001
1000
0010
0100
0001
0020
0000
,
0031
0100
0001
0010
0100
1000
0001
0100
,
0010
1000
0100
0010
0100
1000
0010
1000
,
0001
0100
0001
0100
0001
0100
0001
2000
,
0000
3001
0010
0200
0000
1300
0001
0100
,
0001
1000
0100
1000
0100
1000
0100
1000
,
0010
0100
0010
0100
0001
1000
0001
1000
,
1001
0001
0010
0100
1000
0001
0100
0101
,
0000
0100
0010
1000
0100
0010
0001
0011
,
0000
0010
0100
0010
0001
1000
0010
0110
,
0000
0100
0001
1000
0010
0100
0010
1010
,
0000
1000
0001
0010
0001
1000
0010
1001
,
0000
0001
0010
0100
0010
0001
1000
1010
,
0000
1000
0001
0010
0100
1000
0001
0101
,
0000
0100
0010
1000
0100
0010
0100
1000
,
1001
0001
0001
0010
0100
0100
1000
1001
,
0001
0100
0100
0010
1000
1000
0100
0110
,
0010
0010
0001
1000
1000
0010
0100
0101
,
0001
0001
1000
0100
0100
0010
0001
0011
,
0010
0100
0100
1000
0100
0100
0010
0110
,
0100
1000
1000
0001
0100
0100
0001
1000
,
0001
0010
0001
0010
0100
0010
0100
0010
,
0100
1000
0100
1000
0010
1000
0010
1000
,
0001
1000
0100
0010
0001
0100
0001
1000
,
0100
0010
0001
1000
0010
1000
0001
0010
,
0001
0100
0010
1000
0100
0010
0001
1000
,
0010
2000
3200
0320
0032
0103
0010
1000
,
0001
0010
0100
1000
0010
0100
0001
1000
,
0010
0100
0001
1000
0001
0010
0100
1000
,
0100
0010
0001
1000
0010
0100
0010
1000
,
0001
0100
0001
0010
0001
0100
0001
1000
,
0002
0023
0032
0203
0320
2030
3200
2300
,
3001
1000
0001
1000
0100
0010
0100
1000
,
0010
0100
0001
0010
0001
1000
0002
0000
,
1003
0001
0010
0100
1000
0010
0100
0010
,
1000
0100
0010
0001
1000
0010
0100
0001
,
1000
0100
1000
0100
1000
0100
1000
0020
,
0000
0130
0001
0020
0000
0031
1000
0001
,
0010
0100
1000
0100
1000
0100
1000
0001
,
0010
0000
0001
0000
0100
0000
0010
0000
1000
0000
0010
0000
1000
0000
0001
0010
,
0001
1000
0010
0100
0010
1000
0001
0100
,
0010
1000
0100
1000
0001
1000
0020
0000
,
1030
0010
0100
0010
1000
0100
0010
0001
,
0100
0010
0100
0001
0010
0100
1000
0010
,
1000
0100
1000
0100
1000
0100
1000
0002
,
0000
0103
0001
2000
0000
3001
1000
0010
,
0200
0300
0002
0003
0020
0030
0002
0003
2000
3000
0020
0030
2000
3000
0200
0300
,
2000
0000
0000
0000
0000
0000
3002
0000
0000
0000
0000
0000
0013
0000
0001
1000
,
0001
1000
0100
0010
0100
1000
0010
0100
,
0001
0010
0100
1000
0100
0010
0200
0000
,
1300
0010
0100
0010
1000
0100
0010
0001
,
1000
0010
0100
0001
0010
0100
0010
0002
,
0000
0000
1003
0200
0000
0000
0310
0002
,
0000
0000
0013
0200
0000
0000
1300
0002
,
0000
0000
0103
0020
0000
0000
0130
0002
,
0000
0000
0000
0000
1003
0000
0200
0000
0000
0000
0000
0000
1300
0000
0010
1000
,
0010
0100
0001
0010
0100
1000
0010
0100
,
0010
1000
0100
0010
0001
1000
0020
0000
,
1030
0001
0010
0001
1000
0010
0100
0001
,
0010
0100
0010
0001
0100
0001
0010
0200
,
0000
0000
1300
0002
0000
0103
0010
2000
,
0000
3100
0010
0002
0000
1003
0010
0200
,
0000
0301
0010
0200
0000
1300
0001
0020
,
0000
0000
0000
0000
0000
0000
0000
0000
0000
0000
0030
0000
0001
0000
1000
0010
,
2000
3000
0200
0300
2000
3000
0020
0030
2000
3000
0200
0300
0020
0030
0002
0003
,
0200
0300
0002
0003
0020
0030
0002
0003
2000
3000
0002
0003
0020
0030
0002
0003
,
0100
0010
1000
0000
0001
0010
0001
0000
1000
0100
0010
0000
0001
1000
0001
0000
,
0100
0010
1000
0001
0010
0100
1000
0001
1000
0000
0000
0000
0022
0000
0000
0000
,
0033
0000
0000
0000
;

//---------------dance-single - 4/2/4 FS----------------
#NOTES:
     dance-single:
     4/2/4 FS:
     Hard:
     12:
     0.867,1.000,0.087,0.395,0.314,987.000,16.000,73.000,0.000,0.000:
1000
0000
0000
0000
0000
0000
1000
0000
0000
0000
0000
0000
0002
0003
0000
0000
0000
0000
0100
0000
0000
0000
0000
0000
0100
0000
0000
0000
0000
0000
0020
0030
0000
0000
0000
0000
1000
0000
0000
0000
0000
0000
0002
0003
0000
0000
0000
0000
,
0001
0000
0000
0000
0000
0000
0010
0000
0000
0000
0000
0000
0200
0300
0000
0000
0000
0000
2000
3000
0000
0000
0000
0000
0010
0000
0000
0000
0000
0000
2000
3000
0000
0000
0000
0000
0001
0000
0000
0000
0000
0000
0100
0000
0000
0000
0000
0000
,
0001
0000
0000
0000
0000
0000
0001
0000
0000
0000
0000
0000
0020
0030
0000
0000
0000
0000
0100
0000
0000
0000
0000
0000
0100
0000
0000
0000
0000
0000
2000
3000
0000
0000
0000
0000
0001
0000
0000
0000
0000
0000
0020
0030
0000
0000
0000
0000
,
0010
0000
0000
0000
0000
0000
0002
0003
0000
0000
0000
0000
2000
3000
0000
0000
0000
0000
0002
0003
0000
0000
0000
0000
2000
3000
0000
0000
0000
0000
0020
0030
0000
0000
0000
0000
0100
0000
0000
0000
0000
0000
0002
0003
0000
0000
0000
0000
,
1000
0000
0000
0000
0000
0000
0100
0000
0000
0000
0000
0000
1000
0000
0000
0000
0000
0000
0001
0000
0000
0000
0000
0000
1000
0000
0000
0000
0000
0000
0010
0000
0000
0000
0000
0000
1000
0000
0000
0000
0000
0000
0200
0300
0000
0000
0000
0000
,
0010
0000
0000
0000
0000
0000
0001
0000
0000
0000
0000
0000
1000
0000
0000
0000
0000
0000
0020
0030
0000
0000
0000
0000
0100
0000
0000
0000
0000
0000
0001
0000
0000
0000
0000
0000
1000
0000
0000
0000
0000
0000
0001
0000
0000
0000
0000
0000
,
0020
0030
0000
0000
0000
0000
0100
0000
0000
0000
0000
0000
1000
0000
0000
0000
0000
0000
0100
0000
0000
0000
0000
0000
0010
0000
0000
0000
0000
0000
0001
0000
0000
0000
0000
0000
1000
0000
0000
0000
0000
0000
0020
0030
0000
0000
0000
0000
,
0100
0000
0000
0000
0000
0000
0010
0000
0000
0000
0000
0000
1000
0000
0000
0000
0000
0000
0200
0300
0000
0000
0000
0000
0010
0000
0000
0000
0000
0000
0001
0000
0000
0000
0000
0000
1000
0000
0000
0000
0000
0000
0001
0000
0000
0000
0000
0000
,
0100
0010
1000
0001
0010
0100
1000
0001
0100
0001
0010
0001
1000
0010
1000
0100
,
0010
0100
1000
0001
0100
0010
1000
0001
0010
0001
0100
0001
1000
0100
1000
0010
,
0100
0001
0010
0100
1000
0001
0100
0010
1000
0001
1000
0100
0010
0100
1000
0001
,
0100
0010
0100
0001
0010
0001
1000
0010
0200
0000
0000
0000
0301
0000
0000
0000
,
1010
0010
0100
0001
1000
0001
0010
0100
,
1000
0010
1000
0001
0100
0001
0040
0030
,
1000
0100
1000
0001
0010
0001
1000
0010
,
0100
0010
1000
0001
0010
0100
1000
0001
,
0100
0010
1000
0100
1000
0001
1000
0040
,
0030
0001
1000
0400
0300
0001
1000
0010
,
0400
0300
1000
0001
0010
0001
1000
0040
,
0030
0000
0100
0000
1000
0000
0400
0000
0300
0000
0001
0000
0010
0000
0001
1000
,
0010
0100
0010
1000
0001
1000
0100
0010
,
0001
0100
0001
1000
0010
1000
0400
0300
,
0001
0010
0001
1000
0100
1000
0001
0100
,
0010
0100
0001
1000
0100
0010
0001
1000
,
0010
0100
0001
0010
0001
1000
0001
0400
,
0300
1000
0001
0040
0030
1000
0001
0100
,
0001
0010
0100
1000
0010
0100
0001
1000
0010
1000
0001
0010
0100
1000
0001
0100
,
0020
0000
0000
0000
0000
0000
0230
0000
0000
0000
0000
0000
0301
1000
0100
1000
,
0001
0100
0001
0010
0100
1000
0010
0100
,
0010
1000
0100
0010
0001
1000
0040
0030
,
0001
0100
0001
1000
0010
1000
0100
0010
,
0100
1000
0010
0100
0001
1000
0100
0020
,
0000
0000
0031
2000
0000
0000
3010
0200
,
0000
0000
0301
2000
0000
0000
3100
0020
,
0000
0000
0031
0200
0000
0000
0310
2000
,
0000
0000
0000
0000
3001
0000
0020
0000
0000
0000
0000
0000
0130
0000
1000
0001
,
0100
0010
1000
0100
0010
0001
0100
0010
,
0100
0001
0010
0100
1000
0001
0400
0300
,
1000
0010
1000
0001
0100
0001
0010
0100
,
0010
0000
0000
0001
0000
0000
0100
0000
0000
0010
0000
0000
1000
0000
0000
0001
0000
0000
0010
0000
0000
0200
0300
0000
,
0000
0000
0000
0000
0000
0000
1000
0000
0000
0002
0000
0003
0000
0000
0000
1000
0000
0000
0100
0000
0000
0020
0000
0000
,
0030
0000
0000
0001
0000
0000
0100
0000
0000
0020
0000
0000
0000
0030
0000
1000
0000
0000
0001
0000
0000
0020
0000
0000
,
0000
0000
0030
0001
0000
0000
1000
0000
0000
0020
0000
0000
0000
0000
0000
0130
0000
0000
0001
0000
0000
0020
0000
0000
,
0000
0000
0000
0000
0000
0000
0000
0000
0000
0000
0030
0000
0001
0000
1000
0001
,
0100
0010
0100
0001
0010
0100
1000
0010
,
1000
0100
1000
0001
0100
0001
1000
0010
,
1000
0100
0010
0001
0100
0010
1000
0100
,
0010
0001
1000
0001
1000
0001
0100
0001
,
0010
0100
1000
0010
0100
0001
0010
0100
,
0010
0001
0100
0001
1000
0100
1000
0001
,
0010
0001
0100
0010
1000
0100
0010
0001
,
0100
0000
0010
0000
1000
0000
0001
0000
1000
0000
0001
0000
1000
0001
0010
0001
,
2000
0000
0000
0000
0000
0000
0000
0000
3200
0000
0000
0000
0000
0000
0000
0000
2300
0000
0000
0000
0000
0000
0000
0000
3020
0000
0000
0000
0000
0000
0000
0000
0230
0000
0000
0000
0000
0000
0000
0000
0302
0000
0000
0000
0000
0000
0000
0000
0023
0000
0000
0000
0000
0000
0000
0000
0032
0000
0000
0000
0000
0000
0000
0003
,
1001
1000
0010
0100
0010
1000
0100
1000
,
0001
1000
0010
0100
0001
1000
0400
0300
,
0010
0100
0001
0010
0001
0100
0001
1000
,
0100
0010
0100
1000
0010
0100
0001
0010
,
0100
0010
0001
0010
0001
0010
0001
0400
,
0300
0010
0001
0400
0300
1000
0001
1000
,
0040
0030
0001
0100
0001
1000
0001
0040
,
0030
0000
1000
0000
0100
0000
0040
0000
0030
0000
1000
0000
0001
0000
1000
0100
,
1000
0001
0010
0100
0010
0001
0100
0001
,
1000
0001
0010
0100
1000
0001
0400
0300
,
0010
0100
1000
0010
1000
0100
1000
0001
,
0100
0010
0100
0001
0010
0100
1000
0010
,
0100
0010
1000
0010
1000
0010
1000
0400
,
0300
0010
1000
0400
0300
0001
1000
0001
,
0040
0030
1000
0100
1000
0001
1000
0040
,
0030
0001
0100
0040
0030
0001
1000
0001
,
0100
0001
0010
0100
1000
0001
0100
0101
,
0000
0100
0010
1000
0100
0010
0001
0011
,
0000
0010
0100
0010
0001
1000
0010
0110
,
0000
0100
0001
1000
0010
0100
0010
1010
,
0000
1000
0001
0010
0001
1000
0010
1001
,
0000
0001
0010
0100
0010
0001
1000
1010
,
0000
1000
0001
0010
0100
1000
0001
0101
,
0000
0000
0100
0000
0010
0000
1000
0000
0100
0000
0010
0000
0100
0000
1000
0001
,
0100
0000
0010
1000
0010
0000
0100
0000
0001
0010
0001
0000
1000
0000
1001
0000
,
0001
0000
1000
0010
1000
0000
0100
0000
0010
0001
0010
0000
0001
0000
0101
0000
,
0100
0000
0001
0010
0001
0000
0100
0000
0010
1000
0010
0000
0100
0000
0110
0000
,
0010
0000
1000
0100
1000
0000
0010
0000
0100
0001
0100
0000
0001
0000
0011
0000
,
0010
0000
0100
1000
0100
0000
0010
0000
0001
0100
0001
0000
1000
0000
1001
0000
,
0001
0000
1000
0100
1000
0000
0010
0000
0100
0001
0100
0000
0001
0000
1000
0000
,
0001
1000
0010
0100
0010
1000
0001
0100
0001
1000
0100
1000
0001
0010
0001
1000
,
0001
0100
0010
0100
0001
1000
0010
1000
0001
0010
0001
1000
0100
1000
0001
0010
,
0001
0100
0040
0030
0001
0400
0300
1000
,
0001
0040
0030
0100
0040
0030
0001
1000
,
0001
0400
0300
1000
0040
0030
0001
0010
,
0100
1000
0001
1000
0001
1000
0010
1000
,
0001
0010
0400
0300
0001
0040
0030
1000
,
0001
0400
0300
0010
0400
0300
0001
1000
,
0001
0040
0030
1000
0400
0300
0001
0100
,
0010
0000
0100
0000
0001
0000
1000
0000
0001
0000
1000
0000
0001
1000
0100
1000
,
0002
0000
0000
0000
0000
0000
0000
0000
0023
0000
0000
0000
0000
0000
0000
0000
0032
0000
0000
0000
0000
0000
0000
0000
0203
0000
0000
0000
0000
0000
0000
0000
0320
0000
0000
0000
0000
0000
0000
0000
2030
0000
0000
0000
0000
0000
0000
0000
3200
0000
0000
0000
0000
0000
0000
0000
2300
0000
0000
0000
0000
0000
0000
3000
,
1001
0001
0100
0010
0100
0001
0010
0001
,
1000
0001
0100
0010
1000
0001
0040
0030
,
0100
0010
1000
0100
1000
0010
1000
0001
,
0010
0100
0010
0001
0100
0010
1000
0100
,
0010
0100
1000
0100
1000
0100
1000
0040
,
0030
0100
1000
0040
0030
0001
1000
0001
,
0400
0300
1000
0010
1000
0001
1000
0400
,
0300
0000
0001
0000
0010
0000
0400
0000
0300
0000
0001
0000
1000
0000
0010
0100
,
0001
1000
0100
0010
0100
1000
0010
1000
,
0001
1000
0100
0010
0001
1000
0040
0030
,
0100
0010
0001
0100
0001
0010
0001
1000
,
0010
0100
0010
1000
0100
0010
0001
0100
,
0010
0100
0001
0100
0001
0100
0001
0040
,
0030
0100
0001
0040
0030
1000
0001
1000
,
0001
0010
0100
1000
0010
0100
0001
1000
0010
1000
0001
0010
0100
1000
0001
0100
,
0020
0000
0000
0000
0000
0000
0230
0000
0000
0000
0000
0000
0301
1000
0100
1000
,
0001
0100
0001
0010
0100
1000
0010
0100
,
0010
1000
0100
0010
0001
1000
0040
0030
,
0001
0100
0001
1000
0010
1000
0100
0010
,
0100
1000
0010
0100
0001
1000
0100
0020
,
0000
0000
0031
2000
0000
0000
3010
0200
,
0000
0000
0301
2000
0000
0000
3100
0020
,
0000
0000
0031
0200
0000
0000
0310
2000
,
0000
0000
0000
0000
3001
0000
0020
0000
0000
0000
0000
0000
0130
0000
1000
0001
,
0100
0010
1000
0010
0100
0001
0010
0100
,
0010
0001
0100
0010
1000
0001
0040
0030
,
1000
0100
1000
0001
0010
0001
0100
0010
,
0100
0000
0000
0001
0000
0000
0010
0000
0000
0100
0000
0000
1000
0000
0000
0001
0000
0000
0100
0000
0000
0020
0030
0000
,
0000
0000
0000
0000
0000
0000
1000
0000
0000
0002
0000
0003
0000
0000
0000
1000
0000
0000
0010
0000
0000
0200
0000
0000
,
0300
0000
0000
0001
0000
0000
0010
0000
0000
0200
0000
0000
0000
0300
0000
1000
0000
0000
0001
0000
0000
0200
0000
0000
,
0000
0000
0300
0001
0000
0000
1000
0000
0000
0200
0000
0000
0000
0000
0000
0310
0000
0000
0001
0000
0000
0200
0000
0000
,
0000
0000
0000
0000
0000
0000
0000
0000
0000
0000
0300
0000
0001
0000
1000
0001
,
1000
0010
0100
0001
1000
0100
1000
0001
0010
0001
0100
0010
1000
0100
0010
0100
,
1000
0001
0100
0010
1000
0001
0010
0001
1000
0100
1000
0010
0100
0001
0010
0100
,
1000
0010
0100
0001
1000
0100
0010
0001
1000
0001
0100
0010
0100
0001
0010
0100
,
1000
0001
0100
0001
1000
0001
0010
0100
1000
0000
0000
0000
0022
0000
0033
0000
;
