#TITLE:Black Sheep;
#SUBTITLE:Silence (2001);
#ARTIST:Sonata Arctica;
#TITLETRANSLIT:;
#SUBTITLETRANSLIT:;
#ARTISTTRANSLIT:;
#CREDIT:;
#BANNER:BS-BN.png;
#BACKGROUND:BS-BG.png;
#LYRICSPATH:;
#CDTITLE:RaVeTitle.PNG;
#MUSIC:05 Black Sheep.mp3;
#OFFSET:0.130;
#SAMPLESTART:38.829;
#SAMPLELENGTH:19.300;
#SELECTABLE:YES;
#BPMS:0.000=200.000,176.000=198.000,194.000=199.000,216.000=200.000,228.000=200.000,236.000=200.000,296.000=199.500,319.000=200.000,451.000=199.700,480.000=198.500,496.000=198.500,520.000=200.000,524.000=200.000,544.000=100.000,548.000=200.000,604.000=200.000,612.000=199.000,668.000=200.500;
#STOPS:;
#BGCHANGES:;
// cache tags:
#FIRSTBEAT:1.000;
#LASTBEAT:723.500;
#SONGFILENAME:Songs/Astronomic Metal Collection 2/(KGWrave) Black Sheep/Black Sheep.sm;
#HASMUSIC:1;
#HASBANNER:1;
#MUSICLENGTH:222.620;
// end cache tags

//---------------dance-single - ----------------
#NOTES:
     dance-single:
     :
     Hard:
     12:
     1.000,1.000,1.000,1.000,0.685,1463.000,257.000,276.000,0.000,7.000:
0000
0001
0001
0001
,
1001
0000
0100
1000
0010
0000
0100
0000
0001
0000
0010
0000
1100
0000
0010
0001
,
0100
0010
1000
0001
0110
0001
1000
0001
,
0100
0000
0010
0000
1100
0000
0001
1000
0100
0000
0010
0000
0100
0000
1000
0000
,
1001
0000
0010
0001
0100
0000
0010
0000
1000
0000
0100
0000
0011
0000
0100
1000
,
0010
0100
0001
1000
0110
1000
0001
1000
,
0010
0000
0100
0000
0101
0000
1000
0001
0010
0000
0100
0000
0010
0000
0001
0000
,
1001
0000
0001
0100
0010
0000
1000
0000
0010
0000
0100
0000
0101
0000
1000
0001
,
0100
0010
1000
0001
0110
0100
1000
0001
,
0100
0000
0010
0000
1100
0000
0010
1000
0100
0000
0010
0000
0100
0000
1000
0000
,
1001
0000
1000
0010
0100
0000
0001
0000
0100
0000
0010
0000
1100
0000
0001
1000
,
0010
0100
0001
1000
1100
0010
0001
1000
,
0010
0000
0100
0000
0101
0000
0100
0001
0010
0000
0001
0000
1000
0000
0010
0000
,
2000
3200
0320
0032
0023
0230
0320
0032
,
2003
3020
0230
0302
2203
3300
0000
0101
,
0000
1000
1001
0000
0000
1010
0000
0100
,
0011
0000
0000
1100
0000
0010
2002
0000
,
3003
0220
0000
0330
1001
0000
0010
0000
,
1000
1000
0012
0000
1000
0000
0010
0000
,
2003
0000
0010
0000
0001
0001
3200
0000
,
0000
2300
0000
3000
0011
0000
0000
1010
,
0000
0001
1001
0000
0000
0101
0000
0010
,
1100
0000
0000
0011
0000
0100
2002
0000
,
3003
0220
0000
0330
1001
0000
0100
0000
,
0001
0001
2100
0000
0001
0000
0100
0000
,
3002
0000
0100
0000
1000
1000
0023
0000
,
0000
0032
0000
0003
0011
0001
0010
0001
,
0010
0001
1100
0100
1000
0100
1000
0100
,
1010
1000
0010
1000
0010
1000
0101
0001
,
0100
0001
0100
0001
0110
0100
0010
0100
,
0010
0100
1001
1000
0001
1000
0001
1000
,
0101
0001
0100
1010
1000
0100
0011
0001
,
0010
1100
1000
0100
1001
0010
0100
1010
,
0101
0010
1100
0010
0101
0001
1000
0001
,
0110
1000
0010
0100
0110
1000
0001
1100
,
0011
1000
0101
1000
0011
0100
1000
0001
,
0010
0100
1000
0001
2010
0001
0100
3010
,
0102
1000
0100
0013
1200
1000
0010
0301
,
0021
0001
0100
1030
0002
0023
0230
2300
,
3200
0320
0230
2300
3200
0320
0032
2003
,
3200
1301
1001
1001
1001
0010
0100
1010
,
0101
0010
1100
0010
0101
0001
1000
0001
,
0110
1000
0110
0100
0110
1000
0001
1100
,
0011
1000
0101
1000
0011
0100
1000
0001
,
0010
0100
1000
0001
2002
0000
0000
3003
,
1010
1010
0202
0303
,
2002
3003
2002
3003
,
0220
0330
2002
0000
,
0000
0000
0000
0000
0000
0000
3003
0000
1001
0000
0100
1000
0010
0000
0100
0000
,
0001
0000
0010
0000
1100
0000
0010
0001
0100
0000
0010
0000
1000
0000
0001
0000
,
0110
0000
0001
0000
1000
0000
0001
0000
0100
0000
0010
0000
1100
0000
0001
1000
,
0100
0000
0010
0000
0100
0000
1000
0000
1001
0000
0010
0001
0100
0000
0010
0000
,
1000
0000
0100
0000
0011
0000
0100
1000
0010
0000
0100
0000
0001
0000
1000
0000
,
0110
0000
1000
0000
0001
0000
1000
0000
0010
0000
0100
0000
0101
0000
1000
0001
,
0010
0000
0100
0000
0010
0000
0001
0000
1001
0000
0001
0100
0010
0000
1000
0000
,
0010
0000
0100
0000
0101
0000
1000
0001
0100
0000
0010
0000
1000
0000
0001
0000
,
0110
0000
0100
0000
1000
0000
0001
0000
0100
0000
0010
0000
1100
0000
0010
1000
,
0100
0000
0010
0000
0100
0000
1000
0000
1001
0000
1000
0010
0100
0000
0001
0000
,
0100
0000
0010
0000
1100
0000
0001
1000
0010
0000
0100
0000
0001
0000
1000
0000
,
1100
0000
0010
0000
0001
0000
1000
0000
0010
0000
0100
0000
0101
0000
0100
0001
,
0010
0001
1000
0010
2000
3200
0320
0032
,
0023
0230
0320
0032
2003
3020
0230
0302
,
1010
0103
0000
1010
0000
0001
1001
0000
,
0101
0101
1100
1100
,
0011
0100
2002
0000
3003
0220
0000
0330
,
1001
0000
0100
0000
0001
0001
2100
0000
,
0001
0100
3002
0100
,
1000
1000
0023
0000
0000
0032
0000
0003
,
1100
0000
1100
0000
1000
0011
0000
0000
,
1001
0000
1010
0000
0011
0001
0000
1100
,
0000
0010
2002
0000
3003
0220
0000
0330
,
1001
0000
0010
0000
1000
1000
0012
0000
,
1000
0010
2003
0010
,
0001
0001
3200
0000
0000
2300
0000
3000
,
1100
1000
0100
1000
0100
1000
0011
0010
,
0001
0010
0001
0010
0101
0001
0100
0001
,
0100
0001
1010
1000
0010
1000
0010
1000
,
0110
0010
0100
0010
0100
0010
1001
0001
,
1000
0001
1000
0001
1010
1000
0010
0101
,
0001
0010
1100
1000
0100
0011
0001
0010
,
1001
0100
0010
0101
1010
0100
0011
0100
,
1010
1000
0001
1000
0110
0001
0100
0010
,
0110
0001
1000
0011
1100
0001
1010
0001
,
1100
0010
0001
1000
0100
0010
0001
1000
,
0102
1000
0010
0103
2010
0001
0010
3100
,
0021
0001
0100
1030
1200
1000
0010
0301
,
2000
3200
0320
0032
0023
0230
0320
0032
,
0023
0230
2300
3002
0023
1031
1001
1001
,
1001
0100
0010
0101
1010
0100
0011
0100
,
1010
1000
0001
1000
0110
0001
0110
0010
,
0110
0001
1000
0011
1100
0001
1010
0001
,
1100
0010
0001
1000
0100
0010
0001
1000
,
2002
0000
0000
3003
0101
0000
0101
0000
,
2020
3030
2002
3003
,
1001
0100
0001
0100
0001
0100
0010
1000
0010
1000
0010
1000
,
0001
0100
0010
1000
0100
0010
0001
0100
0010
1000
0100
0010
,
0001
0100
1000
0010
0200
0301
1000
0010
0100
0001
0020
0130
,
1000
0010
0001
0100
2000
3010
0100
0001
1000
0001
0020
0230
,
0302
0103
1000
0010
0200
0301
1000
0010
0100
0001
0020
0130
,
1000
0010
0001
0100
2000
3010
0100
0001
1000
0001
0020
0230
,
2300
3010
0001
0100
0020
1030
0001
0100
0010
1000
0200
0310
,
0001
0100
1000
0010
0002
0103
0010
1000
0001
1000
0200
0320
,
2030
3010
0001
0100
0020
1030
0001
0100
0010
1000
0200
0310
,
0001
0100
1000
0010
0002
0103
0010
1000
0001
1000
0200
0320
,
0032
1003
0100
1000
0020
0130
0001
1000
0100
1000
0020
0130
,
1000
0001
0010
0001
0200
0310
1000
0001
0010
0001
0200
0320
,
2030
3001
0010
0001
0200
0310
1000
0001
0010
0001
0200
0310
,
0001
1000
0100
1000
0020
0130
0001
1000
0100
1000
0020
0230
,
0320
0130
0001
0100
2000
3001
0010
0100
0001
0100
2000
3001
,
0100
0010
1000
0010
0002
1003
0100
0010
1000
0010
0002
2003
,
3200
0310
1000
0010
0002
1003
0100
0010
1000
0010
0002
1003
,
0010
0100
0001
0100
2000
0000
0000
3002
0000
0000
0023
0000
,
0000
0000
0000
0000
2030
0000
3002
0000
0000
2003
0000
0000
3002
0000
0000
2003
0000
0000
3002
0000
0000
2003
0000
0000
3002
0000
0000
2003
0000
0000
0000
0000
0000
0000
0000
0000
0000
0000
0000
0000
0000
0000
3002
0000
0000
0000
0000
0000
,
0000
0000
0000
0000
0103
1000
0001
0010
0100
1000
0001
0010
0100
1000
0001
0010
,
0200
0000
2300
0000
,
3002
0103
0010
2000
3100
0010
0002
0103
0010
2000
3100
0010
,
0002
0000
0000
0000
0000
0000
1003
0002
0000
0000
0000
0000
,
0003
1000
0010
0001
1000
0010
0100
2000
3010
0001
1000
0010
,
1000
0001
0100
1000
0001
0100
0010
0001
0100
1000
0001
0100
,
0001
0010
0001
0100
0010
0001
1000
0010
0001
0100
0010
0001
,
0000
0100
1000
0100
0001
0000
0000
0100
1000
0100
0001
0000
0000
0100
1000
0100
,
0001
0000
0000
0100
1000
0100
0001
0000
0000
0100
1000
0100
0000
0010
0001
0010
,
0001
0100
0010
1000
0001
0010
0100
1000
0010
0100
0001
0010
0001
0100
0010
1000
,
0010
0100
0001
0010
0100
1000
0100
0010
0002
0000
0000
0000
2003
0000
3000
0000
,
1000
0100
0010
0001
0100
0010
1000
0010
0100
0001
0010
0100
0010
0001
0100
0010
,
1000
0010
0100
0001
0010
0100
1000
0100
0010
0100
1000
0010
0100
0020
0000
0000
,
0030
0001
0010
0100
1000
0100
0010
0001
0010
0100
1000
0100
0010
0001
0010
0100
,
1000
0001
0100
0010
1000
0010
0100
0001
0010
0002
0000
0000
0000
0000
0003
0000
,
2000
3200
0320
2030
3020
0230
0302
0023
,
0230
0320
0032
0203
0320
2030
3020
0230
,
0302
2003
3002
0203
0320
2030
3020
0230
,
0302
0023
0230
2300
3002
0000
0000
0003
,
1001
0010
0100
1000
0100
0010
0001
0100
0010
1000
0010
0100
0001
0010
0100
0010
,
0001
0100
0010
1000
0010
0100
0010
1000
0100
0010
0001
0010
0100
0010
0001
0100
,
0010
1000
0010
0100
0001
0010
0100
0010
0001
1000
0001
0100
0010
1000
0010
0100
,
0001
1000
0100
1000
0001
0100
0010
1000
0010
0100
0001
0010
0100
0010
0001
0100
,
2002
0000
0000
0000
0000
0000
0000
3003
,
1001
1000
0001
1100
0011
1000
0101
1000
,
0011
0100
1000
0001
0010
0100
1000
0001
,
2010
0001
0100
3010
0102
1000
0100
0013
,
1200
1000
0010
0301
0021
0001
0100
1030
,
0002
0023
0230
2300
3200
0320
0230
2300
,
3200
0320
0032
2003
3200
1301
1001
1001
,
1001
0010
0100
1010
0101
0010
1100
0010
,
0101
0001
1000
0001
0110
1000
0110
0100
,
0110
1000
0001
1100
0011
1000
0101
1000
,
0011
0100
1000
0001
0010
0100
1000
0001
,
2002
0000
0000
3003
1010
0000
1010
0000
,
0202
0303
2002
3003
,
2002
3003
0220
0330
,
0001
0010
0100
1000
0100
0010
0001
0010
,
1001
0100
0010
0101
1010
0100
0011
0100
,
1010
1000
0001
1000
0110
0001
0100
0010
,
0110
0001
1000
0011
1100
0001
1010
0001
,
1100
0010
0001
1000
0100
0010
0001
1000
,
0102
1000
0010
0103
2010
0001
0010
3100
,
0021
0001
0100
1030
1200
1000
0010
0301
,
2000
3200
0320
0032
0023
0230
0320
0032
,
0023
0230
2300
3002
0023
0230
2300
3020
,
1031
0100
0010
0101
1010
0100
0011
0100
,
1010
1000
0101
1000
0110
0001
0110
0010
,
0110
0001
1000
0011
1100
0001
1010
0001
,
1100
0010
0001
1000
0100
0010
0001
1000
,
0001
0001
0001
0001
1000
1000
1000
1000
,
0100
0100
0100
0100
0010
0010
0010
0010
,
2002
0000
0000
3003
0220
0000
0000
0330
,
1001
1001
1001
1001
1001
1001
1001
1001
,
1001
0000
0100
1000
0010
0000
0100
0000
0001
0000
0010
0000
1100
0000
0010
0001
,
0100
0010
1000
0001
0110
0001
1000
0001
,
0100
0000
0010
0000
1100
0000
0001
1000
0100
0000
0010
0000
0100
0000
1000
0000
,
1001
0000
0010
0001
0100
0000
0010
0000
1000
0000
0100
0000
0011
0000
0100
1000
,
0010
0100
0001
1000
0110
1000
0001
1000
,
0010
0000
0100
0000
0101
0000
1000
0001
0010
0000
0100
0000
0010
0000
0001
0000
,
1001
0000
0001
0100
0010
0000
1000
0000
0010
0000
0100
0000
0101
0000
1000
0001
,
0100
0010
1000
0001
0110
0100
1000
0001
,
0100
0000
0010
0000
1100
0000
0010
1000
0100
0000
0010
0000
0100
0000
1000
0000
,
1001
0000
1000
0010
0100
0000
0001
0000
0100
0000
0010
0000
1100
0000
0001
1000
,
0010
0100
0001
1000
1100
0010
0001
1000
,
0010
0000
0100
0000
0011
0000
0100
0001
0010
0000
0001
0000
1000
0000
0010
0000
,
2000
3200
0320
0032
0023
0230
0320
0032
,
2003
3020
0230
0302
2203
0000
0000
3300
;
