#TITLE:HurriKane X;
#SUBTITLE:;
#ARTIST:Nexus;
#TITLETRANSLIT:;
#SUBTITLETRANSLIT:;
#ARTISTTRANSLIT:;
#CREDIT:;
#BANNER:../Jawn - ban.png;
#BACKGROUND:../Jawn - bg.png;
#LYRICSPATH:;
#CDTITLE:;
#MUSIC:HurriKane X.ogg;
#OFFSET:0.010;
#SAMPLESTART:31.048;
#SAMPLELENGTH:12.000;
#SELECTABLE:YES;
#BPMS:0.000=170.000;
#STOPS:;
#BGCHANGES:;
// cache tags:
#FIRSTBEAT:0.000;
#LASTBEAT:516.000;
#SONGFILENAME:Songs/Jimmy Jawns/HurriKane X - [Aoreo]/HurriKane X.sm;
#HASMUSIC:1;
#HASBANNER:1;
#MUSICLENGTH:186.352;
// end cache tags

//---------------dance-single - J. Nero (15+)----------------
#NOTES:
     dance-single:
     J. Nero (15+):
     Challenge:
     15:
     1.000,1.000,0.016,0.059,1.000,1687.000,3.000,11.000,0.000,0.000:
2001
0000
0000
0000
,
3002
0000
0023
0000
,
0230
0000
0000
0000
,
2300
0000
3020
0000
,
0230
0000
0000
0000
,
0301
0010
0100
1000
0001
0100
0010
1000
,
0002
0000
0000
0000
,
0023
0000
0230
0000
,
1300
0001
0100
0001
1000
0100
0000
0000
0000
0000
0000
0000
0000
0000
0000
0000
,
1000
0100
0000
1000
0001
1000
0000
0001
,
0100
0001
1000
0100
0010
0001
0000
0000
0000
0000
0000
0000
0000
0000
0000
0000
,
1000
0010
1000
0000
0000
0000
0000
0000
0000
0000
0000
0000
0000
0000
0000
0000
,
0001
0100
0001
1000
0100
0010
0000
0000
0000
0000
0000
0000
0000
0000
0001
0000
,
1000
0001
0100
0010
0000
0000
0000
0100
,
0001
1000
0100
0010
0001
1000
0000
0000
0000
0000
0000
0000
0000
0000
0000
0000
,
0001
0100
0010
0100
0001
1000
0000
0000
0000
0000
0000
0000
0000
0000
0000
0000
,
1001
0000
0000
0001
0000
0000
1000
0000
0100
0000
0010
0000
0000
0000
0100
0000
,
0010
0000
0000
0001
0000
0000
1000
0000
0000
0001
0000
0000
1000
0000
0010
0000
,
0100
0000
0000
0010
0000
0000
1000
0000
0001
0000
0010
0000
0000
0000
0001
0000
,
0010
0000
0000
0100
0000
0000
1000
0000
0000
0001
0000
0000
1000
0000
0000
0000
,
1001
0000
0000
0001
0000
0000
0100
0000
0010
0000
0100
0000
0000
0000
0010
0000
,
1000
0000
0000
0001
0000
0000
1000
0000
0000
0100
0000
0000
0010
0000
0100
0000
,
0010
0000
0000
0001
0000
0000
1000
0000
0001
0000
0100
0000
0000
0000
0001
0000
,
1000
1000
1000
1000
,
0001
0100
0010
0100
0001
1000
0100
1000
0001
0100
0010
0100
0001
1000
0001
0010
,
0100
1000
0001
1000
0010
0100
0010
1000
0001
1000
0100
0010
0001
1000
0001
0100
,
0010
0100
0001
1000
0001
1000
0010
0100
0010
1000
0001
0010
0100
0010
0001
1000
,
0100
0010
0001
1000
0100
1000
0001
0010
0001
1000
0001
0100
0010
0100
0001
1000
,
0001
0010
0100
1000
0001
0100
0010
0100
0001
1000
0100
0010
0001
1000
0001
0100
,
0010
0100
0001
1000
0001
0010
0100
1000
0001
0100
0010
0100
0001
1000
0100
1000
,
0001
1000
0010
0100
0010
1000
0010
0100
0001
1000
0001
0010
0100
1000
0001
0100
,
0001
1000
0001
0100
0010
1000
0001
0010
0100
1000
0001
0100
0001
1000
0010
0100
,
0010
1000
0001
0100
0001
1000
0100
1000
0001
1000
0010
0100
0010
1000
0001
0010
,
0100
1000
0001
0100
0001
1000
0100
0010
0001
1000
0001
0100
0010
0100
0001
1000
,
0100
1000
0010
0100
0001
1000
0001
0010
0001
0100
0010
1000
0010
0100
0001
1000
,
0001
0010
0100
1000
0001
0100
0010
0100
0001
1000
0100
0010
0001
1000
0100
1000
,
0001
1000
0010
0100
0010
1000
0001
0100
0001
1000
0001
0010
0100
1000
0001
0100
,
0001
1000
0010
0100
0010
1000
0001
1000
0100
0010
0100
1000
0010
0100
0001
0010
,
0001
1000
0100
0010
0100
1000
0001
0100
0010
0100
0001
1000
0001
0010
0100
1000
,
0001
1000
0010
0100
0010
1000
0001
0100
0001
1000
0100
1000
0001
0100
0001
1000
,
0100
0010
0001
1000
0010
0100
0010
1000
0001
0100
0001
0100
0010
1000
0001
1000
,
0001
0010
0100
0010
0100
1000
0010
1000
0100
0010
0100
0010
0001
1000
0100
1000
,
0001
0100
0010
0100
0001
1000
0001
0010
0100
1000
0001
1000
0010
0100
0010
1000
,
0100
0010
0001
0100
0001
0100
0010
1000
0010
1000
0001
0100
0001
1000
0010
1000
,
0001
0010
0100
0010
0001
0100
0010
0100
0001
1000
0100
1000
0001
0100
0010
0100
,
0010
1000
0100
0010
0100
1000
0010
0100
0010
1000
0001
0100
0001
1000
0001
0100
,
0010
0100
0001
1000
0100
0010
0100
1000
0001
1000
0001
0100
0010
0100
0001
1000
,
0100
0010
0001
1000
0010
0100
0001
1000
0100
1000
0001
1000
0010
0100
0010
1000
,
0100
1000
0001
0100
0001
1000
0001
0010
0100
1000
0001
0100
0010
0100
0001
1000
,
0100
0010
0100
1000
0001
0100
0010
0100
0001
1000
0001
0010
0100
1000
0001
0100
,
0010
1000
0100
0010
0100
1000
0010
0100
0001
0010
0001
1000
0001
0010
0100
1000
,
0001
0100
0010
0100
0001
1000
0100
0010
0001
1000
0100
1000
0001
0100
0010
0100
,
0001
0010
0100
1000
0001
0100
0001
1000
0010
0100
0010
1000
0100
0010
0001
1000
,
0100
1000
0010
0100
0001
0010
0001
1000
0001
0100
0010
0100
0001
1000
0100
0010
,
0100
1000
0010
0100
0001
0010
0001
1000
0100
1000
0010
1000
0001
0100
0001
1000
,
0100
0010
0100
1000
0001
0100
0010
0100
0001
1000
0100
0010
0001
1000
0100
1000
,
0010
0100
0010
0100
0001
0010
0001
0010
0100
1000
0010
0100
0010
1000
0001
0100
,
0001
0010
0001
1000
0100
1000
0010
0100
0010
0100
0001
0010
0001
0100
0010
1000
,
0100
1000
0010
0100
0010
0100
0001
0010
0001
0100
0010
1000
0100
1000
0001
0100
,
0001
0010
0001
0100
0010
1000
0100
1000
0001
0100
0010
1000
0100
1000
0010
0100
,
0001
0010
0100
1000
0010
0100
0010
0100
0001
0010
0001
0100
0010
1000
0010
1000
,
0100
0010
0100
1000
0010
0100
0001
0010
0001
1000
0010
1000
0100
0010
0001
0100
,
0010
1000
0010
1000
0100
1000
0100
0010
0001
0100
0010
0100
0001
1000
0001
0100
,
0010
1000
0100
1000
0010
0100
0001
1000
0001
0010
0001
0100
0010
1000
0100
1000
,
0010
0100
0010
0100
0001
0010
0001
0010
0100
1000
0010
0100
0010
1000
0001
0100
,
0001
0010
0001
1000
0100
1000
0010
0100
0010
0100
0001
0010
0001
0100
0010
1000
,
0100
1000
0010
0100
0010
0100
0001
0010
0001
0100
0010
1000
0100
1000
0001
0100
,
0001
0010
0001
0100
0010
1000
0100
1000
0001
0100
0010
1000
0100
1000
0010
0100
,
0001
0010
0100
1000
0010
0100
0010
0100
0001
0010
0001
0100
0010
1000
0010
1000
,
0100
0010
0100
1000
0010
0100
0001
0010
0001
1000
0010
1000
0100
0010
0001
0100
,
0010
1000
0010
1000
0100
1000
0100
0010
0001
0100
0010
0100
0001
1000
0001
0100
,
0010
1000
0100
1000
0010
0100
0001
1000
0001
0010
0001
0100
0010
1000
0100
1000
,
0001
0100
0001
1000
0100
0010
0001
1000
0100
1000
0001
0100
0010
0100
0001
1000
,
0100
1000
0010
0100
0001
0010
0100
1000
0010
0100
0001
1000
0100
1000
0010
0100
,
0010
1000
0001
0100
0001
1000
0001
0010
0100
1000
0001
0100
0010
0100
0001
1000
,
0100
0010
0001
0100
0010
0100
0001
1000
0001
0010
0100
1000
0010
0100
0010
1000
,
0100
1000
0001
0100
0010
0100
0001
1000
0001
0010
0100
1000
0010
0100
0010
1000
,
0001
0100
0001
1000
0100
1000
0010
0100
0001
0100
0001
1000
0100
0010
0100
1000
,
0001
0010
0100
1000
0001
1000
0100
1000
0010
0100
0001
0010
0001
1000
0010
0100
,
0010
1000
0001
0010
0100
1000
0001
1000
0010
0100
0010
1000
0100
0010
0100
1000
,
0001
1000
0100
1000
0001
1000
0010
1000
0001
0100
0001
0010
0001
0100
0001
1000
,
0100
0010
0100
1000
0001
0100
0010
0100
0001
1000
0001
0010
0100
1000
0001
0100
,
0010
0100
0001
1000
0100
0010
0100
1000
0001
0100
0001
0010
0100
1000
0010
0100
,
0010
1000
0001
0100
0001
1000
0100
0010
0001
1000
0001
0100
0010
0100
0001
1000
,
0100
1000
0001
0100
0010
0100
0001
1000
0001
0010
0100
1000
0001
1000
0010
0100
,
0010
1000
0001
0100
0001
1000
0001
0010
0100
1000
0001
0100
0001
1000
0100
1000
,
0001
0010
0100
1000
0010
0100
0001
1000
0100
1000
0001
0010
0100
1000
0001
0100
,
0010
0100
0001
1000
0001
0010
0100
1000
0001
1000
0100
1000
0001
0100
0010
1000
,
0100
1000
0100
0010
0001
0100
0001
0100
0010
1000
0100
0010
0001
1000
0100
1000
,
0010
0100
0001
0100
0010
0100
0001
1000
0001
0010
0100
1000
0010
0100
0001
1000
,
0100
1000
0001
0100
0001
0010
0100
1000
0010
1000
0010
0100
0001
1000
0001
0100
,
0001
1000
0100
0010
0100
1000
0001
0100
0010
0100
0001
1000
0001
0010
0100
1000
,
0001
1000
0010
1000
0001
0100
0010
0100
0001
1000
0001
0010
0100
1000
0001
1000
,
0100
1000
0001
0100
0010
0100
0001
1000
0100
0010
0100
1000
0010
0100
0010
1000
,
0001
0010
0001
0100
0010
1000
0100
1000
0010
0100
0001
1000
0001
0010
0100
1000
,
0001
0100
0001
1000
0001
0100
0010
1000
0100
0010
0100
1000
0001
0010
0100
1000
,
0010
1000
0100
0010
0001
0100
0010
0100
0001
0010
0001
1000
0100
0010
0100
1000
,
0010
0100
0001
0010
0001
1000
0100
1000
0010
0100
0001
0010
0001
1000
0001
0100
,
0010
0100
0001
1000
0100
0010
0100
1000
0010
0100
0010
1000
0001
0100
0010
1000
,
0100
1000
0010
1000
0001
0010
0001
0010
0100
1000
0010
0100
0001
0010
0001
1000
,
0100
1000
0001
0100
0010
0100
0001
1000
0100
1000
0010
0100
0001
0010
0001
0100
,
0010
1000
0100
0010
0001
1000
0001
0100
0010
0100
0001
1000
0100
0010
0100
1000
,
0010
0100
0010
1000
0001
0100
0001
0010
0001
0100
0010
1000
0100
0010
0001
1000
,
0100
1000
0010
0100
0001
0010
0001
1000
0001
0100
0010
0100
0001
1000
0100
0010
,
0001
0100
0010
0100
0001
1000
0100
1000
0001
0100
0010
0100
0001
1000
0001
0010
,
0100
1000
0001
1000
0010
0100
0010
1000
0001
1000
0100
0010
0001
1000
0001
0100
,
0010
0100
0001
1000
0001
1000
0010
0100
0010
1000
0001
0010
0100
0010
0001
1000
,
0100
0010
0001
1000
0100
1000
0001
0010
0001
1000
0001
0100
0010
0100
0001
1000
,
0001
0010
0100
1000
0001
0100
0010
0100
0001
1000
0100
0010
0001
1000
0001
0100
,
0010
0100
0001
1000
0001
0010
0100
1000
0001
0100
0010
0100
0001
1000
0100
1000
,
0001
1000
0010
0100
0010
1000
0010
0100
0001
1000
0001
0010
0100
1000
0001
0100
,
0001
1000
0001
0100
0010
1000
0001
0010
0100
1000
0001
0100
0001
1000
0010
0100
,
0010
1000
0001
0100
0001
1000
0100
1000
0001
1000
0010
0100
0010
1000
0001
0010
,
0100
1000
0001
0100
0001
1000
0100
0010
0001
1000
0001
0100
0010
0100
0001
1000
,
0100
1000
0010
0100
0001
1000
0001
0010
0001
0100
0010
1000
0010
0100
0001
1000
,
0001
0010
0100
1000
0001
0100
0010
0100
0001
1000
0100
0010
0001
1000
0100
1000
,
0001
1000
0010
0100
0010
1000
0001
0100
0001
1000
0001
0010
0100
1000
0001
0100
,
0001
1000
0010
0100
0010
1000
0001
1000
0100
0010
0100
1000
0010
0100
0001
0010
,
0001
1000
0100
0010
0100
1000
0001
0100
0010
0100
0001
1000
0001
0010
0100
1000
,
0001
1000
0010
0100
0010
1000
0001
0100
0001
1000
0100
1000
0001
0100
0001
1000
,
0001
0000
0001
0000
1000
0100
0000
0000
,
1000
0000
0001
0100
0000
0001
1000
0001
,
0010
0000
0010
0000
0100
1000
0000
0000
,
0010
0100
0010
1000
0000
0001
0100
0001
,
1000
0000
1000
0000
0100
1000
0000
0000
,
0001
0000
0100
0010
0000
0100
0010
0100
,
0001
0000
0001
0000
0010
0100
0000
0000
,
1000
0100
1000
0010
0000
0100
0010
0100
,
0002
0000
0000
0000
,
0003
0000
0000
0000
;
