#TITLE:HOT LIMIT;
#SUBTITLE:;
#ARTIST:JOHN DESIRE;
#TITLETRANSLIT:;
#SUBTITLETRANSLIT:;
#ARTISTTRANSLIT:;
#CREDIT:;
#BANNER:HOT LIMIT.png;
#BACKGROUND:HOT LIMIT-bg.png;
#LYRICSPATH:;
#CDTITLE:./CDTITLES/DANCE MANIA J-PARADISE.PNG;
#MUSIC:HOT LIMIT.mp3;
#OFFSET:-0.105;
#SAMPLESTART:59.960;
#SAMPLELENGTH:12.000;
#SELECTABLE:YES;
#DISPLAYBPM:156.000;
#BPMS:0.000=155.990;
#STOPS:;
#BGCHANGES:;
// cache tags:
#FIRSTBEAT:0.000;
#LASTBEAT:479.250;
#SONGFILENAME:Songs/IzzySM Keyboard Mega Pack/60640hot_limit/HOT LIMIT.sm;
#HASMUSIC:1;
#HASBANNER:1;
#MUSICLENGTH:184.529;
// end cache tags

//---------------dance-single - ----------------
#NOTES:
     dance-single:
     :
     Hard:
     12:
     1.000,1.000,0.867,0.482,1.000,1552.000,160.000,89.000,0.000,2.000:
1000
0000
0000
0000
0000
0000
0000
0000
0100
0000
0000
0000
0000
0000
0000
0000
0010
0000
0000
0000
0001
0000
0000
0010
0000
0000
0000
0000
0000
0000
0000
0000
,
1000
0000
0100
0010
0100
0020
0000
0030
1000
0000
0100
0010
0100
0002
0000
0003
,
1000
0000
0100
0010
0100
0010
0100
0001
1000
0100
0010
0001
1000
0100
0010
0001
,
1000
0100
0010
0001
1000
0000
0110
0000
,
1000
0000
0100
0010
0100
2000
0000
3000
0001
0000
0100
1000
0001
2000
3000
0000
,
1000
1000
0100
0100
0010
0010
0001
0001
1000
1000
1001
0000
0110
0000
0000
0000
,
1001
0000
0000
0000
0010
0000
0100
0000
1000
0000
0001
0010
0101
0000
0000
0000
,
0010
0000
1000
0100
0100
0001
0000
0000
0010
0000
0001
0010
0100
0010
0000
0000
,
0010
0000
1000
0100
0001
0100
0010
1000
0100
0001
0010
0001
0100
1000
0001
0100
,
0011
0100
1000
0001
0100
0000
1100
0000
,
0010
0000
0001
0010
0100
0001
0000
0000
0010
0000
1000
0010
0001
0010
0000
0000
,
0011
0011
1100
1100
0110
0110
0011
0011
1100
1100
0000
0011
1100
0000
0000
0000
,
0010
0001
1000
0100
0010
0100
0001
1000
,
0010
0100
1000
0010
0011
0000
0000
0000
,
0100
0000
0010
0001
1000
0010
0000
0000
0001
0000
0010
1000
0100
0001
0000
0000
,
1000
0000
0001
1000
0100
0001
0010
1000
1000
0100
0010
0001
0010
0100
1000
0100
,
0100
0000
1000
0100
0001
0010
0000
0000
0100
0000
0010
0001
1000
0010
0000
0000
,
0011
0011
1100
1100
0110
0110
0011
0011
1001
1001
0110
0000
0110
0000
0000
0000
,
1000
0000
0100
1000
0010
0001
0000
0000
0001
0000
0100
0100
0010
0010
0000
0000
,
1000
0000
0100
0010
0001
0010
0100
0010
1000
0100
0010
0001
0001
0010
0100
1000
,
1000
0000
0101
0101
1010
1010
0000
0000
0001
0000
0110
0110
0011
0011
0000
0000
,
1100
0011
1100
0011
1100
0011
1100
0011
0110
0110
1001
0000
0110
0000
0000
0000
,
1000
0100
0001
0010
0100
1000
0001
1000
0010
0001
1000
0010
0001
0001
1000
0001
,
0010
0001
0100
0001
1000
1000
0001
0100
0001
1000
0100
0001
0010
1000
0001
1000
,
1000
0001
0100
0010
0001
1000
0010
0001
1000
0100
0010
0001
0001
0010
0100
1000
,
2000
0000
0000
0000
0000
0000
0200
0000
0000
3300
0000
0000
0020
0000
0000
0000
0002
0000
0000
0000
0000
0000
0000
0000
0000
0000
0000
0000
0033
0000
0000
0000
,
1000
0001
1000
0001
0001
1000
1000
0100
0100
1000
0100
0010
0010
1000
0010
0100
,
1000
0001
0001
1000
0100
0001
0001
1000
1000
0001
0100
0100
0001
1000
0010
0001
,
1000
0010
0010
0001
0100
1000
0001
1000
1000
0010
0100
0100
0010
0001
1000
0010
,
0001
1000
0100
0001
1000
0001
0010
0010
1000
0010
0100
0001
1100
0011
1100
0011
,
0200
0000
0000
0000
0000
0300
0000
0000
2000
0000
3000
0000
0002
0000
0003
0000
0200
0000
0000
0000
0000
0300
0000
0000
0020
0000
0030
0000
2000
0000
3000
0000
,
0200
0000
0000
0000
0000
0300
0000
0000
0200
0000
0300
0000
0020
0000
0030
0000
0002
0000
0000
0000
0000
0003
0000
0000
2200
0000
0000
0000
0000
3300
0000
0000
,
0010
0001
1000
0010
0001
0010
1000
1000
0100
0001
1000
0010
0010
0100
0001
1000
,
0001
1000
0100
0100
0010
0001
1000
0010
0001
1000
0010
0001
1100
0011
1100
0011
,
1000
0100
0001
0010
0001
0100
0010
0010
1000
0001
1000
0100
0001
0100
0100
0001
,
1000
0100
0001
1000
0100
0001
1001
0010
0010
0001
0100
0001
2200
0000
0000
3300
,
0002
0000
0000
0000
0000
0003
0000
0000
0100
0000
0000
0000
0010
0000
0000
0000
1000
0000
0000
0000
0001
0000
0000
0000
0100
0000
0000
0000
1000
0000
0000
0000
,
0010
0001
0100
0010
1000
0001
0101
0000
,
0010
0000
0000
0000
1000
0000
0000
0000
0001
0000
0000
0000
0010
0000
0000
0000
0200
0000
0000
0000
0000
0000
0000
0300
0000
0000
1100
0000
0000
0000
0000
0000
,
1000
0100
0010
0001
0100
1000
0001
0100
1000
0001
0100
1000
0001
0100
0001
0010
,
1000
0100
0010
1000
0100
0010
0001
0010
0100
1000
0100
0010
0001
0100
0001
0010
,
1000
0100
0010
0001
0100
1000
0001
0100
0001
0100
0010
1000
0100
0001
0100
0001
,
1000
0100
0001
0010
0100
1000
0010
0001
1000
0100
0001
0010
1000
0001
0100
0010
,
0001
1000
0010
0010
0100
0001
1000
1000
0001
0010
0100
0001
1000
1000
0010
1000
,
0001
0010
1000
0001
0100
1000
0001
0100
0100
0001
1000
1000
0001
0100
0010
1000
,
0100
0001
0010
0100
1000
0001
0100
0010
0100
1000
0010
0001
0001
0100
0010
0100
,
1000
0001
0100
0001
0010
0100
0001
0010
1000
0001
0010
1000
0110
0000
0000
0000
,
1000
0100
0001
0010
0010
1000
0100
0001
1000
0100
0010
0001
0100
1000
0001
0100
,
0001
0100
1000
0001
0100
0100
0010
0001
0001
0100
1000
0010
0100
0001
1000
0001
,
0010
0100
0001
1000
0100
0001
0100
0001
0010
0100
1000
0010
0100
0001
0100
1000
,
0010
1000
0001
0010
1000
0010
0100
0001
0001
1000
0010
0100
0001
1000
0001
0100
,
1000
0100
0010
0001
0100
1000
0001
0100
1000
0001
0100
1000
0010
0001
0100
0010
,
0001
1000
0100
0001
0010
1000
1000
0010
0001
1000
0010
0001
0100
1000
0010
0100
,
1000
0001
0001
0100
0100
0001
1000
0001
1000
0010
0100
0001
0001
0100
0010
0001
,
1000
0100
0010
0001
0001
0100
0010
0100
1000
0001
0010
1000
0101
0000
0000
0000
,
1000
0000
1000
0100
0010
0200
0000
0300
0001
0000
0001
1000
0010
0200
0000
0300
,
1000
0000
1000
0010
0001
0100
0001
1000
1100
0011
1100
0011
1100
0011
1100
0011
,
0010
0000
0010
1000
0001
2000
0000
3000
0010
0000
0010
1000
0100
0002
0000
0003
,
1000
0010
0100
0001
0010
1000
0100
0001
1100
1100
0011
0000
0001
0000
0000
0000
,
1000
0000
1000
0001
0010
0200
0000
0300
0001
0000
0001
1000
0010
0200
0000
0300
,
1000
0000
1000
0010
0001
1000
0010
0100
0001
1000
0010
0001
0100
1000
0010
1000
,
0001
0000
0001
0100
0001
2000
0000
3000
0010
0000
0001
0010
1000
0200
0000
0300
,
1001
0110
1001
0110
1100
0011
1100
0011
1100
1100
0011
0000
0010
0000
0000
0000
,
1000
0010
0100
1000
0001
0010
0100
0001
1000
0100
0001
0010
0100
1000
0010
0001
,
0010
0100
1000
0010
0100
1000
0010
0001
0001
0100
1000
0001
0100
0010
1000
0001
,
0010
0100
0001
0010
1000
1000
0010
0001
0100
1000
0001
0010
0100
1000
0100
0010
,
0001
0010
0100
0010
0001
0010
0100
1000
0100
0010
0100
1000
0100
0010
0001
0010
,
0100
0010
0001
1000
0100
1000
0010
0010
1000
0100
0001
1000
0010
0100
0010
1000
,
0100
0001
1000
0100
0001
1000
0100
0010
0010
1000
1000
0001
0001
1000
0010
1000
,
0010
0001
0100
1000
1000
0100
0010
0001
0100
1000
0001
0100
0010
0001
1000
0001
,
0100
0001
1000
0100
0001
0001
0100
1000
0010
0001
1000
0001
0100
0010
1000
0001
,
2000
0000
0000
3000
0200
0000
0000
0000
0000
0000
0300
0000
0020
0000
0030
0000
0002
0000
0000
0000
0003
0000
0000
0000
2002
0000
0000
3003
0220
0000
0330
0000
,
2002
0000
0000
0000
3003
0000
0220
0000
0000
0000
2332
0000
0000
0000
3223
0000
0000
0000
0000
0000
0000
0330
0000
0000
0110
0000
0000
0000
0000
0000
0000
0000
,
2000
0000
0000
0000
3000
0000
0002
0000
0000
0000
0003
0000
0020
0000
0000
0030
0200
0000
0000
0000
0300
0000
0000
0000
2002
0000
0000
0000
0000
0000
3003
0000
,
0200
0300
0020
0030
2000
3000
0000
0000
0002
0003
0020
0030
0200
0300
0000
0000
,
1000
0010
0001
0100
0100
1000
0010
0001
1000
0100
0001
0010
0101
0001
0100
0010
,
1000
1000
0100
0010
0010
0001
0001
1000
0100
0001
1000
0010
1100
0100
1000
0010
,
0010
1000
0001
0100
0001
1000
0100
0010
0010
1000
0010
0100
1001
0001
0100
0001
,
0100
1000
0010
0001
1000
1000
0100
0001
0010
1000
0001
0100
1001
0010
1000
0001
,
0010
0000
1000
0000
0100
0000
0001
0000
0001
0000
1000
0000
0010
0000
0000
0000
2000
0000
0000
0000
0000
0000
0000
0000
0000
0000
0000
3000
0000
0000
0000
0000
,
1001
0100
0010
1000
0010
0001
0100
1000
0001
0010
1000
0001
0100
1000
0001
0100
,
0010
0001
0001
1000
0100
0001
0010
0100
1000
0010
0001
0100
0010
0001
1000
0010
,
0101
0010
1100
0010
0001
1000
0001
0100
0100
0001
0110
0100
1001
0100
0001
1000
,
0001
1000
0010
0001
1100
0010
0010
1000
0001
0100
0001
0010
1100
0001
0010
1000
,
0101
0100
0001
0100
0010
1000
1000
0001
0100
1000
0010
0001
0001
0100
0001
0100
,
1000
0100
0010
0001
0100
1000
0001
0100
1000
0001
0100
1000
0010
0001
1000
0010
,
0001
1000
0100
0001
0010
0001
1000
0100
0001
0010
0100
1000
0010
0001
1000
0010
,
0100
1000
0010
0100
0001
0010
1100
0001
0110
1000
0001
0001
0010
1000
0101
1010
,
0101
1000
0001
0100
0010
0010
1000
0100
0100
0001
0001
0010
0100
1000
0001
0100
,
1000
0001
0001
0100
0100
1000
0010
0001
0010
0100
1000
0100
0010
0001
0010
0010
,
0001
0010
0100
1000
0001
1000
0010
0100
0001
1000
0010
0100
1000
0001
1000
0100
,
0010
0001
0010
0100
1000
0100
0010
0001
1000
0001
1000
0001
0101
0100
0001
1000
,
1010
0100
0001
1000
0100
0001
0010
1000
0001
0100
1000
0001
0100
1000
0001
0100
,
0010
0100
0001
1000
0100
0001
0010
1000
1000
0010
0001
0100
0100
1000
0010
0001
,
0010
0100
1000
1000
0001
0100
0010
0010
0100
0001
1000
0100
0001
1000
0100
0001
,
0010
0100
1000
0010
0100
0010
0010
0001
0001
1000
0001
0100
1100
0001
0000
0000
,
0010
0000
0010
0100
0100
0002
0000
0003
1000
0000
1000
0010
0100
0020
0000
0030
,
0001
0000
0001
0100
1000
0100
0010
0010
1100
0011
1100
0011
1100
0011
1100
0011
,
0010
0000
1000
1000
0100
0020
0000
0030
0001
0000
0100
1000
0010
2000
0000
3000
,
0100
0100
0010
0010
0001
0001
1000
1000
0010
0001
0200
0300
0001
0000
0000
0000
,
1000
0000
1000
0100
0100
0020
0000
0030
0001
0000
0001
0100
0100
0020
0000
0030
,
1000
0000
1000
0010
0001
0010
1000
0100
0010
0001
0100
0010
1000
0100
0001
0010
,
0010
0000
0100
0100
1000
0002
0000
0003
0100
0000
0010
0100
1000
0200
0000
0300
,
0011
0011
0110
0110
1100
1100
0110
0110
1001
1001
0202
0303
1010
0000
0000
0000
,
0100
0000
0100
0100
0010
0002
0000
0003
0100
0000
0100
1000
0010
2000
0000
3000
,
0100
0000
0100
0100
0010
0001
0010
0001
1100
0011
0110
0011
1010
0101
0101
1010
,
0001
0000
0010
0001
0100
2000
0000
3000
0010
0000
0100
1000
0001
0020
0000
0030
,
0100
0010
1000
0100
0010
0001
0001
0001
0010
0010
2000
3000
0100
0000
0000
0000
,
0010
0000
0010
0100
0001
0200
0000
0300
0010
0000
0010
0001
1000
0002
0000
0003
,
0010
0000
0010
0001
0100
1000
0100
0001
0010
1000
0100
0010
0001
0010
0100
1000
,
1000
0000
0100
0010
0001
0200
0000
0300
1000
0000
0010
0100
0001
0020
0000
0030
,
1000
1000
0100
0100
0010
0010
0001
0001
0110
1001
0110
0000
1001
0000
0000
0000
,
0001
0001
0010
0100
1001
0100
0001
0010
0010
0100
0100
0001
1010
1000
0001
0100
,
0010
0001
1000
0001
0100
1000
0001
0001
0100
0001
1000
0010
0100
1000
0001
0100
,
0010
0001
0010
0100
0010
0001
1000
0100
0001
0010
0100
1000
0010
0001
1000
0001
,
1000
0100
0100
0010
0010
0001
0101
0001
0100
1000
0001
0010
2200
0000
0000
3300
,
0011
0001
1000
0100
0011
0100
1000
0010
0011
1000
0110
1000
0010
0001
1000
0001
,
1000
0010
1000
0010
0001
0001
0010
1000
0010
0100
1000
0001
0100
1000
0001
1000
,
0010
0100
0001
0010
0010
1000
0001
1000
0001
0100
1000
0001
0100
1000
0001
0000
,
0220
0000
0000
0330
2002
0000
0000
3003
0220
0000
0000
0000
0000
0330
0000
0000
;
