#TITLE:Night Jam;
#SUBTITLE:v2;
#ARTIST:Phlogiston;
#TITLETRANSLIT:;
#SUBTITLETRANSLIT:;
#ARTISTTRANSLIT:;
#CREDIT:;
#BANNER:night_jam2_bn.jpg;
#BACKGROUND:night_jam2.jpg;
#LYRICSPATH:;
#CDTITLE:pimpin wctitle.png;
#MUSIC:8bp074-02-phlogiston-night_jam.mp3;
#OFFSET:-0.065;
#SAMPLESTART:44.522;
#SAMPLELENGTH:12.000;
#SELECTABLE:YES;
#BPMS:0.000=120.087,3.000=120.076,4.000=120.087,6.000=120.076,7.000=120.087,9.000=120.076,10.000=120.087,12.000=120.076,13.000=120.087,16.000=120.076,17.000=120.087,19.000=120.076,20.000=120.087,22.000=120.076,23.000=120.087,25.000=120.076,26.000=120.087,28.000=120.076,29.000=120.087,32.000=120.076,33.000=120.087,35.000=120.076,36.000=120.087,38.000=120.076,39.000=120.087,41.000=120.076,42.000=120.087,45.000=120.076,46.000=120.087,47.000=120.082,48.000=120.076,49.000=120.082,50.000=120.087,51.000=120.076,52.000=120.082,53.000=120.087,54.000=120.076,55.000=120.082,56.000=120.087,57.000=120.076,58.000=120.082,59.000=120.087,60.000=120.082,61.000=120.076,62.000=120.082,63.000=120.087,64.000=120.076,65.000=120.082,66.000=120.087,67.000=120.076,68.000=120.082,69.000=120.087,70.000=120.076,71.000=120.082,72.000=120.087,73.000=120.076,74.000=120.082,75.000=120.087,76.000=120.082,77.000=120.076,78.000=120.082,79.000=120.087,80.000=120.076,81.000=120.082,82.000=120.087,83.000=120.076,84.000=120.082,85.000=120.087,86.000=120.076,87.000=120.082,88.000=120.087,89.000=120.082,90.000=120.076,91.000=120.082,92.000=120.087,93.000=120.076,94.000=120.082,96.000=120.076,97.000=120.082,99.000=120.076,100.000=120.082,102.000=120.076,103.000=120.082,105.000=120.076,106.000=120.082,108.000=120.087,109.000=120.076,110.000=120.082,112.000=120.076,113.000=120.082,115.000=120.076,116.000=120.082,118.000=120.076,119.000=120.082,121.000=120.087,122.000=120.076,123.000=120.082,125.000=120.076,126.000=120.082,128.000=120.076,129.000=120.082,131.000=120.076,132.000=120.082,134.000=120.076,135.000=120.082,137.000=120.087,138.000=120.076,139.000=120.082,141.000=120.076,142.000=120.082,144.000=120.076,145.000=120.082;
#STOPS:;
#BGCHANGES:;
// cache tags:
#FIRSTBEAT:0.000;
#LASTBEAT:142.500;
#SONGFILENAME:Songs/Farewell, My Little Stepmania Pack/Night Jam[wc]/Night Jam.sm;
#HASMUSIC:1;
#HASBANNER:1;
#MUSICLENGTH:73.278;
// end cache tags

//---------------dance-single - ----------------
#NOTES:
     dance-single:
     :
     Hard:
     2:
     1.000,1.000,1.000,1.000,1.000,595.000,101.000,93.000,0.000,20.000:
0001
0000
0000
0000
0100
0000
0000
0000
0001
0000
0000
0000
0010
0000
0000
0000
1000
0000
0000
0000
0010
0000
0000
0000
0100
0000
0000
0000
0000
0000
1000
0000
0000
0000
0000
0000
0100
0000
0000
0000
0000
0000
0010
0000
0000
0100
0000
0000
0012
0000
0000
0000
0000
0000
1003
0000
0000
0000
0000
0000
0100
0000
0000
0000
0000
0000
0002
0000
0000
0000
0000
0000
1003
0000
0000
0000
0000
0000
0020
0000
0000
0000
0000
0000
0031
0000
0000
0000
0000
0000
0001
0000
0000
0000
0000
0000
,
0210
0000
0000
0000
0000
0000
2300
0000
0000
0000
0000
0000
3100
0000
0000
0000
0000
0000
0020
0000
0000
0030
0000
0000
0010
0000
0000
0000
0000
0000
0100
0000
0000
0000
0000
0000
0010
0000
0002
0000
0000
0000
1000
0000
0000
0000
0000
0000
1013
0000
0000
0000
0000
0000
0001
0000
0000
0000
0000
0000
0100
0000
0000
0000
0000
0000
1000
0000
0000
0000
0000
0000
0100
0000
0000
1000
0000
0000
0010
0000
0000
0001
0000
0000
0010
0000
0000
0000
0000
0000
1000
0000
0100
0000
0000
0000
,
0011
0000
0000
0001
0000
0000
1000
0000
0000
0100
0020
0000
0000
0000
0000
0031
0000
0000
0010
0000
0000
0100
0000
0000
1000
0000
0000
0100
0000
0000
0010
0000
0000
1001
0000
0000
0100
0000
0000
1000
0000
0000
0010
0000
0000
1000
0000
0000
,
0001
0000
0100
0000
1000
0100
0011
0000
0100
0000
0001
0000
1000
0000
1000
0000
0100
0000
0010
0000
0001
0000
1100
0000
0010
0000
0001
0000
0100
0000
0010
0001
,
1000
0000
0100
0000
0010
0000
0100
0000
0000
1010
0000
0000
0001
0000
0000
1000
0000
0000
0100
0020
0000
0000
0000
0000
0031
0000
0000
0100
0000
0000
1000
0000
0000
0010
0000
0000
1100
0000
0000
0100
0000
0000
0010
0000
0000
0100
0000
0000
,
0011
0000
0000
0000
0000
0000
0100
0000
0000
0002
0000
0000
1003
0000
0000
0000
0000
0000
0010
0000
0000
0000
0000
0000
0101
0000
0000
0000
0000
0000
0010
0000
0002
0000
0000
0000
0003
0000
0000
0000
0000
0000
0001
0000
0000
0000
0000
0000
2010
0000
0000
0000
0001
0000
0000
0000
0010
0000
3000
0000
0100
0000
0000
0000
0000
0000
1000
0000
0000
0000
0000
0000
0011
0000
0000
0000
0000
0000
0100
0000
0000
0000
0000
0000
0100
0000
0020
0000
0000
0000
0000
0000
0030
0000
0000
0000
,
1010
0000
0000
0100
0000
0000
0010
0000
1000
0000
0100
0000
0001
0000
0000
0100
0000
0000
0011
0000
0000
1000
0000
0000
0100
0000
0000
0000
0000
0000
0101
0000
0010
0000
0001
0000
1000
0000
0000
0100
0000
0000
0011
0000
0000
0100
0000
0000
,
0010
0000
0000
0000
0000
0000
0001
0000
0000
0000
0000
0000
1010
0000
0000
0000
0000
0000
0100
0000
0000
0020
0000
0000
0130
0000
0000
0000
0000
0000
0010
0000
0000
0002
0000
0000
1103
0000
0000
0000
0000
0000
0200
0000
0000
0000
0000
0000
0301
0000
0000
0000
0000
0000
0020
0000
0000
0000
0000
0000
0131
0000
0000
0000
0010
0000
2000
0000
0100
0000
0000
0000
0010
0000
0000
0000
0000
0000
3100
0000
0000
0000
0000
0000
0011
0000
0000
0000
0000
0000
1000
0000
0000
0000
0000
0000
,
0010
0000
0000
0001
0000
0000
0110
0000
0000
1000
0000
0000
0100
0000
0010
0000
1000
0000
0010
0000
0000
0001
0000
0000
0011
0000
0000
1000
0000
0000
0100
0000
0000
1000
0000
0000
0110
0000
0001
0000
0010
0000
0100
0000
0000
1000
0000
0000
,
0011
0000
1000
0000
0100
0000
1001
0000
0010
0000
1000
0000
0100
0000
0010
0000
2000
0000
0000
0000
0000
0000
0000
3000
1001
0000
0000
0000
0000
0000
0000
0000
,
1000
0000
0000
1000
0000
1000
0110
0000
0000
0100
0001
1000
0010
0000
0010
0101
0000
0001
0000
0000
0100
1001
0000
0010
,
0020
0000
0000
0000
0000
0000
0000
0000
0030
0000
0000
0000
0010
0000
0000
0000
0000
0000
0000
0000
0010
0000
0000
0000
0101
0000
0000
0000
0000
0000
0000
0000
0000
0000
0000
0000
1000
0000
0000
0000
0100
0000
0000
0000
1000
0000
0000
0000
0100
0000
0000
0010
0000
0000
0000
0000
0001
0000
0000
0000
1100
0000
0000
0000
0000
0000
0010
0000
0000
0000
0000
0000
0000
0000
0000
0000
0000
0000
0000
0000
0100
0000
0000
0000
1010
0000
0000
0000
0000
0000
0000
0000
0001
0000
0000
0000
,
0002
0000
0000
0000
0000
0000
1003
0000
0000
0000
1000
0000
0101
0020
0000
0000
0000
0000
0130
0000
0001
0000
0100
0000
2000
0000
0100
0000
3010
0000
1100
0000
0010
0000
0001
0000
0020
0000
0000
0000
1030
0000
0101
0000
0000
0000
0100
0000
,
0002
0000
0010
0100
0000
1000
0113
0000
0100
1000
0100
0010
0001
0000
0001
1010
0000
0001
0100
0000
0010
1100
0000
0100
,
2000
0000
0000
3000
0000
0000
1000
0000
0100
0000
1000
0000
0110
0000
0000
0000
0000
0000
0100
0000
0010
0000
0100
0000
0001
0000
0000
0000
0001
0000
1010
0000
0000
0000
0100
0000
0010
0000
0000
0000
0001
0000
0011
0000
0000
0000
0010
0000
,
0200
0000
0000
0000
0000
0000
0000
0000
0000
0000
0000
0000
1300
0000
0000
0000
0000
0000
0000
0000
1000
0000
0000
0000
0110
0000
0000
0000
0000
0000
0000
0000
0000
0000
0000
0000
0010
0000
0000
0000
0100
0000
0000
0000
0010
0000
0000
0000
0100
0000
0000
1000
0000
0000
0000
0000
0100
0000
0000
0000
0011
0000
0000
0000
0000
0000
0000
0000
0010
0000
0000
0000
0001
0000
0000
0000
0000
0000
0000
0000
0001
0000
0000
0000
1100
0000
0000
0000
0000
0000
0000
0000
0010
0000
0000
0000
,
2000
0000
0000
0000
3000
0000
1000
0000
0000
0000
0100
0000
1010
0002
0000
0000
0000
0000
0103
0000
1000
0000
0100
0000
0020
0000
0001
0000
0130
0000
1001
0000
0100
0000
0010
0000
0002
0000
0000
0000
1003
0000
0011
0000
0000
0000
0001
0000
,
0100
0000
1000
0020
0000
0100
1031
0000
1000
0100
0010
1000
0001
0000
0010
1100
0000
0100
1000
0000
0001
1010
0000
0010
,
2000
0000
0000
0000
0000
0000
0000
0000
0000
0000
0000
0000
0000
0000
0000
0000
0000
0000
0000
0000
0000
0000
0000
0000
3001
0000
0000
0000
0100
0000
0000
0000
0001
0000
0000
0000
0010
0000
0000
0000
1000
0000
0000
0000
0010
0000
0000
0000
0100
0000
0000
0000
0000
0000
1000
0000
0000
0000
0000
0000
0100
0000
0000
0000
0000
0000
0010
0000
0000
1000
0000
0000
0012
0000
0000
0000
0000
0000
0100
0000
0000
0000
0003
0000
0020
0000
0000
0000
0000
0000
0230
0000
0000
0000
0000
0000
,
0310
0000
0000
0000
0000
0000
2000
0000
0000
0000
0000
0000
3001
0000
0000
0000
0000
0000
0001
0000
0000
0100
0000
0000
1020
0000
0000
0000
0000
0000
0230
0000
0000
0000
0000
0000
0300
0000
0000
0000
0000
0000
2000
0000
0000
0000
0000
0000
3000
0000
0000
0000
0000
0000
0100
0000
0000
0000
0000
0000
0010
0000
0002
0000
0000
0000
1000
0000
0000
0000
0000
0000
0113
0000
0000
0000
0000
0000
0001
0000
0000
0000
0000
0000
0010
0000
0000
0000
0000
0000
1000
0000
0000
0000
0000
0000
,
0101
0000
0000
0000
0000
0000
0010
0000
0000
0000
0000
0000
1000
0000
0000
0000
0000
0000
0010
0000
0000
0000
0000
0000
0000
0000
0000
1000
0000
0000
0000
0000
0000
0000
0000
0000
0100
0000
0000
0000
0000
0000
0000
0000
0000
0000
0000
0000
1100
0000
0000
0000
0000
0000
0000
0000
0000
0000
0000
0000
0010
0000
0000
0000
0000
0000
0000
0000
0000
0000
0000
0000
1000
0000
0000
0000
0000
0000
0000
0000
0000
0000
0000
0000
0100
0000
0000
0000
0002
0000
0000
0000
0000
0000
0000
0000
0000
0000
0000
0000
0003
0000
0000
0000
0000
0000
0000
0000
0001
0000
0000
0000
0000
0000
0000
0000
0000
0000
0000
0000
0010
0000
0000
0000
0000
0000
0000
0000
0000
0000
0000
0000
0100
0000
0000
0000
0000
0000
0000
0000
0000
0000
0000
0000
1000
0000
0000
0000
0000
0000
0000
0000
0000
0000
0000
0000
0100
0000
0000
0000
0000
0000
0000
0000
0000
0000
0000
0000
1000
0000
0000
0000
0000
0000
0000
0000
0000
0000
0000
0000
0110
0000
0000
0000
0000
0000
0000
0000
0000
0000
0000
0000
,
0001
0000
1000
0000
0100
0000
1000
0000
0010
0000
0100
0000
1000
0100
1010
0000
0001
0000
0010
0000
0100
0000
0100
0000
1000
0000
0010
0000
1000
0000
0101
0000
,
0010
0000
0000
0000
0000
0000
0100
0000
0000
0000
0000
0000
0001
0000
0000
0000
0000
0000
0110
0000
0000
0001
0000
0000
1000
0000
0000
0000
0100
0000
0000
0000
0010
0000
0000
0000
0100
0000
0000
0000
0000
0000
1010
0000
0000
0000
0000
0000
0100
0000
0000
0000
0000
0000
0010
0000
0000
0000
0000
0000
0010
0000
0002
0000
0000
0000
0000
0000
0003
0000
0000
0000
0001
0000
0000
0000
0000
0000
0100
0000
0000
0000
0000
0000
0010
0000
0000
0000
0000
0000
1000
0000
0000
0000
0000
0000
,
0010
0000
0000
0000
0000
0000
0000
0000
0000
0100
0000
0000
0011
0000
0000
0000
0000
0000
0020
0000
0000
0000
0000
0000
0030
0000
0000
0000
0000
0000
0001
0000
0000
0000
0000
0000
0100
0000
0000
0000
0000
0000
0000
0000
0000
0000
0000
0000
1000
0000
0000
0000
0000
0000
0001
0000
0000
0000
0000
0000
1020
0000
0000
0000
0000
0000
0230
0000
0000
0000
0300
0000
0100
0000
0000
0000
0000
0000
0020
0000
0000
0000
0000
0000
0130
0000
0000
0000
0000
0000
1000
0000
0000
0000
0000
0000
,
0100
0000
0002
0000
0000
0000
0003
0000
0000
0000
0000
0000
1100
0000
0000
0000
0000
0000
0010
0000
0000
0000
0000
0000
0000
0000
0000
0000
0000
0000
1000
0000
0000
0000
0000
0000
0011
0000
0000
1000
0000
0000
0100
0000
0000
0000
0010
0000
0000
0000
0001
0000
0000
0000
1000
0000
0000
0000
0000
0000
0200
0000
0000
0000
0000
0000
0000
0000
0000
0000
0000
0000
0000
0000
0000
0000
0000
0000
0000
0000
0000
0000
0000
0000
0310
0000
0000
0000
0000
0000
1000
0000
0000
0000
0000
0000
,
0010
0000
0000
0100
1010
0000
0002
0000
0003
0000
0002
0000
1003
0000
0000
0000
0010
0000
0100
0000
0012
0000
0203
0000
0310
0000
2000
0000
3100
0000
0100
0000
,
0010
0000
0002
0000
0000
0000
0003
0000
0000
0000
0000
0000
0110
0000
0000
0000
0000
0000
0001
0000
0000
0000
0000
0000
0000
0000
0000
0000
0000
0000
0010
0000
0000
0000
0000
0000
1001
0000
0000
0010
0000
0000
0100
0000
0000
0010
0000
0000
0100
0000
0000
0000
0000
0000
1000
0000
0000
0000
0000
0000
0002
0000
0000
0000
0000
0000
0100
0000
0000
0000
0000
0000
0113
0000
0000
0000
0000
0000
0002
0000
0000
0000
0000
0000
0100
0000
0000
0000
0000
0000
0103
0000
0000
0000
0000
0000
,
0021
0000
0000
1000
0000
0000
1030
0000
0000
0200
0000
0000
1010
0000
0000
1300
0000
0000
0100
0000
0010
0000
0001
0000
1100
0000
0000
0100
0000
0000
0020
0000
0000
1000
0000
0000
1030
0000
0000
0020
0000
0000
1000
0000
0000
1031
0000
0000
,
0200
0000
0000
1000
0000
0000
1310
0000
0000
0002
0000
0000
0100
0000
0000
0103
0000
0000
1000
0000
0100
0000
0010
0000
1100
0000
0000
0010
0000
0000
0002
0000
0000
0010
0000
0000
0113
0000
0000
0002
0000
0000
0010
0000
0000
0013
0000
0000
,
0201
0000
0000
1000
0000
0000
1300
0000
0000
0020
0000
0000
1100
0000
0000
1030
0000
0000
0010
0000
0100
0000
0001
0000
1010
0000
0000
0010
0000
0000
0002
0000
0000
0100
0000
0000
0103
0000
0000
0002
0000
0000
0100
0000
0003
0101
0000
0000
,
0020
0000
0000
1000
0000
0030
1010
0000
0000
0200
0000
0000
1000
0000
0000
1300
0000
0000
0100
0000
0010
0000
0001
0000
1100
0000
0000
0100
0000
0000
0020
0000
0000
1000
0000
0000
1031
0000
0000
0020
0000
0000
1000
0000
0000
1030
0000
0000
,
0210
0000
0000
1000
0000
0000
1300
0000
0000
0002
0000
0000
0100
0000
0000
0103
0000
0000
1010
0000
0100
0000
0010
0000
1000
0000
0000
0010
0000
0000
0102
0000
0000
0010
0000
0000
0013
0000
0000
0002
0000
0000
0110
0000
0000
0013
0000
0000
,
0200
0000
0000
1000
0000
0300
1100
0000
0000
0020
0000
0000
1000
0000
0000
1030
0000
0000
0101
0000
1000
0000
0001
0000
0010
0000
0000
1000
0000
0000
0002
0000
0000
0100
0000
0000
0113
0000
0000
0002
0000
0000
0100
0000
0000
0103
0000
0000
,
0021
0000
0000
0000
0000
0000
1000
0000
0000
0000
0000
0000
1030
0000
0000
0000
0000
0000
0200
0000
0000
0000
0000
0000
1010
0000
0000
0000
0000
0000
1300
0000
0000
0010
0000
0000
0100
0000
0000
0000
0010
0000
0000
0000
0001
0000
0000
0000
1000
0000
0000
0000
0000
0000
0100
0000
0000
0000
0000
0000
0012
0000
0000
0000
0000
0000
1000
0000
0000
0000
0000
0000
1003
0000
0000
0000
0000
0000
0002
0000
0000
0000
0000
0000
1000
0000
0000
0000
0000
0000
1003
0000
0000
0000
0000
0000
,
0200
0000
0000
1000
0000
0000
1310
0000
0000
0002
0000
0000
0100
0000
0000
0103
0000
0000
1001
0000
0100
0000
0010
0000
1000
0000
0000
0010
0000
0000
0002
0000
0000
0010
0000
0000
0113
0000
0000
0002
0000
0000
1000
0000
0003
0101
0000
0000
,
0020
0000
0000
1000
0000
0030
1100
0000
0000
0002
0000
0000
0100
0000
0000
0113
0000
0000
0020
0000
0000
1000
0000
0000
0131
0000
0000
0020
0000
0000
0030
0000
0000
0000
0000
0000
0000
0000
0000
0000
0000
0000
0000
0000
0000
0000
0000
0000
,
0000
0000
0000
0000
;

//---------------dance-single - ----------------
#NOTES:
     dance-single:
     :
     Challenge:
     4:
     1.000,1.000,1.000,1.000,1.000,596.000,207.000,93.000,0.000,52.000:
0001
0000
0000
0000
0100
0000
0000
0000
0001
0000
0000
0000
0010
0000
0000
0000
1000
0000
0000
0000
0010
0000
0000
0000
0101
0000
0000
0000
0000
0000
1000
0000
0000
0000
0000
0000
0101
0000
0000
0000
0000
0000
0010
0000
0000
0100
0000
0000
0012
0000
0000
0000
0000
0000
1003
0000
0000
0000
0000
0000
0110
0000
0000
0000
0000
0000
0002
0000
0000
0000
0000
0000
1103
0000
0000
0000
0000
0000
0020
0000
0000
0000
0000
0000
0131
0000
0000
0000
0000
0000
0001
0000
0000
0000
0000
0000
,
0210
0000
0000
0000
0000
0000
2300
0000
0000
0000
0000
0000
3100
0000
0000
0000
0000
0000
0020
0000
0000
0030
0000
0000
0011
0000
0000
0000
0000
0000
0100
0000
0000
0000
0000
0000
0010
0000
0002
0000
0000
0000
1000
0000
0000
0000
0000
0000
1013
0000
0000
0000
0000
0000
0001
0000
0000
0000
0000
0000
0110
0000
0000
0000
0000
0000
1000
0000
0000
0000
0000
0000
0100
0000
0000
0100
0000
0000
1010
0000
0000
0001
0000
0000
0010
0000
0000
0000
0000
0000
1000
0000
0100
0000
0000
0000
,
0011
0000
0000
0001
0000
0000
1000
0000
0000
0101
0020
0000
0000
0000
0000
0131
0000
0000
0011
0000
0000
0110
0000
0000
1000
0000
0000
0100
0000
0000
0010
0000
0000
1001
0000
0000
0100
0000
0000
1010
0000
0000
0010
0000
0000
1000
0000
0000
,
0001
0000
1100
0000
1000
0010
0011
0000
0100
0000
0001
0000
1000
0000
1010
0000
0100
0000
0110
0000
0001
0000
1100
0000
0010
0000
1001
0000
0100
0000
0010
0010
,
1100
0000
0100
0000
0010
0000
0100
0000
0000
1010
0000
0000
0001
0000
0000
1000
0000
0000
0101
0020
0000
0000
0000
0000
1031
0000
0000
0110
0000
0000
1100
0000
0000
0010
0000
0000
1100
0000
0000
0100
0000
0000
0010
0000
0000
1100
0000
0000
,
0011
0000
0000
0000
0000
0000
0100
0000
0000
0002
0000
0000
1003
0000
0000
0000
0000
0000
0010
0000
0000
0000
0000
0000
0101
0000
0000
0000
0000
0000
0010
0000
0002
0000
0000
0000
0003
0000
0000
0000
0000
0000
0001
0000
0000
0000
0000
0000
2010
0000
0000
0000
0010
0000
0000
0000
0010
0000
3000
0000
0101
0000
0000
0000
0000
0000
1000
0000
0000
0000
0000
0000
0011
0000
0000
0000
0000
0000
0100
0000
0000
0000
0000
0000
0100
0000
0020
0000
0000
0000
0000
0000
0030
0000
0000
0000
,
1010
0000
0000
0100
0000
0000
0010
0000
0010
0000
0100
0000
0001
0000
0000
0100
0000
0000
0011
0000
0000
1000
0000
0000
0110
0000
0000
0000
0000
0000
0101
0000
0001
0000
0001
0000
1000
0000
0000
0100
0000
0000
0011
0000
0000
0100
0000
0000
,
0010
0000
0000
0000
0000
0000
0001
0000
0000
0000
0000
0000
1010
0000
0000
0000
0000
0000
0100
0000
0000
0020
0000
0000
1130
0000
0000
0000
0000
0000
0010
0000
0000
0002
0000
0000
1103
0000
0000
0000
0000
0000
0200
0000
0000
0000
0000
0000
0301
0000
0000
0000
0000
0000
0020
0000
0000
0000
0000
0000
0131
0000
0000
0000
0100
0000
2000
0000
0100
0000
0000
0000
0011
0000
0000
0000
0000
0000
3100
0000
0000
0000
0000
0000
0011
0000
0000
0000
0000
0000
1000
0000
0000
0000
0000
0000
,
0010
0000
0000
0001
0000
0000
0110
0000
0000
1000
0000
0000
0100
0000
0100
0000
1000
0000
0010
0000
0000
0001
0000
0000
0011
0000
0000
1000
0000
0000
0101
0000
0000
1000
0000
0000
0110
0000
0010
0000
0010
0000
0100
0000
0000
1000
0000
0000
,
0011
0000
1000
0000
0110
0000
1001
0000
0011
0000
1000
0000
0101
0000
0010
0000
2100
0000
0000
0000
0000
0000
0000
3000
1001
0000
0000
0000
0000
0000
0000
0000
,
1000
0000
0000
1000
0000
1000
0110
0000
0000
0100
0100
1000
0010
0000
0010
0101
0000
0001
0000
0000
0100
1001
0000
0010
,
0120
0000
0000
0000
0000
0000
0000
0000
0030
0000
0000
0000
0010
0000
0000
0000
0000
0000
0000
0000
0010
0000
0000
0000
0101
0000
0000
0000
0000
0000
0000
0000
0000
0000
0000
0000
1000
0000
0000
0000
1000
0000
0000
0000
1000
0000
0000
0000
0100
0000
0000
0010
0000
0000
0000
0000
0001
0000
0000
0000
1100
0000
0000
0000
0000
0000
0010
0000
0000
0000
0000
0000
0000
0000
0000
0000
0000
0000
0000
0000
0100
0000
0000
0000
1010
0000
0000
0000
0000
0000
0000
0000
0001
0000
0000
0000
,
0012
0000
0000
0000
0000
0000
1003
0000
0000
0000
1000
0000
0101
0020
0000
0000
0000
0000
0130
0000
0100
0000
0100
0000
2000
0000
0100
0000
3010
0000
1100
0000
0010
0000
0001
0000
0020
0000
0000
0000
1030
0000
0101
0000
0000
0000
0100
0000
,
0002
0000
0010
0100
0000
1000
0113
0000
0100
1000
0100
0010
0001
0000
0001
1010
0000
0001
0100
0000
0010
1100
0000
0100
,
2010
0000
0000
3000
0000
0000
1000
0000
1000
0000
1000
0000
0110
0000
0000
0000
0000
0000
0010
0000
0010
0000
0100
0000
0001
0000
0000
0000
0001
0000
1010
0000
0000
0000
0100
0000
0010
0000
0000
0000
0001
0000
0011
0000
0000
0000
0010
0000
,
0201
0000
0000
0000
0000
0000
0000
0000
0000
0000
0000
0000
1300
0000
0000
0000
0000
0000
0000
0000
1000
0000
0000
0000
0110
0000
0000
0000
0000
0000
0000
0000
0000
0000
0000
0000
0010
0000
0000
0000
0010
0000
0000
0000
0010
0000
0000
0000
0100
0000
0000
1000
0000
0000
0000
0000
0100
0000
0000
0000
0011
0000
0000
0000
0000
0000
0000
0000
0010
0000
0000
0000
0001
0000
0000
0000
0000
0000
0000
0000
0001
0000
0000
0000
1100
0000
0000
0000
0000
0000
0000
0000
0010
0000
0000
0000
,
2001
0000
0000
0000
3000
0000
1000
0000
0000
0000
0100
0000
1010
0002
0000
0000
0000
0000
0103
0000
0100
0000
0100
0000
0020
0000
0001
0000
0130
0000
1001
0000
0100
0000
0010
0000
0002
0000
0000
0000
1003
0000
0011
0000
0000
0000
0001
0000
,
0110
0000
1000
0020
0000
0100
1031
0000
1000
0100
0010
1000
0001
0000
0010
1100
0000
0100
1000
0000
0001
1010
0000
0010
,
2100
0000
0000
0000
0000
0000
0000
0000
0000
0000
0000
0000
0000
0000
0000
0000
0000
0000
0000
0000
0000
0000
0000
0000
3001
0000
0000
0000
0100
0000
0000
0000
0001
0000
0000
0000
0010
0000
0000
0000
1000
0000
0000
0000
0010
0000
0000
0000
0101
0000
0000
0000
0000
0000
1000
0000
0000
0000
0000
0000
0101
0000
0000
0000
0000
0000
0010
0000
0000
1000
0000
0000
0012
0000
0000
0000
0000
0000
0100
0000
0000
0000
0003
0000
1020
0000
0000
0000
0000
0000
0230
0000
0000
0000
0000
0000
,
0310
0000
0000
0000
0000
0000
2000
0000
0000
0000
0000
0000
3101
0000
0000
0000
0000
0000
0001
0000
0000
0100
0000
0000
1020
0000
0000
0000
0000
0000
0230
0000
0000
0000
0000
0000
0300
0000
0000
0000
0000
0000
2000
0000
0000
0000
0000
0000
3011
0000
0000
0000
0000
0000
0100
0000
0000
0000
0000
0000
0010
0000
0002
0000
0000
0000
1000
0000
0000
0000
0000
0000
0113
0000
0000
0000
0000
0000
0001
0000
0000
0000
0000
0000
0110
0000
0000
0000
0000
0000
1000
0000
0000
0000
0000
0000
,
0101
0000
0000
0000
0000
0000
0100
0000
0000
0000
0000
0000
1001
0000
0000
0000
0000
0000
0010
0000
0000
0000
0000
0000
0000
0000
0000
1000
0000
0000
0000
0000
0000
0000
0000
0000
0100
0000
0000
0000
0000
0000
0000
0000
0000
0000
0000
0000
1100
0000
0000
0000
0000
0000
0000
0000
0000
0000
0000
0000
0010
0000
0000
0000
0000
0000
0000
0000
0000
0000
0000
0000
1000
0000
0000
0000
0000
0000
0000
0000
0000
0000
0000
0000
0110
0000
0000
0000
0002
0000
0000
0000
0000
0000
0000
0000
0000
0000
0000
0000
0003
0000
0000
0000
0000
0000
0000
0000
0101
0000
0000
0000
0000
0000
0000
0000
0000
0000
0000
0000
0011
0000
0000
0000
0000
0000
0000
0000
0000
0000
0000
0000
0110
0000
0000
0000
0000
0000
0000
0000
0000
0000
0000
0000
1000
0000
0000
0000
0000
0000
0000
0000
0000
0000
0000
0000
0100
0000
0000
0000
0000
0000
0000
0000
0000
0000
0000
0000
1000
0000
0000
0000
0000
0000
0000
0000
0000
0000
0000
0000
0110
0000
0000
0000
0000
0000
0000
0000
0000
0000
0000
0000
,
0001
0000
1010
0000
0100
0000
1000
0000
0010
0000
0101
0000
1000
0100
1010
0000
0001
0000
0010
0000
0100
0000
0110
0000
1000
0000
0010
0000
1000
0000
0101
0000
,
0010
0000
0000
0000
0000
0000
1100
0000
0000
0000
0000
0000
0001
0000
0000
0000
0000
0000
0110
0000
0000
0010
0000
0000
1001
0000
0000
0000
0100
0000
0000
0000
0010
0000
0000
0000
0100
0000
0000
0000
0000
0000
1010
0000
0000
0000
0000
0000
0100
0000
0000
0000
0000
0000
0010
0000
0000
0000
0000
0000
0110
0000
0002
0000
0000
0000
0000
0000
0003
0000
0000
0000
0001
0000
0000
0000
0000
0000
0100
0000
0000
0000
0000
0000
0010
0000
0000
0000
0000
0000
1000
0000
0000
0000
0000
0000
,
0010
0000
0000
0000
0000
0000
0000
0000
0000
0100
0000
0000
0011
0000
0000
0000
0000
0000
0020
0000
0000
0000
0000
0000
0030
0000
0000
0000
0000
0000
0001
0000
0000
0000
0000
0000
0100
0000
0000
0000
0000
0000
0000
0000
0000
0000
0000
0000
1100
0000
0000
0000
0000
0000
0001
0000
0000
0000
0000
0000
1020
0000
0000
0000
0000
0000
0230
0000
0000
0000
0300
0000
0100
0000
0000
0000
0000
0000
0020
0000
0000
0000
0000
0000
0131
0000
0000
0000
0000
0000
1000
0000
0000
0000
0000
0000
,
0100
0000
0002
0000
0000
0000
0003
0000
0000
0000
0000
0000
1100
0000
0000
0000
0000
0000
0010
0000
0000
0000
0000
0000
0000
0000
0000
0000
0000
0000
1000
0000
0000
0000
0000
0000
0011
0000
0000
0001
0000
0000
0100
0000
0000
0000
1010
0000
0000
0000
0001
0000
0000
0000
1000
0000
0000
0000
0000
0000
0200
0000
0000
0000
0000
0000
0000
0000
0000
0000
0000
0000
0000
0000
0000
0000
0000
0000
0000
0000
0000
0000
0000
0000
0311
0000
0000
0000
0000
0000
1000
0000
0000
0000
0000
0000
,
0010
0000
0000
0100
1010
0000
0002
0000
0003
0000
0002
0000
1003
0000
0000
0000
1010
0000
0100
0000
0012
0000
0203
0000
0310
0000
2000
0000
3110
0000
0100
0000
,
0010
0000
0002
0000
0000
0000
0003
0000
0000
0000
0000
0000
0110
0000
0000
0000
0000
0000
0001
0000
0000
0000
0000
0000
0000
0000
0000
0000
0000
0000
0010
0000
0000
0000
0000
0000
1001
0000
0000
1000
0000
0000
0101
0000
0000
0010
0000
0000
0100
0000
0000
0000
0000
0000
1000
0000
0000
0000
0000
0000
0012
0000
0000
0000
0000
0000
0100
0000
0000
0000
0000
0000
0113
0000
0000
0000
0000
0000
0002
0000
0000
0000
0000
0000
1100
0000
0000
0000
0000
0000
0103
0000
0000
0000
0000
0000
,
0021
0000
0000
1000
0000
0000
1031
0000
0000
0200
0000
0000
1010
0000
0000
1300
0000
0000
0101
0000
0010
0000
0001
0000
1100
0000
0000
0100
0000
0000
0021
0000
0000
1000
0000
0000
1030
0000
0000
0020
0000
0000
1100
0000
0000
1031
0000
0000
,
0210
0000
0000
1000
0000
0000
1310
0000
0000
0002
0000
0000
0110
0000
0000
0103
0000
0000
1001
0000
0100
0000
0010
0000
1100
0000
0000
0010
0000
0000
0102
0000
0000
0010
0000
0000
0113
0000
0000
0002
0000
0000
1010
0000
0000
0013
0000
0000
,
0201
0000
0000
1000
0000
0000
1301
0000
0000
0020
0000
0000
1100
0000
0000
1030
0000
0000
0011
0000
0100
0000
0001
0000
1010
0000
0000
0010
0000
0000
1002
0000
0000
0100
0000
0000
0113
0000
0000
0002
0000
0000
1100
0000
0003
0101
0000
0000
,
0021
0000
0000
1000
0000
0030
1010
0000
0000
0200
0000
0000
1001
0000
0000
1300
0000
0000
0100
0000
0010
0000
0001
0000
1100
0000
0000
0100
0000
0000
0021
0000
0000
1000
0000
0000
1031
0000
0000
0020
0000
0000
1100
0000
0000
1030
0000
0000
,
0210
0000
0000
1000
0000
0000
1310
0000
0000
0002
0000
0000
0110
0000
0000
0103
0000
0000
1010
0000
0100
0000
0010
0000
1001
0000
0000
0010
0000
0000
0102
0000
0000
0010
0000
0000
1013
0000
0000
0002
0000
0000
0110
0000
0000
0013
0000
0000
,
0201
0000
0000
1000
0000
0300
1100
0000
0000
0020
0000
0000
1001
0000
0000
1030
0000
0000
0101
0000
1000
0000
0001
0000
0110
0000
0000
1000
0000
0000
0012
0000
0000
0100
0000
0000
0113
0000
0000
0002
0000
0000
1100
0000
0000
0103
0000
0000
,
0021
0000
0000
0000
0000
0000
1000
0000
0000
0000
0000
0000
1031
0000
0000
0000
0000
0000
0200
0000
0000
0000
0000
0000
1010
0000
0000
0000
0000
0000
1300
0000
0000
1000
0000
0000
0101
0000
0000
0000
0010
0000
0000
0000
0001
0000
0000
0000
1010
0000
0000
0000
0000
0000
0100
0000
0000
0000
0000
0000
0012
0000
0000
0000
0000
0000
1000
0000
0000
0000
0000
0000
1103
0000
0000
0000
0000
0000
0002
0000
0000
0000
0000
0000
1010
0000
0000
0000
0000
0000
1003
0000
0000
0000
0000
0000
,
0210
0000
0000
1000
0000
0000
1310
0000
0000
0002
0000
0000
1100
0000
0000
0103
0000
0000
1001
0000
0100
0000
0010
0000
0101
0000
0000
0010
0000
0000
1002
0000
0000
0010
0000
0000
0113
0000
0000
0002
0000
0000
1100
0000
0003
0101
0000
0000
,
0021
0000
0000
1000
0000
0030
1100
0000
0000
0002
0000
0000
1100
0000
0000
0113
0000
0000
0021
0000
0000
1000
0000
0000
0131
0000
0000
0120
0000
0000
0030
0000
0000
0000
0000
0000
0000
0000
0000
0000
0000
0000
0000
0000
0000
0000
0000
0000
,
0000
0000
0000
0000
;
