#TITLE:three three;
#SUBTITLE:;
#ARTIST:nu;
#TITLETRANSLIT:;
#SUBTITLETRANSLIT:;
#ARTISTTRANSLIT:;
#CREDIT:;
#BANNER:33.png;
#BACKGROUND:33-bg.png;
#LYRICSPATH:;
#CDTITLE:cdtitle.png;
#MUSIC:three_three.mp3;
#OFFSET:-0.033;
#SAMPLESTART:22.972;
#SAMPLELENGTH:12.000;
#SELECTABLE:YES;
#BPMS:0.000=83.250,32.000=333.000,416.000=83.250,417.000=83.250,457.000=166.500;
#STOPS:;
#BGCHANGES:;
// cache tags:
#FIRSTBEAT:0.000;
#LASTBEAT:454.000;
#SONGFILENAME:Songs/Japanese Collaboration Mix/three_three/33.sm;
#HASMUSIC:1;
#HASBANNER:1;
#MUSICLENGTH:121.137;
// end cache tags

//---------------dance-single - Copied from----------------
#NOTES:
     dance-single:
     Copied from:
     Challenge:
     11:
     0.739,0.937,0.223,1.000,0.050,402.000,27.000,198.000,0.000,0.000:
0200
0000
0000
0000
0000
0000
0000
0000
0000
0000
0000
0000
0000
0000
0000
0000
0000
0000
0000
0000
0000
0000
0000
0000
1300
0000
0000
0000
0100
0000
0000
0000
0000
0000
0000
0000
0010
0000
0000
0000
0000
0000
0000
0000
0001
0000
0000
0000
0000
0000
0000
0000
0000
0000
0000
0000
0000
0000
0000
0000
0000
0010
0000
0000
,
0200
0000
0000
0000
0000
0000
0000
0000
2000
0000
3000
2000
0300
3020
0100
0000
,
0002
0000
0000
0000
0000
0000
0000
0000
0000
0030
0000
0000
0200
0000
0000
0000
0000
0000
0000
0000
0000
0000
0000
0003
,
0020
0000
0000
0000
0000
0000
0000
0000
0000
0300
0000
0030
2200
0000
0000
0000
0000
0300
0020
0000
0000
0000
0000
3000
,
0200
0000
0000
0000
0000
0000
0000
0000
0000
0000
0000
0000
0000
0000
0000
0000
0030
0000
0000
0000
0000
0000
0000
0000
0301
0000
0000
0000
0100
0000
0000
0000
0000
0000
0000
0000
0010
0000
0000
0000
0000
0000
0000
0000
1000
0000
0000
0000
0000
0000
0000
0000
0000
0000
0000
0000
0000
0000
0000
0000
0000
0100
0000
0000
,
0020
0000
0000
0000
0000
0000
0000
0000
0000
0000
0000
0000
0000
0000
0000
0000
0000
0000
0000
0000
0000
0000
0000
0000
0000
0000
0000
0000
0000
0000
0000
0000
0000
0000
0000
0000
0000
0000
0000
0000
0000
0000
0000
0000
0000
0000
0000
0000
0000
0000
0000
0000
0000
0000
0000
0000
0000
0000
0000
0000
0000
0000
0000
0000
0000
0000
0000
0000
0000
0000
0000
0000
0000
0000
0000
0000
0000
0000
0000
0000
0000
0000
0000
0000
0000
0000
0000
0000
0000
0000
0000
0000
0000
0000
0000
0000
0002
0000
0000
0000
0000
0000
0000
0000
0000
0000
0000
0000
0000
0000
0000
0000
0000
0000
0000
0000
0000
0000
0000
0000
0000
0000
0000
0000
0000
0000
0000
0000
0003
0000
0000
0000
0002
0000
0000
0000
0000
0000
0000
0000
0000
0000
0000
0000
0003
0000
0000
0000
0000
0000
0030
0000
0000
0000
0000
0000
0200
0000
0000
0000
0000
0000
0000
0000
0000
0000
0000
0000
0010
0000
0000
0000
0000
0000
0000
0000
0000
0000
0000
0000
0000
0000
0000
0000
0000
0000
0000
0000
0000
0000
0000
0000
,
2300
0000
0000
0000
0000
0000
0000
0000
0000
0000
0000
0000
0020
0000
0000
0000
0000
0000
0000
0000
0000
0000
0000
3000
,
0200
0000
0000
0000
0000
0000
0000
0000
0000
0030
0000
0300
0022
0000
0000
0000
0000
0030
0200
0000
0003
0310
0000
0000
,
0002
0000
0100
0000
0010
0000
2000
0003
,
3200
0000
0320
0000
0002
0030
0200
0003
0020
0000
0300
0000
2030
0000
0000
0000
,
0010
0000
0200
3000
2000
0300
0001
0000
,
0200
3000
0010
0000
1000
0300
0001
0000
,
2000
0100
0000
0100
0000
0100
0000
0100
,
3020
0100
0000
0100
0000
0100
0030
0100
,
0010
0000
0000
0110
0000
0000
1002
0000
,
1000
0000
2000
0003
0001
0000
3100
1000
,
0200
0010
1300
2000
,
0100
0000
3001
1000
0200
0000
0010
0000
,
2000
0300
0020
3000
0200
0030
1000
0000
,
0320
0000
0000
0000
2000
0000
0030
0000
3100
0000
2000
0000
0020
0000
0000
3000
,
0200
0030
0302
0000
1000
0000
2000
0003
,
3100
0000
0020
0000
0002
0030
0200
0003
0020
0000
0300
0000
2000
0000
0030
0000
,
0002
3000
0020
0000
0000
0030
2000
0003
,
0200
3000
0020
0000
0030
0020
0000
0030
,
2300
0200
0000
0000
0000
0000
0000
0300
,
0020
0000
0000
0030
0002
0000
0000
0003
,
0020
0000
0000
0000
,
0000
0000
0000
0030
0002
0000
0000
3003
,
0220
0000
0000
0000
,
0000
0000
0000
0000
,
0000
0000
0000
0000
0000
0000
0000
0330
,
2002
0000
0000
0000
0000
0000
0000
3003
,
2020
0000
0000
0000
,
0000
0000
0000
0030
0002
0000
0000
0003
,
0002
0000
0000
0000
,
0000
0000
0000
3000
0200
0000
0000
0303
,
2020
0000
0000
0000
,
0000
0000
0000
0000
0000
0000
0000
0030
,
0200
0000
0000
0000
,
3300
0000
0100
0010
0000
0000
0000
0000
,
0001
0100
0010
1000
,
0001
0100
0010
1000
,
2000
0000
3000
1000
,
0001
1000
0010
0100
,
0100
0001
1000
0001
,
0100
0000
0010
0000
0100
0000
1000
0100
,
0020
0100
1030
0020
,
0001
0000
0000
0000
0000
0000
0000
0030
0020
0000
0000
0000
0000
0000
0000
0000
0000
0000
0000
0000
0000
0000
0000
0000
0130
0000
0000
0000
0000
0000
0000
0000
,
0010
1000
0001
1000
,
0100
0010
0001
0100
,
0010
0000
1000
0000
0120
0030
0100
0001
,
0010
0010
0001
0000
,
0000
0000
1000
0100
0010
0000
0100
0000
,
1000
0100
0010
0001
,
0011
0000
0000
0010
0000
0000
0100
0010
,
0100
0000
0020
0000
0000
0030
0001
0000
,
1000
0000
0100
0000
0010
0100
0010
0000
,
0001
0100
0020
0000
0000
0000
0130
0000
,
0001
0000
0010
0000
0100
0010
0100
0000
,
1000
0010
0200
0000
0000
0000
0301
0000
,
0001
0010
0001
0000
0100
0010
0100
0000
,
0001
1000
0100
0000
1000
0000
0001
0000
,
0012
0000
0000
0000
0000
0000
0000
0003
0120
0000
0000
0000
0000
0000
0000
0030
,
1200
0000
0000
0000
0000
0000
0000
0300
0210
0000
0000
0000
0000
0000
0000
0300
,
0001
0000
0100
0000
0010
0100
0010
0000
,
0001
0100
0020
0000
0000
0000
0031
0000
,
0001
0000
0010
0000
0100
0010
0100
0000
,
0010
0100
0020
0000
0000
0000
0031
0000
,
1000
0010
1000
0000
0010
0100
0010
0000
,
1000
0100
0010
0000
0001
0000
0010
0000
,
0021
0000
0000
0000
0000
0000
0000
0030
0210
0000
0000
0000
0000
0000
0000
0300
,
2200
0000
0000
3000
0310
0000
0000
0000
,
1000
0100
0000
0200
1000
0000
0020
0300
,
0100
0000
0032
0000
0200
0003
0010
0000
,
0320
0000
1000
0000
0100
0030
0020
0000
,
0001
0000
0100
0030
0020
0000
2000
0030
,
0020
3000
0200
0030
0002
0300
0023
0032
,
0203
0320
2000
0030
0100
0000
3200
0000
,
1300
0000
2100
0000
0200
3000
0010
0300
,
0021
0000
0002
0030
0000
0003
0100
0020
,
0200
0000
0000
0000
0000
0000
0000
0000
0000
0000
0000
0000
0000
0000
0000
0030
0010
0000
0000
0000
0000
0000
0000
0000
0000
0000
0000
0000
0000
0000
0000
0000
0020
0000
0000
0000
0000
0000
0000
0000
0300
0000
0000
0000
0000
0000
0000
0000
2000
0000
0000
0000
0000
0000
0000
0000
0030
0000
0000
0000
0000
0000
0000
0000
,
0200
3000
2000
0300
0001
0000
0200
3000
,
0020
0300
0100
0000
0002
0030
0200
0000
,
0000
0003
0020
0300
2000
0030
0002
3000
,
2000
0000
0003
0000
3100
0000
2000
0000
0200
0000
0000
3000
0310
0000
0200
0000
,
0020
0000
0000
0300
0031
0000
0020
0000
0002
0000
0000
0030
0013
0000
0002
0000
,
1000
0000
0000
0000
0000
0000
0000
0000
0000
0000
0000
0000
0000
0000
0000
0003
2100
0000
0000
0000
0000
0000
0000
0000
0000
0000
0000
0000
0000
0000
0000
0000
0200
0000
0000
0000
0000
0000
0000
0000
3000
0000
0000
0000
0000
0000
0000
0000
0010
0000
0000
0000
0000
0000
0000
0000
0300
0000
0000
0000
0000
0000
0000
0000
,
0021
0000
0002
0030
0000
0003
0001
1000
,
0002
0000
0100
0000
0010
0000
2000
0003
,
3200
0000
0320
0000
0002
0030
0200
0003
0020
0000
0300
0000
2030
0000
0000
0000
,
0010
0000
0200
3000
2000
0300
0001
0000
,
0200
3000
0010
0000
1000
0300
0001
0000
,
2000
0100
0000
0100
0000
0100
0000
0100
,
3020
0100
0000
0100
0000
0100
0030
0100
,
0010
0000
0000
0110
0000
0000
1002
0000
,
1000
0000
2000
0003
0001
0000
3100
1000
,
0200
0010
1300
2000
,
0100
0000
3001
1000
0200
0000
0010
0000
,
2000
0300
0020
3000
0200
0030
1000
0000
,
0320
0000
0000
0000
2000
0000
0030
0000
3100
0000
2000
0000
0020
0000
0000
3000
,
0200
0030
0302
0000
1000
0000
2000
0003
,
3100
0000
0020
0000
0002
0030
0200
0003
0020
0000
0300
0000
2000
0000
0030
0000
,
0002
3000
0020
0000
0000
0030
2000
0003
,
0200
0000
0000
0300
0020
0000
0000
0000
0030
0000
0020
0000
0000
0000
3030
0000
,
2000
0000
0001
0000
,
3200
0000
0010
0001
,
0320
0000
0000
0000
0001
0000
0000
0030
,
0002
0000
0000
0000
0203
0000
0002
0303
,
2020
0000
0000
0000
0000
0000
0000
3000
,
0200
0000
0000
0000
0000
0000
0000
0000
0000
0000
0000
0000
0000
0000
0000
0030
,
0002
0000
0000
0000
0000
0000
0000
0303
,
2020
0000
0000
3030
0202
0303
2020
0000
,
0000
0000
0000
0000
,
0000
0000
3030
0000
;
