#TITLE:Tsubasa wa Pleasureline;
#SUBTITLE:Chrno Crusade OP theme;
#ARTIST:Kuribayashi Minami;
#TITLETRANSLIT:;
#SUBTITLETRANSLIT:;
#ARTISTTRANSLIT:;
#CREDIT:ALICE_;
#BANNER:Tsubasa wa Pleasureline.png;
#BACKGROUND:Tsubasa wa Pleasureline.jpg;
#LYRICSPATH:;
#CDTITLE:cdtitle.png;
#MUSIC:Tsubasa wa Pleasureline.mp3;
#OFFSET:1.220;
#SAMPLESTART:44.400;
#SAMPLELENGTH:12.000;
#SELECTABLE:YES;
#BPMS:0.000=180.000,134.500=180.080,173.000=180.300,176.000=180.000;
#STOPS:;
#BGCHANGES:3.625=Tsubasa wa Pleasureline.avi=1.000=0=0=1,
271.500=Tsubasa wa Pleasureline.jpg=1.000=1=0=1,
99999=-nosongbg-=1.000=0=0=0 // don't automatically add -songbackground-
;
// cache tags:
#FIRSTBEAT:8.000;
#LASTBEAT:270.500;
#SONGFILENAME:Songs/alice 4th complete step/Tsubasa wa Pleasureline/Tsubasa wa Pleasureline.sm;
#HASMUSIC:1;
#HASBANNER:1;
#MUSICLENGTH:90.026;
// end cache tags

//---------------dance-single - ----------------
#NOTES:
     dance-single:
     :
     Hard:
     8:
     0.749,0.751,0.433,0.511,0.017,387.000,39.000,46.000,0.000,0.000:
0000
0000
0000
0000
,
0000
0000
0000
0000
,
2100
0000
3020
0030
0200
0300
0020
0030
,
2000
3000
0002
0003
0020
0030
0200
0300
,
0012
0000
2003
3000
0020
0030
0200
0300
,
0002
0003
2000
3000
0002
0003
0020
0030
,
2100
0000
3002
0003
0020
0030
0002
0003
,
0102
0000
2003
3000
0020
0030
2000
3000
,
0200
0000
0000
0300
,
0000
0000
0000
0000
,
1100
0000
0101
0001
0000
1010
0000
1001
,
0000
0100
0010
0100
0001
1000
0100
0000
,
2100
3000
0010
0010
0100
0001
1000
0100
,
0000
0100
0010
0000
1000
0010
0100
0000
,
0101
0000
1100
1000
0010
0001
0010
0100
,
0000
0001
1000
0100
0000
0010
0000
2001
,
0000
3100
1000
0100
0010
0100
0001
0100
,
1000
0001
0100
0010
0100
0100
0000
0000
,
1000
0001
0010
0001
0000
1000
0100
0000
,
1000
0001
0010
0001
0000
1000
0100
0000
,
1000
0010
0100
0001
0000
1000
0100
0000
,
0001
0010
0100
1000
0000
0001
0100
0000
,
1010
0000
0100
0001
0010
0100
1000
0100
,
0020
0032
2003
3020
,
0130
0000
0001
1000
0000
0100
1000
0001
,
0100
0001
0001
0000
1000
1000
0010
0100
,
0001
1000
0100
0010
0000
0001
0100
0000
,
0001
1000
0100
0010
0000
0001
0100
0000
,
0010
0000
1000
0001
0000
0010
0100
0000
,
1000
0010
0100
0001
0000
1000
0100
0000
,
2010
0000
3001
0100
0001
0100
0010
0100
,
0002
0000
2003
0000
3020
0000
0230
0302
,
1003
0000
0100
0010
0000
0001
1000
0001
,
0100
0010
0010
0000
0010
0010
0000
1001
,
0000
0100
0102
0000
1000
1000
0010
0003
,
0100
0010
1000
0001
0100
1000
0100
0000
,
0011
0000
1000
1100
0000
0101
0000
1010
,
0000
0000
0100
0000
0001
0000
0000
0000
0001
0000
1000
0000
0010
0000
0100
0001
,
0010
0100
1000
0100
1000
0010
0100
0001
,
0010
0001
0100
0001
0010
0100
1000
0020
,
0030
0100
0001
2000
3000
0100
1000
0020
,
0030
0100
0001
2000
3000
0001
0020
0030
,
0001
1000
0001
1000
0001
1000
0001
1000
,
0101
1100
0000
0000
0000
0000
0000
0000
,
0011
1000
0001
0010
0100
1000
0001
0100
,
1000
0100
0010
0001
1000
0100
0001
1000
,
0010
0100
0001
1000
0010
0001
0100
0010
,
0000
1000
0100
1000
0001
0010
0100
1000
,
0011
0000
0100
0010
0100
0010
1000
0001
,
0000
1000
0100
1000
0001
0100
0001
0010
,
0100
1000
0001
0100
0000
1001
0000
0110
,
0000
1001
0010
0000
0100
1000
0001
1000
,
0101
1000
0010
0100
0001
0010
0001
0010
,
0100
1000
0001
0100
0001
0010
1000
0001
,
0100
0010
0001
0100
1000
0100
0010
0100
,
0001
0000
0000
1000
0000
0000
0001
0000
0100
0000
0000
0010
0000
0000
1000
0000
,
0100
0000
1000
0010
1000
0010
0100
1001
,
0000
0001
0010
0001
0010
0001
0100
1001
,
0000
0100
0010
0000
1000
0100
1000
0001
,
0101
0000
0000
0000
,
0101
0000
1100
1000
0010
0100
0000
1001
,
0000
0010
0100
0010
0001
1000
0100
0000
,
1002
0003
0010
0010
0100
1000
0001
1002
,
0003
0100
0010
0000
1000
0100
0010
0100
,
0100
0000
0100
1000
0010
0001
0010
0100
,
0000
0001
1000
0001
0000
0110
0000
2001
,
0000
3100
0010
0100
1000
0001
0010
0001
,
0100
0010
1000
0001
0010
0110
0000
0000
;

//---------------dance-single - ----------------
#NOTES:
     dance-single:
     :
     Challenge:
     16:
     1.000,1.000,1.000,0.966,0.828,582.000,205.000,87.000,0.000,66.000:
0000
0000
0000
0000
,
0000
0000
0000
0000
,
0100
1000
0010
0002
0000
0000
1013
0000
,
0100
0001
0010
2000
0000
0000
3101
0000
,
0010
0100
0001
2000
0000
0000
3110
0000
,
1000
0001
0100
0020
1000
0001
0100
0030
,
1000
0100
0010
0002
0000
0010
1103
0000
,
0001
0000
0000
0010
0000
0000
0100
0000
0000
2000
0000
0000
0000
0000
0000
0100
0000
0000
3011
0000
0000
1000
0100
0010
,
0002
0000
0000
0000
,
0000
0000
0000
0003
0000
0000
1000
0100
1000
0010
0100
0001
,
2010
0000
3102
0023
1030
0101
1000
1021
,
0000
0130
1001
0120
1000
1030
0102
0003
,
2010
0000
0101
0001
0110
3010
0101
2002
,
3000
0100
1010
0100
0110
1003
1100
0101
,
2001
0000
3011
0100
0110
1000
0101
1021
,
0000
1030
0101
0010
0000
0110
0000
2002
,
0000
0000
0000
0010
0000
0000
0100
0000
0000
0010
0000
0000
0100
0000
0000
3103
0000
0000
0010
0100
0010
0100
0010
0100
,
0001
1000
0001
1000
0001
1000
0001
1000
0001
1000
0000
0000
1001
0000
0000
1111
0000
0000
0000
0000
0000
0000
0000
0000
,
1010
0100
0001
1021
0100
1000
0131
0000
,
1010
0100
0001
1021
0100
0001
1130
0000
,
0101
1000
0010
0211
1000
0001
1310
0000
,
0101
0000
1000
0000
0010
0000
0211
0000
1000
0000
0010
0000
1301
0000
0100
1000
,
0012
0000
0113
1000
1010
1001
1010
0100
,
1001
0010
0101
1000
0010
0001
1100
1010
,
0102
0000
1013
1001
0010
1000
0110
1001
,
0100
1000
0011
0000
0011
0000
0100
0001
1010
0000
1010
0000
0100
0010
0100
0010
,
1000
0100
1001
0012
0010
0100
1013
0000
,
0110
0001
1100
2010
0100
0100
3011
0000
,
1010
0001
1100
0021
1000
0100
1031
0000
,
0101
0000
1000
0000
0011
0000
2100
0000
0010
0000
0010
0000
3101
0000
0010
0100
,
2001
0000
3101
0001
1000
0010
0101
0010
,
2100
0000
3101
0001
1010
0100
1001
1010
,
0102
0000
1000
0113
0000
0110
1001
1000
,
0100
0000
0011
0100
1011
0000
0000
0000
1100
0001
1110
0000
0000
0000
1001
0000
,
0100
0010
0100
0000
1002
0000
0000
0000
0010
0000
0100
0000
1013
0000
0000
0000
,
1100
0000
0101
0001
1010
0100
1001
0010
,
1200
0000
0321
1230
0000
0321
0100
2032
,
0000
0000
3103
0000
2020
0000
0000
0030
3100
0000
0100
0000
1011
0000
0100
0001
,
2010
0000
0100
0000
0011
0000
3100
1000
0021
0000
0100
0000
1001
0000
0130
0010
,
1001
0010
1100
0010
0101
1000
0110
2002
,
0000
3003
0100
0010
1000
0001
0220
0000
0000
0330
0010
1000
0001
0100
0022
0000
,
0000
0033
1000
0010
0100
0001
2020
0000
0000
3030
0011
0100
1001
0100
0010
0000
,
1100
0001
1100
0001
1100
0001
1100
0001
1100
0010
1100
0010
1100
0010
1100
0010
,
1100
0011
1100
0000
0000
0000
0000
0000
0000
0000
0000
0000
0000
0000
0000
0000
,
0101
1000
0010
0001
1100
0010
1000
0001
0100
0010
1000
0100
1001
0010
0100
0010
,
1000
0001
0010
0001
1010
0100
0001
0010
0100
1000
0010
0100
0011
1000
0100
0010
,
0001
1000
0100
1000
0011
0100
0001
0010
1000
0100
0001
0100
1001
0010
1000
0100
,
0010
0100
2000
3010
0002
0103
2000
3010
0002
0103
0020
0130
2000
3100
0020
0130
,
1001
0010
0100
0010
1100
0010
0001
0010
1000
0100
0010
0001
0110
1000
0010
0001
,
0100
1000
0010
1000
0011
0100
1000
0100
0001
1000
0010
1000
0101
1000
0010
0100
,
0002
0013
0200
0301
2000
3010
0202
0000
0303
0000
2002
3003
0000
0000
0220
0000
,
0330
0000
2020
0030
0100
0000
3010
0000
1001
0100
0010
0000
0110
0000
0110
0000
,
1001
0010
0100
0001
1010
0100
0001
1000
0010
0100
0001
0010
1100
0001
0010
0001
,
0100
0010
1000
0001
0110
1000
0001
0100
0010
1000
0100
0010
0101
1000
0010
0100
,
1001
0010
0001
0010
0101
1000
0100
1000
0010
0100
0010
0100
1001
0010
0100
0010
,
1100
0000
0000
0101
0000
0000
1110
0000
1001
0000
0000
0011
0000
0000
1010
0000
,
0112
0000
0000
0000
0100
1000
0010
0100
0013
0000
1100
0000
0110
0000
2101
0000
,
0000
0000
0010
0100
0001
0010
0001
3100
0010
0000
0101
0000
0110
0000
2020
0000
,
0030
0000
3101
1000
0011
1000
0010
0100
1001
0010
0001
0010
1100
0010
0001
0110
,
1001
0000
0000
0000
0000
0000
0100
0010
1000
0100
0010
0001
,
2100
0000
3012
0203
0310
1001
0100
1021
,
0000
0130
1001
0021
1000
1130
0102
0013
,
2010
0000
0101
0001
0110
3010
0101
2002
,
3000
0100
1010
0100
0110
1003
1100
0101
,
2001
0000
3011
0100
0110
1000
0101
1020
,
0000
0130
1001
0011
0000
0101
0000
1221
,
0000
0000
0000
0001
0000
0000
1000
0000
0000
0001
0000
0000
1000
0000
0000
1330
0000
0000
0001
1000
0001
1000
0001
1000
,
0010
0100
0010
0100
0010
0100
0010
0100
0010
0100
0000
0000
1001
0000
0000
1111
0000
0000
0000
0000
0000
0000
0000
0000
;

//---------------dance-single - ----------------
#NOTES:
     dance-single:
     :
     Medium:
     7:
     0.600,0.638,0.189,0.311,0.000,333.000,17.000,28.000,0.000,0.000:
0000
0000
0000
0000
,
0000
0000
0000
0000
,
2000
0000
3100
0000
,
0002
0000
0103
0000
,
2000
0000
3010
0000
,
0002
0000
0013
0000
,
1000
0100
0010
0001
,
0100
0010
2000
0000
,
0002
0000
0000
0000
,
3003
0000
0000
0000
,
1100
0000
1000
0000
0010
0100
0010
0000
,
0100
0000
0001
0000
0010
0100
0010
0000
,
0001
0101
1000
0010
,
0100
0000
0100
0000
0001
1000
0100
0000
,
1000
0010
1000
0010
0100
0001
0010
0001
,
0000
0000
0100
0010
0000
1001
0000
0020
,
0000
0000
0100
0000
0100
0000
0100
0030
,
1000
0001
1000
0001
0010
0110
0000
0000
,
1000
0100
0010
0001
0000
0000
1000
0000
,
0001
0100
0010
1000
0000
0000
0001
0000
,
1000
0010
0100
0010
0000
0000
1000
0000
,
0001
0010
0100
0010
0000
0000
0001
0000
,
2000
0000
3010
0100
0010
0100
0001
1000
,
0100
0010
0001
0100
,
0001
0010
0100
1000
0010
0100
0001
2000
,
0000
0000
0000
0000
0000
3000
0001
0000
,
1000
0010
0100
0001
0000
0000
1000
0000
,
0001
0010
0100
1000
0000
0000
0001
0000
,
0100
0010
0100
0001
0000
0000
1000
0000
,
0100
1000
0010
1000
0000
0000
0001
0000
,
1002
0000
0103
0010
0100
0010
1000
0001
,
0100
0010
1000
0001
,
0200
0300
0020
0030
2000
3000
0002
0103
,
0000
0010
1000
0000
0001
0010
0000
1001
,
0000
0100
0002
0000
1000
0000
0010
0003
,
0100
0010
1000
0000
0001
0100
0001
0000
,
1000
0100
0010
0001
1000
0000
1000
0000
,
0001
0100
0010
1000
0001
0000
0001
0000
,
1000
0000
1000
0100
0001
0000
0100
1000
,
0010
0000
0010
0100
0001
0000
0001
0010
,
0000
0100
1000
0100
0000
1000
0010
1000
,
0000
0010
0001
0010
0000
1000
0001
0000
,
0100
0001
0010
0100
1000
0010
0100
0001
,
0010
0110
0000
0000
0000
0000
0000
0000
,
1000
0100
1000
0100
0001
0100
1000
0100
,
0001
0100
1000
0010
0100
0010
1000
0000
,
0001
0010
0001
0010
0100
0010
0001
1000
,
0000
0010
0100
0001
0010
0100
1000
0010
,
0100
0001
0100
0001
1000
0001
0100
0001
,
1000
0010
1000
0010
1000
0001
1000
0010
,
0100
0001
1000
0100
0000
0010
0000
0001
,
0000
0010
0100
1000
0000
0010
0100
0000
,
0001
0100
0001
0100
1000
0100
0001
0100
,
1000
0100
0001
0010
0100
0010
0001
0000
,
1000
0010
1000
0010
0100
0001
0010
0000
,
2200
0000
0000
3300
2002
0000
0000
3003
,
0022
0003
0130
0000
1000
0010
0100
0002
,
0000
0000
1003
0000
0001
0010
0100
2000
,
0000
0000
3001
0000
0100
0010
0100
0010
,
0110
0000
0000
0000
,
0101
0000
0100
1000
0010
0200
0000
0302
,
0000
0000
0010
0013
0000
0000
1001
0000
,
0210
0300
0001
0001
1000
0010
0100
0002
,
0003
1000
0010
0000
0100
1000
0100
0001
,
0010
0000
0100
1000
0001
0100
0001
0010
,
0000
0100
1000
0001
0000
0110
0000
2001
,
0000
0000
0010
0000
0100
0000
0010
3000
,
0100
0001
1000
0010
0100
0110
0000
0000
;

//---------------dance-single - ----------------
#NOTES:
     dance-single:
     :
     Easy:
     4:
     0.352,0.376,0.044,0.078,0.000,211.000,4.000,7.000,0.000,0.000:
0000
0000
0000
0000
,
0000
0000
0000
0000
,
1000
0000
0000
0000
,
1000
0000
0000
0000
,
0001
0000
0000
0000
,
0001
0000
0000
0000
,
0100
0000
0000
0000
,
0010
0000
0000
0000
,
0200
0000
0000
0000
,
0300
0000
0000
0000
,
1000
1000
0001
0001
,
0100
0001
1000
0010
,
0001
0100
1000
0100
,
0001
0010
1000
0010
,
0001
0001
1000
1000
,
0010
0100
0001
1000
,
0001
0100
0001
1000
,
0010
0000
0100
0000
0001
1000
0000
0000
,
0001
0100
0010
0000
,
0010
0100
0001
0000
,
1000
0100
0010
0000
,
0010
0100
1000
0000
,
0001
0100
1000
0010
,
0010
1000
0100
0001
,
0010
0100
0010
0100
,
0001
1000
0001
0000
,
1000
0100
0010
0000
,
0010
0100
1000
0000
,
0001
0100
0010
0000
,
0010
0100
0001
0000
,
1000
0100
0001
0010
,
0010
0001
0100
1000
,
0010
0100
0010
0200
,
0300
0000
0000
0000
,
0010
1001
0100
0100
,
0001
0010
0100
1000
,
0010
0000
0100
0000
,
0001
1000
0100
0000
,
0001
0010
0001
0010
,
1000
0100
1000
0100
,
0002
0003
2000
3000
,
0020
0030
0200
0300
,
0001
1000
0001
1000
,
1001
0000
0000
0000
,
1000
0100
0001
0100
,
1000
0010
0001
0100
,
0010
1000
0010
1000
,
0001
0100
0010
1000
,
0001
0010
1000
0010
,
0001
0100
1000
0100
,
0010
0100
0001
1000
,
0001
1000
0010
0100
,
0001
0001
1000
1000
,
0010
0100
0001
1000
,
0100
0010
0100
0010
,
1001
0000
0110
0000
,
1000
0100
0010
0001
,
0001
0100
0010
1000
,
1000
0010
0001
0100
,
0020
0000
0030
0000
,
0001
0001
1000
1000
,
0010
1000
0001
0100
,
1000
0010
0001
0010
,
1000
0100
0001
0100
,
1000
1000
0001
0001
,
0100
0010
1000
0001
,
1000
0010
1000
0001
,
0100
0000
0010
0000
1000
0001
0000
0000
;
