#TITLE:The Great Blue Sky;
#SUBTITLE:;
#ARTIST:Jun Ishikawa,Dan Miyakawa;
#TITLETRANSLIT:;
#SUBTITLETRANSLIT:;
#ARTISTTRANSLIT:;
#CREDIT:;
#BANNER:../Banner.png;
#BACKGROUND:../BG.png;
#LYRICSPATH:;
#CDTITLE:../CDTitleBRAEDEN.png;
#MUSIC:The Great Blue Sky.ogg;
#OFFSET:-0.244;
#SAMPLESTART:47.100;
#SAMPLELENGTH:12.000;
#SELECTABLE:YES;
#BPMS:0.000=182.376,2.000=176.683,4.000=164.624,6.000=178.862,8.000=175.785,10.000=162.831,12.000=160.714,14.000=165.442,16.000=167.691,18.000=158.647,22.000=156.249,24.000=156.254,26.000=161.120,28.000=147.681,30.000=160.714,32.000=148.028,34.000=140.625,38.000=152.025,40.000=156.249,42.000=152.030,44.000=144.232,46.000=156.249,48.000=252.480,50.000=313.452,52.000=159.500;
#STOPS:;
#BGCHANGES:;
// cache tags:
#FIRSTBEAT:2.000;
#LASTBEAT:788.000;
#SONGFILENAME:Songs/Index Fusion - Part 2/The Great Blue Sky - [Braeden]/The Great Blue Sky.sm;
#HASMUSIC:1;
#HASBANNER:1;
#MUSICLENGTH:297.099;
// end cache tags

//---------------dance-single - ----------------
#NOTES:
     dance-single:
     :
     Challenge:
     19:
     1.000,1.000,0.003,0.162,1.000,3254.000,1.000,48.000,0.000,0.000:
0000
0000
0000
0000
0000
0000
0000
0000
0000
0000
0000
0000
0001
0010
0100
1000
0100
0010
0001
0100
0010
1000
0100
0010
,
0001
0010
0100
1000
0001
0100
0010
1000
0100
0010
0001
0100
0010
1000
0100
0010
0001
0010
0100
1000
0001
0100
0010
1000
,
0100
0010
0001
0010
0100
1000
0001
0100
0010
1000
0100
0010
0001
0010
0100
1000
0001
0100
0010
1000
0100
0010
0001
0010
,
0100
1000
0001
0100
0010
1000
0100
0010
0001
0010
0100
1000
0100
0010
0001
0100
0010
1000
0100
0010
0001
0010
0100
1000
,
0001
0100
0010
1000
0100
0010
0001
0010
0100
1000
0001
0100
0010
1000
0100
0010
0001
0010
0100
1000
0001
0100
0010
1000
,
0100
0010
0001
0100
0010
1000
0001
0010
0100
1000
0001
0100
0001
1000
0001
0100
0010
0100
0001
0100
0010
1000
0100
0010
,
0100
1000
0001
0010
0100
0010
0001
1000
0100
0010
0001
0100
0010
1000
0100
0010
0001
0010
0100
1000
0001
0100
0010
0100
,
0001
0100
0010
1000
0100
0010
0001
0010
0100
1000
0001
0100
0001
0100
0010
1000
0100
0010
0001
0010
0100
1000
0001
0100
,
0010
1000
0100
0010
0001
0010
0100
1000
0001
0100
0010
1000
0010
0100
0001
0100
0010
1000
0100
0010
0001
0010
0100
1000
,
0001
0100
0010
1000
0100
0010
0001
0010
0100
1000
0001
0100
0001
1000
0100
0010
0001
0010
0100
1000
0001
0100
0010
1000
,
0100
0010
0001
0010
0100
1000
0001
0100
0010
1000
0100
0010
0001
0000
0000
0000
0000
0000
0000
0000
0000
0000
0000
0000
,
0200
0000
0320
0000
,
1030
0000
1001
0000
,
1000
0100
0010
0001
0010
0100
1000
0001
0100
0010
1000
0100
0010
0001
0010
0100
,
1000
0001
0100
0010
0100
0001
1000
0100
0010
0001
0010
0100
1000
0001
0100
0010
,
1000
0100
0010
0001
0010
0001
0100
0010
1000
0001
0100
0010
1000
0100
1000
0100
,
0010
0001
0100
0010
1000
0001
0010
0100
1000
0100
0010
0001
0100
0010
1000
0100
,
1000
0001
0010
0100
1000
0001
0100
0010
1000
0100
1000
0001
1000
0100
1000
0001
,
0100
0010
0100
0001
0100
0010
0100
0001
1000
0100
1000
0001
1000
0100
1000
0001
,
0100
0010
0100
0001
1000
0100
0010
0001
1000
0100
1000
0001
0100
0010
0100
0001
,
0010
0100
1000
0001
0010
0001
1000
0010
0100
0001
0010
0001
1000
0010
0100
0001
,
1000
0100
1000
0010
1000
0001
0100
0010
0100
0001
0010
0001
0100
0010
1000
0001
,
1000
0010
0100
0001
0100
0010
1000
0100
0010
0001
0010
0100
1000
0010
0100
0001
,
1000
0100
0010
0100
1000
0001
0010
0100
1000
0100
0010
0001
1000
0010
0100
0001
,
0010
0001
1000
0010
0100
0001
0010
0100
1000
0001
0010
0100
1000
0001
0100
0010
,
1000
0100
0010
0001
0010
0100
0010
0001
0100
0010
1000
0010
0100
0010
1000
0001
,
0100
0010
1000
0100
0010
0001
0010
0100
1000
0001
0100
0010
1000
0100
0010
0001
,
0010
0100
1000
0001
0100
0010
1000
0001
0010
0100
1000
0100
0010
0001
0100
0010
,
1000
0100
0010
0001
0010
0100
1000
0001
0100
0010
1000
0100
0010
0001
0010
0100
,
1000
0001
0100
0010
1000
0100
0010
0001
1000
0010
0100
0001
1000
0100
0010
0001
,
0010
0000
0000
0100
0000
0000
1000
0000
0000
0001
0000
0000
0100
0000
0000
0010
0000
0000
1000
0000
0001
0000
1000
0000
0010
0000
0000
0100
0000
0000
0001
0000
0000
0010
0000
0000
0100
0000
0000
1000
0000
0000
0010
0000
0000
0100
0000
0000
,
0001
0000
0010
0000
0100
0000
1000
0000
0100
0000
0010
0000
0001
0000
1000
0000
0010
0000
0100
0000
0001
0000
0010
0000
0100
0000
0000
1000
0000
0000
0100
0000
0000
0010
0000
0000
0001
0000
0000
1000
0000
0000
0010
0000
0000
0100
0000
0000
,
0001
0010
0100
1000
0010
0100
0001
1000
0100
0010
0001
1000
0010
0100
0001
0010
,
0100
0000
1000
0000
0010
0000
0100
0000
0001
0000
0010
0000
0100
0000
1000
0000
0001
0000
0010
0000
0100
0000
0010
0000
0001
0000
0000
1000
0000
0000
0100
0000
0000
0010
0000
0000
0001
0000
0000
1000
0000
0000
0010
0000
0000
0100
0000
0000
,
0001
0010
0100
1000
0010
0100
0001
1000
0100
0010
0001
1000
0002
0023
0230
2300
,
3001
0000
0010
0000
0100
0000
1000
0000
0100
0000
0010
0000
0001
0000
1000
0000
0010
0000
0100
0000
0001
0000
0010
0000
0100
0000
0000
1000
0000
0000
0010
0000
0000
0100
0000
0000
0001
0000
0000
1000
0000
0000
0100
0000
0000
0010
0000
0000
,
0001
1000
0010
0100
0001
0010
0100
0010
0001
1000
0010
0100
0001
0010
0100
1000
,
0001
0000
0010
0000
0100
0000
1000
0000
0100
0000
0010
0000
0001
0000
1000
0000
0100
0000
1000
0000
0100
0000
0010
0000
0001
0000
0000
1000
0000
0000
0010
0000
0000
0100
0000
0000
0001
0000
0000
1000
0000
0000
0100
0000
0000
0010
0000
0000
,
0001
1000
0010
0100
0010
1000
0010
0100
0001
0010
0100
1000
0100
0010
0001
1000
,
0001
1000
0100
0010
0001
1000
0010
0100
0001
0010
0100
0010
0001
1000
0010
0100
,
0001
0010
0100
0010
0001
1000
0100
0010
0001
1000
0010
0100
0001
1000
0100
0010
,
0001
1000
0010
0100
0001
0010
0100
1000
0100
0010
0001
1000
0010
0100
0001
0010
,
0100
0010
0001
1000
0100
0010
0001
1000
0010
0100
0001
0010
0001
1000
0100
0010
,
0001
1000
0010
0100
0010
1000
0100
1000
0001
0010
0001
0100
0010
0100
0001
0010
,
0001
1000
0010
0100
0010
1000
0001
0010
0100
1000
0100
0010
0001
1000
0010
0100
,
0001
0010
0100
1000
0100
0010
0001
1000
0010
0100
0001
0010
0100
1000
0100
0010
,
0001
1000
0010
0100
0010
1000
0100
0010
0001
1000
0010
0100
0001
0010
0100
1000
,
0100
0010
0001
1000
0010
0100
0001
0010
0100
1000
0100
0010
0001
1000
0010
0100
,
0001
0010
0100
1000
0100
0010
0001
1000
0010
0100
0001
0010
0100
1000
0100
0010
,
0001
1000
0010
0100
0001
0010
0100
1000
0100
0010
0001
1000
0010
0100
0010
1000
,
0100
0010
0001
1000
0010
0100
0001
0010
0100
1000
0100
0010
0001
1000
0100
1000
,
0010
0100
0001
0100
0001
1000
0001
0100
0010
1000
0010
1000
0010
0100
0001
0010
,
0100
1000
0100
1000
0001
0010
0100
1000
0010
0100
0001
1000
0100
0010
0001
1000
,
0010
0100
0010
1000
0010
0100
0001
0010
0100
1000
0100
0010
0001
1000
0010
0100
,
0001
0000
0000
0010
0000
0000
0100
0000
0000
1000
0000
0000
0100
0000
0000
0010
0000
0000
0001
0000
1000
0000
0001
0000
1000
0000
0000
0010
0000
0000
0100
0000
0000
0001
0000
0000
0010
0000
0000
0100
0000
0000
1000
0000
0000
0010
0000
0000
,
0100
0000
0001
0000
0010
0000
0100
0000
1000
0000
0100
0000
0010
0000
0001
0000
1000
0000
0010
0000
0100
0000
0001
0000
0010
0000
0000
0100
0000
0000
0010
0000
0000
0001
0000
0000
1000
0000
0000
0100
0000
0000
0010
0000
0000
0001
0000
0000
,
1000
0010
0100
0001
0010
0100
1000
0100
0010
0001
1000
0010
0100
0001
0010
0100
,
1000
0000
0010
0000
1000
0000
0001
0000
0010
0000
0001
0000
1000
0000
0100
0000
0010
0000
0001
0000
0010
0000
0100
0000
1000
0000
0000
0100
0000
0000
1000
0000
0000
0001
0000
0000
0100
0000
0000
0001
0000
0000
1000
0000
0000
0001
0000
0000
,
0100
0010
0100
0001
0010
0100
1000
0001
0010
0100
0010
0001
2000
3200
0320
0032
,
1003
0000
0100
0000
0010
0000
0001
0000
0010
0000
0100
0000
1000
0000
0010
0000
0100
0000
0001
0000
1000
0000
0100
0000
0010
0000
0000
0001
0000
0000
0010
0000
0000
0100
0000
0000
1000
0000
0000
0010
0000
0000
0100
0000
0000
0001
0000
0000
,
1000
0100
0010
0001
1000
0010
0100
0001
0010
0100
1000
0100
0010
0001
1000
0010
,
0100
0000
0001
0000
1000
0000
0010
0000
0100
0000
0001
0000
0100
0000
0010
0000
1000
0000
0001
0000
0010
0000
0100
0000
1000
0000
0000
0010
0000
0000
0100
0000
0000
0001
0000
0000
1000
0000
0000
0100
0000
0000
0010
0000
0000
0001
0000
0000
,
0010
0100
1000
0100
0010
0001
1000
0010
0100
0001
0010
0100
1000
0010
0100
0001
,
0200
0310
1000
0010
0100
0010
1000
0010
0200
0301
0010
0001
0200
0301
0010
0001
,
2000
3100
0010
0001
1000
0010
0100
0001
0020
0130
1000
0001
0020
0031
0010
0100
,
2000
3010
0100
0001
1000
0100
0010
0001
2000
3010
0100
0001
0020
0130
1000
0010
,
0200
0301
0010
0100
2000
3010
2000
3010
0200
0301
0010
0100
1000
0100
0010
0001
,
1000
0000
0010
0000
0100
0000
0001
0000
0010
0000
0100
0000
2000
0000
0000
3010
0000
0000
2000
0000
0000
3001
0000
0000
0200
0000
0000
0310
0000
0000
1000
0000
0000
0001
0000
0000
0010
0000
0000
0100
0000
0000
1000
0000
0000
0001
0000
0000
,
1000
0000
0010
0000
0100
0000
0001
0000
0010
0000
0100
0000
2000
0000
0000
3010
0000
0000
0200
0000
0000
0301
0000
0000
2000
0000
0000
3010
0000
0000
0100
0000
0000
0001
0000
0000
0010
0000
0000
0100
0000
0000
1000
0000
0000
0100
0000
0000
,
0010
0001
0010
0001
1000
0100
1000
0100
0010
0001
0010
0001
1000
0100
1000
0100
,
0010
0001
0010
0001
1000
0010
1000
0010
0100
0001
0100
0001
1000
0010
0100
0001
,
1000
0010
0100
0010
1000
0010
0100
0010
1000
0001
0010
0001
1000
0001
0010
0001
,
1000
0010
0100
0010
1000
0010
0100
0010
1000
0001
0010
0001
1000
0001
0010
0001
,
1000
0010
0100
0001
0010
0100
1000
0100
0010
0001
1000
0010
0100
0001
0010
0100
,
1000
0100
0010
0001
1000
0010
0100
0001
0010
0100
1000
0100
0010
0001
1000
0010
,
0100
0001
0010
0100
1000
0100
0010
0001
1000
0010
0100
0001
0010
0100
1000
0100
,
0010
0000
0000
0001
0000
0000
1000
0000
0000
0010
0000
0000
0100
0000
0000
0001
0000
0000
0010
0000
0000
0100
0000
0000
1000
0000
0000
0000
0001
0000
0000
0000
1000
0000
0000
0000
0001
0000
0000
0000
1000
0000
0000
0000
0001
0000
0000
0000
,
0010
0000
0000
0000
0100
0000
1000
0000
0000
0100
0000
0000
0010
0000
0000
0001
0000
0000
0010
0000
0000
0100
0000
0000
1000
0000
0000
0010
0000
0000
0100
0000
0000
0001
0000
0000
0010
0000
0000
0100
0000
0000
0010
0000
0000
0001
0000
0000
,
1000
0000
0000
0010
0000
0000
0100
0000
0000
0001
0000
0000
0010
0000
0000
0100
0000
0000
1000
0000
0000
0100
0000
0000
0010
0000
0000
0001
0000
0000
0100
0000
0000
0010
0000
0000
1000
0000
0000
0000
0001
0000
0000
0000
1000
0000
0000
0000
,
0010
0100
0001
0010
0100
1000
0100
0010
0001
1000
0010
0100
0001
0010
0002
2003
,
3002
0103
0010
1000
0010
0100
0001
0100
0001
0010
0100
1000
0001
0010
0100
1000
,
0002
0203
0302
0003
1000
0100
0010
0001
0010
0100
1000
0010
0100
0001
2000
3002
,
2003
3010
0100
0001
1000
0100
0010
0001
1000
0010
0100
0001
0010
0100
1000
0100
,
0010
0001
1000
0010
0100
0001
0010
0100
1000
0100
0010
0001
1000
0010
0100
0001
,
0010
0100
1000
0100
0010
0001
1000
0010
0100
0001
0010
0100
1000
0100
0010
0001
,
1000
0010
0100
0010
1000
0100
0010
0001
1000
0010
0100
0001
0010
0100
1000
0100
,
0010
0001
1000
0010
0100
0001
0010
0100
1000
0100
0010
0001
1000
0010
0100
0001
,
0010
0100
1000
0100
0010
0001
1000
0100
0010
0001
1000
0010
0100
0001
0010
0100
,
1000
0100
0010
0001
1000
0010
0100
0001
0010
0100
1000
0100
0010
0001
1000
0010
,
0100
0001
0010
0100
1000
0100
0010
0001
1000
0010
0100
0001
0010
0100
1000
0100
,
0010
0001
1000
0010
0100
0001
0010
0100
1000
0010
0100
0001
0010
0100
1000
0001
,
1000
0010
0100
0001
1000
0100
0010
0001
1000
0010
0100
0001
0010
0100
1000
0100
,
0010
0001
1000
0010
0100
0001
0010
0100
1000
0100
0010
0001
1000
0010
0100
0010
,
1000
0100
0010
0001
1000
0010
0100
0001
0010
0100
1000
0100
0010
0001
1000
0100
,
1000
0001
0100
0010
1000
0100
1000
0100
0010
0001
1000
0010
0100
0001
0010
0001
,
0100
0001
0010
0001
1000
0100
0010
0001
1000
0100
0010
0001
1000
0100
1000
0010
,
1000
0100
1000
0010
0100
0001
1000
0001
0100
0010
1000
0001
0010
0100
1000
0100
,
0010
0001
1000
0010
0100
0001
0010
0100
1000
0100
0010
0001
1000
0010
0100
0001
,
0010
0100
1000
0100
0010
0001
1000
0010
0100
0001
0010
0100
1000
0100
0010
0001
,
1000
0010
0100
0001
0010
0100
1000
0100
0010
0001
1000
0010
0100
0001
0010
0100
,
1000
0100
0010
0001
1000
0010
0100
0001
0010
0100
0010
0100
0010
0001
0100
0001
,
1000
0010
0100
0001
0010
0100
1000
0100
0010
0001
1000
0010
0100
0001
0010
0100
,
1000
0100
0010
0001
1000
0010
0100
0001
0010
0100
0010
0100
0010
0001
1000
0010
,
0100
0001
1000
0100
0010
0001
1000
0010
0100
0001
0010
0100
1000
0100
0010
0001
,
1000
0010
0100
0001
0010
0100
0010
0001
1000
0100
0010
0001
1000
0010
0100
0001
,
0010
0100
1000
0100
0010
0001
1000
0010
0100
0001
0010
0100
1000
0001
0100
0001
,
1000
0010
0100
0001
1000
0100
0010
0001
1000
0010
0100
0001
1000
0100
0010
0001
,
1000
0010
0100
0001
0010
0100
1000
0100
0010
0001
1000
0010
0100
0001
0010
0100
,
1000
0100
0010
0001
1000
0010
0100
0001
1000
0100
0010
0001
1000
0010
0100
0001
,
0010
0100
1000
0100
0010
0001
1000
0010
0100
0010
1000
0100
0010
0001
1000
0010
,
0100
0001
0010
0100
1000
0100
0010
0001
1000
0010
0100
0001
0010
0100
1000
0100
,
0010
0001
1000
0010
0100
0001
0010
0100
1000
0100
0010
0001
1000
0010
0100
0001
,
0010
0100
1000
0100
0010
0001
1000
0010
0100
0010
1000
0100
0010
0001
1000
0010
,
0100
0001
0010
0100
1000
0100
0010
0001
1000
0010
0100
0001
0010
0100
0010
0001
,
1000
0100
0010
0001
1000
0010
0100
0001
0010
0100
0010
0001
1000
0100
0010
0001
,
1000
0010
0100
0001
1000
0100
0010
0001
1000
0010
0100
0001
0010
0100
0010
0001
,
1000
0100
0010
0001
1000
0010
0100
0001
0010
0100
1000
0100
0010
0001
1000
0010
,
0100
0001
1000
0100
0010
0001
1000
0010
0100
0001
0010
0100
0010
0001
1000
0100
,
0010
0001
0010
0001
1000
0010
0100
0001
0010
0001
1000
0010
0100
0001
0010
0001
,
1000
0100
0010
0001
1000
0100
1000
0010
0100
0010
1000
0100
0010
0001
1000
0010
,
0100
0001
0010
0100
1000
0001
0100
0010
1000
0001
0010
0100
1000
0001
0100
0010
,
1000
0000
0000
0001
0000
0000
0010
0000
0000
0100
0000
0000
1000
0000
0000
0100
0000
0000
1000
0000
0001
0000
1000
0000
0001
0000
0000
0100
0000
0000
0010
0000
0000
1000
0000
0000
0001
0000
0000
0010
0000
0000
0100
0000
0000
1000
0000
0000
,
0100
0000
0010
0000
0001
0000
1000
0000
0010
0000
0100
0000
0001
0000
0010
0000
0100
0000
1000
0000
0100
0000
0010
0000
0001
0000
0000
1000
0000
0000
0010
0000
0000
0100
0000
0000
0001
0000
0000
0010
0000
0000
0100
0000
0000
1000
0000
0000
,
0100
0010
0001
1000
0010
0100
0001
0010
0100
1000
0100
0010
0001
1000
0010
0100
,
0001
0000
1000
0000
0100
0000
0010
0000
0001
0000
0010
0000
0001
0000
1000
0000
0100
0000
0010
0000
0001
0000
0010
0000
0100
0000
0000
0010
0000
0000
0001
0000
0000
1000
0000
0000
0010
0000
0000
0100
0000
0000
0001
0000
0000
0010
0000
0000
,
0100
1000
0100
0010
0001
1000
0100
0010
0001
1000
0010
0100
0001
0010
0100
1000
,
0001
0000
0100
0000
0010
0000
1000
0000
0001
0000
0010
0000
0100
0000
1000
0000
0100
0000
0010
0000
0001
0000
1000
0000
0010
0000
0000
0100
0000
0000
0001
0000
0000
1000
0000
0000
0100
0000
0000
0010
0000
0000
0001
0000
0000
1000
0000
0000
,
0010
0100
0001
0010
0100
1000
0100
0010
0001
1000
0010
0100
0001
0010
0100
1000
,
0100
0000
0010
0000
0001
0000
1000
0000
0010
0000
0100
0000
0001
0000
0010
0000
0100
0000
1000
0000
0100
0000
0010
0000
0001
0000
0000
1000
0000
0000
0100
0000
0000
0010
0000
0000
0001
0000
0000
1000
0000
0000
0010
0000
0000
0100
0000
0000
,
0001
0010
0100
1000
0100
0010
0001
1000
0010
0100
0001
0010
0100
1000
0001
0100
,
0001
1000
0100
0010
0001
1000
0010
0100
0001
0010
0100
1000
0100
0010
0001
1000
,
0010
0100
0001
0010
0100
1000
0100
0010
0001
1000
0010
0100
0001
0010
0100
1000
,
0100
0010
0001
1000
0010
0100
0001
0010
0100
1000
0100
0010
0001
1000
0100
0010
,
0001
0010
0100
1000
0001
0010
0100
0010
0001
1000
0100
0010
0001
1000
0010
0100
,
0010
1000
0100
0010
0001
1000
0010
0100
0001
0010
0100
1000
0100
0010
0001
1000
,
0010
0100
0001
0010
0100
1000
0100
0010
0001
1000
0010
0100
0001
0010
0100
1000
,
0100
0010
0001
1000
0100
0010
0001
1000
0010
0100
0001
1000
0100
0010
0001
1000
,
0010
0100
0001
0010
0100
1000
0100
0010
0001
1000
0010
0100
0001
0010
0100
1000
,
0100
0010
0001
1000
0010
0100
0001
0010
0100
1000
0100
0010
0001
1000
0010
0100
,
0001
0010
0100
1000
0100
0010
0001
1000
0010
0100
0001
0010
0100
1000
0100
0010
,
0001
1000
0010
0100
0001
0010
0100
1000
0100
0010
0001
1000
0010
0100
0001
0010
,
0100
1000
0100
0010
0100
1000
0100
0010
0001
0010
0100
1000
0100
0010
0001
0010
,
0100
1000
0100
0010
0001
1000
0010
0100
0001
1000
0100
0010
0001
1000
0010
0100
,
0001
0010
0100
1000
0100
0010
0001
1000
0010
0100
0001
0010
0100
1000
0100
0010
,
0001
1000
0010
0100
0001
0010
0100
1000
0100
0010
0001
1000
0010
0100
0001
0010
,
0100
0000
0000
1000
0000
0000
0100
0000
0000
0010
0000
0000
0001
0000
0000
1000
0000
0000
0001
0000
1000
0000
0001
0000
1000
0000
0000
0010
0000
0000
0100
0000
0000
0001
0000
0000
1000
0000
0000
0100
0000
0000
0010
0000
0000
0001
0000
0000
,
1000
0000
0001
0000
0010
0000
0100
0000
1000
0000
0100
0000
0010
0000
0001
0000
1000
0000
0010
0000
0100
0000
0001
0000
1000
0000
0000
0010
0000
0000
0100
0000
0000
0001
0000
0000
0010
0000
0000
0100
0000
0000
1000
0000
0000
0100
0000
0000
,
0010
0001
1000
0100
0010
0001
0010
0100
1000
0010
0100
0001
0010
0100
1000
0010
,
0100
0000
0001
0000
0010
0000
0100
0000
1000
0000
0100
0000
0010
0000
0001
0000
1000
0000
0100
0000
0010
0000
0001
0000
1000
0000
0000
0010
0000
0000
0100
0000
0000
0001
0000
0000
1000
0000
0000
0100
0000
0000
0010
0000
0000
0001
0000
0000
,
1000
0010
0100
0010
1000
0010
0100
0010
1000
0001
0010
0001
1000
0001
0010
0001
,
1000
0000
0010
0000
0100
0000
0001
0000
0010
0000
0100
0000
0010
0000
0001
0000
1000
0000
0100
0000
0010
0000
0001
0000
1000
0000
0000
0010
0000
0000
0100
0000
0000
0010
0000
0000
1000
0000
0000
0001
0000
0000
0010
0000
0000
0001
0000
0000
,
1000
0010
0100
0010
1000
0001
0010
0001
1000
0010
0100
0010
1000
0001
0010
0100
,
1000
0000
0100
0000
0010
0000
0001
0000
1000
0000
0010
0000
0100
0000
0001
0000
0010
0000
0100
0000
1000
0000
0100
0000
0010
0000
0000
0001
0000
0000
1000
0000
0000
0010
0000
0000
0100
0000
0000
0001
0000
0000
0010
0000
0000
0100
0000
0000
,
1000
0100
0010
0001
1000
0010
0100
0001
0010
0100
1000
0010
0200
0302
0203
0302
,
1003
0100
0010
0001
1000
0010
0100
0001
0010
0100
1000
0100
0010
0001
1000
0010
,
0100
0001
1000
0100
0010
0001
1000
0010
0100
0001
0010
0100
1000
0100
0010
0001
,
1000
0100
0010
0001
1000
0100
0010
0100
1000
0010
0100
0010
1000
0100
0010
0100
,
1000
0100
0010
0001
0010
0100
1000
0100
0010
0100
0010
0001
0100
0010
1000
0100
,
0010
0001
0010
0100
1000
0100
0010
0001
1000
0010
0100
0010
1000
0100
0010
0001
,
0010
0100
1000
0100
0010
0001
0010
0100
1000
0100
0010
0001
1000
0010
0100
0010
,
1000
0001
0010
0100
0010
0001
0100
0010
0100
0001
1000
0010
0100
0010
1000
0100
,
0010
0001
0010
0100
1000
0100
0010
0001
0010
0100
1000
0100
0010
0001
0010
0100
,
1000
0010
0100
0001
0010
0100
1000
0100
0010
0001
0010
0100
1000
0100
0010
0001
,
0010
0100
1000
0100
0010
0001
0010
0100
1000
0100
0010
0001
1000
0100
0010
0001
,
1000
0010
0100
0001
0100
0010
1000
0010
0100
0010
1000
0010
0100
0001
0100
0010
,
1000
0010
0100
0001
1000
0010
0100
0010
1000
0010
0100
0001
0100
0010
1000
0001
,
0100
0010
1000
0100
0010
0001
0010
0100
1000
0100
0010
0001
1000
0010
0100
0001
,
0010
0000
0000
0100
0000
0000
1000
0000
0000
0100
0000
0000
0010
0000
0000
0001
0000
0000
1000
0000
0000
0010
0000
0000
0100
0000
0000
0000
0001
0000
0000
0000
0100
0000
0000
0000
0010
0000
0000
0000
1000
0000
0000
0000
0010
0000
0000
0000
,
0100
0000
0000
0000
0001
0000
0010
0000
0000
0100
0000
0000
1000
0000
0000
0010
0000
0000
0100
0000
0000
0001
0000
0000
1000
0000
0000
0100
0000
0000
1000
0000
0000
0100
0000
0000
0010
0000
0000
0001
0000
0000
1000
0000
0000
0010
0000
0000
,
0100
0000
0000
0010
0000
0000
0100
0000
0000
0010
0000
0000
1000
0000
0000
0001
0000
0000
0010
0000
0000
0100
0000
0000
1000
0000
0000
0100
0000
0000
0010
0000
0000
0001
0000
0000
1000
0000
0000
0000
0100
0000
0000
0000
0010
0000
0000
0000
,
0001
0100
0010
1000
0001
0010
0100
1000
0100
0010
0001
0010
0100
1000
0100
0010
,
0001
1000
0010
0100
0001
1000
0100
0010
0001
0010
0100
1000
0010
0100
0001
1000
,
0200
0320
0032
1003
0100
0010
0001
0010
0100
1000
0100
0010
0001
1000
0020
0230
,
0320
0030
1000
0100
0010
0001
0010
0100
1000
0100
0010
0001
1000
0010
0100
0001
,
0010
0100
1000
0100
0010
0001
1000
0010
0100
0001
0010
0100
1000
0100
0010
0001
,
1000
0010
0100
0001
0010
0100
1000
0100
0010
0001
1000
0010
0100
0001
0010
0100
,
1000
0100
0010
0001
1000
0010
0100
0001
0010
0100
1000
0100
0010
0001
1000
0010
,
0100
0001
0010
0100
1000
0100
0010
0001
1000
0010
0100
0001
0010
0100
1000
0100
,
0010
0001
1000
0010
0100
0010
1000
0100
0010
0001
0010
0100
1000
0100
0010
0001
,
1000
0010
0100
0001
0010
0100
1000
0100
0010
0001
1000
0010
0100
0001
0010
0100
,
1000
0100
0010
0001
0010
0100
1000
0010
0100
0010
1000
0100
0010
0001
1000
0010
,
0100
0001
0010
0100
1000
0100
0010
0001
1000
0010
0100
0001
0010
0100
1000
0100
,
0010
0001
1000
0010
0100
0010
1000
0100
0010
0001
1000
0010
0100
0001
0010
0100
,
1000
0100
0010
0001
1000
0010
0100
0001
0010
0100
1000
0100
0010
0001
1000
0010
,
0100
0001
0010
0100
1000
0100
0010
0001
1000
0010
0100
0010
1000
0100
0010
0001
,
0010
0100
1000
0010
0100
0010
1000
0100
0010
0001
1000
0010
0100
0001
0010
0100
,
1000
0100
0010
0001
1000
0010
0100
0010
1000
0100
0010
0001
0010
0100
1000
0010
,
0100
0010
1000
0100
0010
0001
1000
0010
0100
0001
0010
0100
1000
0100
0010
0001
,
1000
0010
0100
0001
0010
0100
1000
0100
0010
0001
1000
0010
0100
0001
0010
0100
,
1000
0100
0010
0001
1000
0010
0100
0001
0010
0100
1000
0100
0010
0001
1000
0010
,
0100
0001
0010
0100
1000
0100
0010
0001
1000
0010
0100
0001
0010
0100
1000
0100
,
0010
0001
1000
0010
0100
0001
0010
0100
1000
0100
0010
0001
1000
0010
0100
0001
,
0010
0100
0010
0001
1000
0010
0100
0001
0010
0100
1000
0001
0010
0100
1000
0100
,
0010
0001
1000
0010
0100
0001
0010
0100
1000
0100
0010
0001
1000
0010
0100
0001
,
0010
0100
1000
0100
0010
0001
1000
0010
0100
0010
1000
0100
0010
0001
1000
0010
,
0100
0010
1000
0001
0010
0100
1000
0100
0010
0001
1000
0010
0100
0001
0010
0100
,
1000
0100
0010
0001
1000
0100
0010
0001
0010
0100
1000
0010
0100
0001
0010
0100
,
1000
0000
0000
0000
;

//---------------dance-single - ----------------
#NOTES:
     dance-single:
     :
     Beginner:
     1:
     0.063,0.099,0.007,0.000,0.000,128.000,2.000,0.000,0.000,0.000:
0000
0000
0000
0000
,
0000
0000
0000
0000
,
0000
0000
0000
0000
,
0000
0000
0000
0000
,
0000
0000
0000
0000
,
0000
0000
0000
0000
,
0000
0000
0000
0000
,
0000
0000
0000
0000
,
0000
0000
0000
0000
,
0000
0000
0000
0000
,
0000
0000
0000
0000
,
0000
0000
0000
0000
,
0000
0000
0000
0001
,
0000
0000
0000
0000
,
1000
0000
0000
0000
,
0010
0000
0000
0000
,
0100
0000
0000
0000
,
0001
0000
0000
0000
,
1000
0000
0000
0000
,
0010
0000
0000
0000
,
0100
0000
0000
0000
,
0001
0000
0000
0000
,
0010
0000
0000
0000
,
0001
0000
0000
0000
,
1000
0000
0000
0000
,
0010
0000
0000
0000
,
0100
0000
0000
0000
,
0001
0000
0000
0000
,
0100
0000
0000
0000
,
0010
0000
0000
0000
,
1000
0000
0000
0000
,
0010
0000
0000
0000
,
0100
0000
0000
0000
,
0010
0000
0000
0000
,
0100
0000
0000
0000
,
0001
0000
0000
0000
,
1000
0000
0000
0000
,
0010
0000
0000
0000
,
0100
0000
0000
0000
,
0001
0000
0000
0000
,
1000
0000
0000
0000
,
0010
0000
0000
0000
,
0100
0000
0000
0000
,
0001
0000
0000
0000
,
0100
0000
0000
0000
,
0010
0000
0000
0000
,
1000
0000
0000
0000
,
0010
0000
0000
0000
,
0100
0000
0000
0000
,
0001
0000
0000
0000
,
0010
0000
0000
0000
,
0100
0000
0000
0000
,
0000
0000
0000
0000
,
0010
0000
0000
0000
,
0100
0000
0000
0000
,
0001
0000
0000
0000
,
0000
0000
0000
0000
,
1000
0000
0000
0000
,
0000
0000
0000
0000
,
0010
0000
0000
0000
,
0000
0000
0000
0000
,
0100
0000
0000
0000
,
0010
0000
0000
0000
,
0100
0000
0000
0000
,
0001
0000
0000
0000
,
1000
0000
0000
0000
,
0000
0000
0000
0000
,
0001
0000
0000
0000
,
0100
0000
0000
0000
,
0010
0000
0000
0000
,
0000
0000
0000
0000
,
0000
0000
0000
0000
,
0000
0000
0000
0000
,
0001
0000
0000
0000
,
0000
0000
0000
0000
,
0000
0000
0000
0000
,
0000
0000
0000
0000
,
0010
0000
0000
0000
,
0000
0000
0000
0000
,
0100
0000
0000
0000
,
0000
0000
0000
0000
,
0010
0000
0000
0000
,
0000
0000
0000
0000
,
1000
0000
0000
0000
,
0000
0000
0000
0000
,
0010
0000
0000
0000
,
0000
0000
0000
0000
,
0100
0000
0000
0000
,
0010
0000
0000
0000
,
0000
0000
0000
0000
,
0001
0000
0000
0000
,
0010
0000
0000
0000
,
0010
0000
0000
0000
,
0100
0000
0000
0000
,
0100
0000
0000
0000
,
0000
0000
0000
0000
,
0000
0000
0000
0000
,
0010
0000
0010
0000
,
0010
0000
0000
0000
,
0000
0000
0000
0000
,
0100
0000
0000
0000
,
0000
0000
0000
0000
,
0001
0000
0000
0000
,
0000
0000
0000
0000
,
0000
0000
0000
0000
,
0000
0000
0000
0000
,
1001
0000
0000
0000
,
0000
0000
0000
0000
,
0010
0000
0000
0000
,
0000
0000
0000
0000
,
0010
0000
0000
0000
,
0100
0000
0000
0000
,
0001
0000
0000
0000
,
0010
0000
0000
0000
,
0100
0000
0000
0000
,
1000
0000
0000
0000
,
0010
0000
0000
0000
,
0100
0000
0000
0000
,
0001
0000
0000
0000
,
0100
0000
0000
0000
,
0010
0000
0000
0000
,
0000
0000
0000
0000
,
0010
0000
0000
0000
,
0000
0000
0000
0000
,
0100
0000
0000
0000
,
0000
0000
0000
0000
,
0001
0000
0000
0000
,
0000
0000
0000
0000
,
0000
0000
0000
0000
,
0010
0000
0000
0000
,
0100
0000
0000
0000
,
0001
0000
0000
0000
,
0000
0000
0000
0000
,
0010
0000
0000
0000
,
0100
0000
0000
0000
,
0001
0000
0000
0000
,
0010
0000
0000
0000
,
0010
0000
0000
0000
,
0100
0000
0000
0000
,
0000
0000
0000
0000
,
0010
0000
0000
0000
,
0000
0000
0000
0000
,
0001
0000
0000
0000
,
0100
0000
0000
0000
,
0010
0000
0000
0000
,
0100
0000
0000
0000
,
0010
0000
0000
0000
,
0000
0000
0000
0000
,
1000
0000
0000
0000
,
0000
0000
0000
0000
,
0001
0000
0000
0000
,
0000
0000
0000
0000
,
0010
0000
0000
0000
,
0000
0000
0000
0000
,
0100
0000
0000
0000
,
0000
0000
0000
0000
,
0010
0000
0000
0000
,
0000
0000
0000
0000
,
0000
0000
0000
0000
,
0000
0000
0000
0000
,
0010
0000
0000
0000
,
0000
0000
0000
0000
,
0100
0000
0000
0000
,
0000
0000
0000
0000
,
0001
0000
0000
0000
,
0000
0000
0000
0000
,
1000
0000
0000
0000
,
0000
0000
0000
0000
,
0010
0000
0000
0000
,
0000
0000
0000
0000
,
0100
0000
0000
0000
,
0010
0000
0000
0000
,
0100
0000
0000
0000
,
0001
0000
0000
0000
,
0000
0000
0000
0000
,
0000
0000
0000
0000
,
0010
0000
0000
0000
,
0000
0000
0000
0000
,
0100
0000
0000
0000
,
0000
0000
0000
0000
,
0010
0000
0000
0000
,
0000
0000
0000
0000
,
0000
0000
0000
0000
,
0000
0000
0000
0000
,
0010
0000
0000
0000
,
0010
0000
0000
0000
,
0100
0000
0000
0000
,
0100
0000
0000
0000
,
0001
0000
0000
0000
,
0001
0000
0000
0000
,
0000
0000
0000
0000
,
0000
0000
0000
0000
,
0000
0000
0000
0000
,
0010
0000
0000
0000
,
0100
0000
0000
0000
,
0001
0000
0000
0000
,
0000
0000
0000
0000
,
1001
0000
0000
0000
;

//---------------dance-single - ----------------
#NOTES:
     dance-single:
     :
     Easy:
     3:
     0.186,0.298,0.017,0.310,0.000,290.000,5.000,92.000,0.000,0.000:
0000
0000
0000
0000
,
0000
0000
1000
0000
,
0000
0000
0000
0000
,
0001
0000
0000
0000
,
0100
0000
0000
0000
,
0010
0000
0000
0000
,
1000
0000
0000
0000
,
0010
0000
0000
0000
,
0100
0000
0000
0000
,
0001
0000
0000
0000
,
0000
0000
0000
0000
,
0000
0000
0000
0000
,
0000
0000
1001
0000
,
0000
0000
1000
0000
,
0000
0000
1000
0000
,
0010
0000
0100
0001
,
0100
0000
0010
0000
,
0001
0000
0001
0100
,
0020
0000
1030
0000
,
0002
0000
0103
0010
,
0000
0000
0001
0000
,
0200
0000
0310
1000
,
0002
0000
0103
0000
,
0020
0000
1030
0001
,
0100
0000
0010
0000
,
0000
0000
0001
0100
,
0010
0000
1000
0000
,
0000
0000
0010
0100
,
0010
0000
0001
0000
,
0200
0000
0310
0000
,
1000
1000
1000
0000
,
0002
0000
0000
0000
,
0000
0000
0000
0003
,
0000
0000
0000
0000
,
0000
0000
0000
0000
,
0020
0000
0000
0000
,
0000
0000
0030
0000
,
0200
0000
0000
0000
,
0000
0000
0000
0300
,
0000
0000
0000
0000
,
0000
0000
0000
0000
,
0020
0000
0000
0000
,
0000
0000
0030
0000
,
0200
0000
0000
0000
,
0000
0000
0300
0000
,
0002
0000
0000
0000
,
0000
0000
0003
0000
,
1000
0000
0010
0100
,
0001
0000
0100
0000
,
0010
0000
1000
0001
,
0100
0000
0010
0000
,
0200
0000
0301
0010
,
0100
0000
1000
0000
,
0020
0000
0130
0000
,
0001
0000
0100
0000
,
0020
0000
0000
0000
,
0000
0000
0030
0000
,
0200
0000
0000
0000
,
0000
0000
0300
0000
,
0020
0000
0000
0000
,
0000
0000
0030
0000
,
0002
0000
0000
0000
,
0000
0000
0000
0000
,
1003
0000
0100
0100
,
0200
0300
0010
0010
,
0020
0030
0000
0000
,
0100
0000
0010
0000
,
1000
0000
1000
0000
,
0010
0000
0010
0000
,
0200
0000
0000
0000
,
0000
0000
0300
0000
,
0020
0000
0000
0000
,
0000
0000
0000
0030
,
0200
0000
0000
0000
,
0000
0000
0000
0300
,
1001
0000
0010
0000
,
0000
0000
0100
0000
,
0100
0000
0020
0000
,
0130
0000
0001
0000
,
0000
0000
0010
0000
,
0100
0000
0001
0000
,
0010
0000
0010
0000
,
0100
0000
1000
1000
,
1000
0000
0010
0000
,
0100
0000
0001
0000
,
0100
0100
0100
0000
,
0010
0000
0100
0000
,
1000
0000
0100
0000
,
0010
0000
0001
0100
,
0010
0000
0010
0000
,
0010
0000
0010
0000
,
0110
0000
0010
0000
,
0100
0001
0100
0000
,
0010
0000
1000
0000
,
0002
0000
0103
0000
,
0010
0100
0010
0000
,
1000
1000
0001
0000
,
0100
0100
0010
0000
,
0200
0000
0000
0000
,
0000
0000
0300
0000
,
0020
0000
0000
0000
,
0000
0000
0030
0000
,
0200
0000
0300
0000
,
0002
0000
0003
0000
,
0200
0000
0300
0000
,
0020
0000
0030
0000
,
1000
0000
0001
0100
,
0010
0000
0010
0000
,
2000
0000
3010
0100
,
0001
0000
0010
0000
,
0010
0000
0100
0000
,
0100
0000
1000
0000
,
0010
0000
0100
0000
,
0200
0000
0310
0000
,
2000
0000
3010
0000
,
0010
0000
1000
0000
,
0002
0000
1003
0000
,
1000
0000
0010
0000
,
0200
0000
0301
0000
,
0001
0000
1000
0000
,
0002
0000
0013
0000
,
0100
0000
1000
0000
,
0002
0000
1003
0000
,
0100
0000
0010
0000
,
0200
0000
1300
0000
,
0100
0000
1000
0000
,
0200
0000
0310
0000
,
0100
0000
1000
0000
,
0001
0000
0100
0000
,
0010
0000
0000
0000
,
2000
0000
0000
0000
,
3002
0000
0000
0000
,
0203
0000
0000
0000
,
0320
0000
0000
0000
,
1030
0000
0001
0000
,
0200
0000
0310
0000
,
2000
0000
3010
0000
,
0100
0000
0001
0000
,
0020
0000
0100
0000
,
0130
0000
1000
0000
,
0002
0000
0010
0000
,
0013
0000
0100
0000
,
2000
0000
0010
0000
,
3010
0000
0100
0000
,
0002
0000
0013
0000
,
0100
0000
1000
0000
,
0002
0000
0000
0000
,
0000
0000
0003
0000
,
0200
0000
0000
0000
,
0000
0000
0300
0000
,
0020
0000
0000
0000
,
0000
0000
0030
0000
,
2000
0000
0000
0000
,
0000
0000
3000
0000
,
0020
0000
0030
0000
,
0200
0000
0300
0000
,
0002
0000
0003
0000
,
1000
0000
1000
0000
,
0020
0000
0030
0000
,
0200
0000
0300
0000
,
0020
0000
0000
0000
,
0000
0000
0030
0000
,
0200
0000
0300
0000
,
0002
0000
0003
0000
,
2000
0000
3000
0000
,
0001
0000
1000
0000
,
2002
0000
0000
3003
,
0000
0000
1000
0000
,
0002
0000
0000
0000
,
0203
0000
0000
0000
,
0320
0000
0000
0000
,
2030
0000
3002
0000
,
0203
0000
0000
0000
,
0320
0000
0000
1030
,
0002
0000
0000
0000
,
0203
0000
0320
0000
,
2030
0000
0000
0000
,
3002
0000
0203
0000
,
0320
0000
0000
0000
,
2030
0000
3002
0000
,
0203
0000
0320
0000
,
2030
0000
3002
0000
,
0103
0000
0100
0000
,
0010
0000
0010
0000
,
0100
0000
0001
0000
,
2000
0000
3001
0000
,
0100
0000
0010
0000
,
1000
0000
0100
0000
,
0010
0000
0001
0000
,
0200
0000
0000
0000
,
0000
0000
0300
0010
,
0020
0000
0000
0000
,
0000
0000
0030
1000
,
2000
0000
3000
0000
,
0002
0000
0003
0000
,
0200
0000
0300
0000
,
0020
0000
0030
0000
,
1001
0000
0000
0000
;

//---------------dance-single - ----------------
#NOTES:
     dance-single:
     :
     Medium:
     5:
     0.339,0.398,0.034,0.360,0.000,588.000,10.000,107.000,0.000,0.000:
0000
0000
0000
0000
,
1000
0000
0010
0000
,
0100
0000
0001
0000
,
0100
0000
0010
0000
,
1000
0000
0010
0000
,
0100
0000
0001
0000
,
0100
0000
0010
0000
,
1000
0000
0010
0000
,
0100
0000
0001
0000
,
0200
0000
0000
0000
,
0000
0000
0000
0000
,
0000
0000
0000
0000
,
0300
0000
1001
0000
,
1000
0001
1000
0001
,
0100
0010
0100
0010
,
2000
0000
3001
0100
,
0010
1000
0100
0010
,
0002
0000
0103
0010
,
1000
0001
0200
0000
,
0320
0000
1030
0001
,
0100
0010
1000
0100
,
0020
0000
0031
0100
,
0020
0000
0000
1030
0001
0000
0100
0000
,
0020
0000
1030
0001
,
0100
0010
1000
0100
,
0020
0000
0031
0100
,
0010
1000
0002
0000
,
0103
0010
1000
0010
,
0100
0001
0010
0100
,
2000
0000
3002
0000
,
0103
0010
1000
0000
,
0002
0000
0103
0010
,
1000
0100
0011
0000
,
0002
0000
0103
0010
,
1000
0100
0011
0001
,
0200
0000
0310
1000
,
0001
0100
0010
1000
,
0200
0000
0310
0002
,
2003
0000
0000
3001
1000
0000
0010
0000
,
0200
0000
0301
0010
,
0100
1000
0001
0100
,
0020
0000
1030
0001
,
0100
0010
2000
0000
,
3200
0000
0310
0001
,
0100
0010
1000
0100
,
0020
0031
0100
0010
,
1000
0000
0001
0000
0010
0000
0001
0010
,
0001
1000
0010
0100
,
0001
0001
0001
1000
,
0020
0000
0130
0001
,
0010
0100
1000
0000
,
0002
0000
0103
0010
,
1000
0100
0010
0001
,
0200
0000
0010
0300
1000
0000
0001
0000
,
0010
0100
1000
0000
,
0002
0000
1003
0010
,
0100
0001
0010
0000
,
0012
0000
0103
0010
,
1000
0010
0100
0001
,
0012
0000
0103
0010
,
1000
0100
0010
0001
,
0200
0000
0310
1000
,
0002
0000
0203
0000
,
0320
0000
1030
0001
,
0200
0000
0320
1030
,
0002
0000
0100
0100
,
0010
0010
1003
0000
,
0020
1000
1030
0000
,
0200
0001
0301
0010
,
0002
0000
0000
0000
,
0000
0000
0000
2003
,
3020
0000
0000
0000
,
0230
0000
0000
0000
,
0302
0000
0000
0000
,
0010
0000
0010
0000
,
0023
0000
0000
0000
,
0000
0000
0230
0000
,
2300
0000
0000
0000
,
3002
0000
0000
0103
,
0020
0000
1030
0000
,
0002
0000
0103
0000
,
0020
0000
1030
0001
,
0020
0000
0130
1000
,
0002
0000
0000
0000
,
0203
0000
0310
1000
,
0002
0000
0013
0100
,
1000
0001
0100
0010
,
2000
0000
3100
0010
,
0002
0000
0103
0010
,
1000
0001
0010
0100
,
1000
0000
0001
0000
0100
0000
0001
0100
,
0001
0000
1000
0010
1000
0000
0001
0100
,
0001
0000
0010
0001
0010
0000
0001
0000
,
1000
0010
0100
0001
,
0020
0000
0000
0000
0130
0000
1000
0001
,
1000
0000
0010
0100
0010
0000
1000
0000
,
0001
0000
0100
0000
0101
0000
0010
1000
,
0010
0000
0100
0001
0100
0000
0001
0000
,
0020
0000
0031
0100
,
0010
1000
0100
0010
,
0001
0100
0001
0000
,
1000
0001
0100
0000
,
0010
1000
0010
0000
,
0100
0000
0001
0000
0020
0000
0000
0030
,
0001
0100
0010
1000
,
0100
0010
0001
1000
,
0002
0000
0103
0010
,
1000
0010
0100
0001
,
0020
0000
0130
1000
,
0001
0100
0020
0000
,
2030
0000
3001
0100
,
0010
1000
0010
0100
,
0002
0000
0013
0100
,
1000
0000
1000
0020
,
0130
0000
0001
0010
,
0100
1000
0100
0010
,
0002
0003
0100
0010
,
1000
0001
2000
0000
,
3200
0300
1000
0010
,
0100
0001
0010
0001
,
0100
0010
1000
0001
,
0010
0100
1001
0000
,
0020
0000
0130
0001
,
0100
0010
0100
0000
,
0002
0000
0103
0010
,
1000
0100
0010
0001
,
0200
0000
0310
1000
,
0001
0100
0010
1000
,
0200
0000
0310
0001
,
0200
0000
0310
1000
,
0002
0000
0103
0010
,
1000
0100
0010
0001
,
0200
0000
0320
0000
,
1030
0000
0001
0000
0200
0000
0000
0300
,
0020
0000
1030
0001
,
0100
0010
1000
0100
,
0020
0000
0031
0100
,
0020
0000
1030
0001
,
0200
0000
0310
1000
,
0001
0010
0100
1000
,
0002
0000
0103
0010
,
1000
0100
0020
0030
,
0002
0000
0103
0010
,
1000
0100
0010
0001
,
0100
0010
0010
1000
,
0001
0010
0001
0000
,
2000
0000
0000
0000
,
3001
0100
0010
0000
,
0020
0000
0000
0000
,
1030
0001
0100
0010
,
2000
0000
3001
0100
,
0010
1000
0100
0010
,
0002
0000
0003
0000
,
2000
0000
3000
0000
,
2000
0000
3000
0000
,
0020
0000
0030
0000
,
0200
0000
0300
0000
,
0001
0010
0001
0000
,
0100
0100
0010
0000
,
1000
1000
0001
0000
,
0200
0000
0300
0000
,
0020
0000
0030
0000
,
2000
0000
3000
0000
,
0020
0000
0030
0000
,
0001
0100
0010
1000
,
0100
0010
0001
0100
,
0020
0000
1030
0000
,
0001
1000
0001
0100
,
0020
0000
1030
0000
,
0002
0000
0013
0100
,
2000
0000
3001
0100
,
0020
0000
0000
0030
1000
0000
0001
0000
,
0100
0100
0010
1000
,
0001
0010
0100
1000
,
0002
0103
0010
1000
,
0100
0100
0010
0001
,
0100
0100
0010
1000
,
0001
0100
0010
0010
,
1000
0100
0010
0010
,
0001
0100
0010
0010
,
1000
0100
0010
0001
,
1000
0100
0010
0000
,
0001
0010
0001
0010
0001
0000
0000
0000
,
1000
0001
1000
0001
1000
0000
0000
0000
,
0001
0100
0010
1000
,
2010
0000
3001
0000
,
0100
0010
0100
0000
,
0010
1000
0010
0000
,
1000
0001
0100
0010
,
2010
0000
0000
0000
,
0000
0000
0000
3001
,
0200
0000
0000
0000
,
0000
0000
0000
0310
,
2000
0000
3001
0000
,
0200
0000
0310
0000
,
1000
0001
0100
0010
,
1000
0100
0010
0001
,
1001
0000
0000
0000
;

//---------------dance-single - ----------------
#NOTES:
     dance-single:
     :
     Hard:
     9:
     0.584,0.696,0.034,0.505,0.202,1053.000,10.000,150.000,0.000,0.000:

0000
0000
0000
0000
,
0000
0000
0000
0000
,
0000
0000
0000
0000
,
0001
0000
0100
0000
,
0010
0000
1000
0000
,
0100
0000
0010
0000
,
0001
0000
0100
0000
,
0010
0000
1000
0000
,
0001
0000
0100
0000
,
0020
0000
0000
0000
,
0000
0000
0000
0000
,
0000
0000
0000
0000
,
0030
0000
1001
0000
,
1000
0100
1000
0100
1000
0001
1000
0001
,
0100
0010
0100
0010
0100
0010
1000
0010
,
2000
0000
3002
0203
,
0310
0000
0000
0010
1000
0000
0000
1000
0020
0000
0000
0000
0230
0000
0000
0000
,
0302
0000
0203
0310
,
2000
3020
0230
0000
,
0302
0000
0013
0010
,
0001
0000
0000
0001
0100
0000
0000
0100
0001
0000
0000
0000
2000
0000
0000
0000
,
3020
0000
0130
0001
,
0010
0000
0000
0000
0000
0000
0001
0010
0001
0000
0000
0000
0100
0000
0000
0100
,
0010
0000
0200
0302
,
0103
0000
0000
0100
0010
0000
0000
0010
2000
0000
0000
0000
3002
0000
0000
0000
,
0203
0000
0000
0000
0000
0000
0000
0300
0020
0000
0000
0000
2030
0000
0000
0000
,
3002
1003
2001
0000
,
3020
0000
0230
0301
,
0010
0000
0000
0010
0001
0000
0000
0001
0200
0000
0000
0000
0320
0000
0000
0000
,
2030
0000
0000
0000
3010
0000
0000
0010
0100
0000
0000
0100
0001
0000
0000
0001
,
1000
0000
0000
0000
0000
0000
0001
0000
0000
0001
1000
0001
1000
0000
0000
0000
0000
0000
0000
0000
0000
0000
0000
0000
,
0020
0000
0230
0310
,
0100
0000
0000
0100
0010
0000
0000
0010
2000
0000
0000
0000
0000
0000
0000
0000
,
3002
0000
0203
0320
,
1030
0000
0000
1000
0010
0000
0000
0010
0100
0000
0000
0000
0004
0000
0000
0000
,
0023
0000
0032
2003
,
3010
0000
0000
0010
0100
0000
0000
0010
0100
0000
0000
0000
4000
0000
0000
0000
,
3004
0000
0203
0320
,
2030
0000
0000
0000
3000
0000
0001
1000
0001
0000
0000
0000
1000
0000
0000
1000
,
0200
0000
0310
0010
,
0001
0000
0000
0001
1000
0000
0000
1000
0002
0000
0000
0000
0203
0000
0000
0000
,
0320
0000
2030
3002
,
0203
0310
2001
0000
,
3002
0000
0000
0000
0000
0000
0000
0003
0200
0000
0000
0000
0320
0000
0000
0000
,
1030
0000
0000
1000
0100
0000
0000
0010
0001
0000
0000
0000
0001
0000
0000
0000
,
0200
0000
0320
2030
,
3002
0000
0000
0000
0003
0000
0100
0010
0100
0000
0000
0000
0001
0000
0000
0010
,
0002
0000
2003
3002
,
0103
0000
0000
0100
1000
0000
0000
0100
2000
0000
0000
0000
3002
0000
0000
0000
,
0013
0001
0010
0000
0100
0000
2000
0000
,
3020
0130
0110
0000
,
0010
1000
0010
1000
0020
0000
0230
0000
,
0301
0000
0000
0001
0010
0000
0000
0010
0002
0000
0000
0000
0203
0000
0000
0000
,
0310
0000
0100
0000
0010
0000
0000
0010
1000
0000
0000
1000
0001
0000
0000
0001
,
0100
0000
0000
0000
0000
0000
0010
0000
0000
1000
0010
1000
0020
0000
0000
0000
0000
0000
0000
0000
0000
0000
0000
0000
,
2030
0000
3020
0230
,
0310
0000
0000
0010
1000
0000
0000
0010
0200
0000
0000
0000
0000
0000
0300
0000
,
0002
0000
0000
0000
0000
0000
0000
0003
0200
0000
0000
0000
0320
0000
0000
0000
,
1030
0000
0000
1000
0010
0000
0000
1000
0020
0000
0000
0000
0230
0000
0000
0000
,
0302
0000
0023
0230
,
1300
0000
0000
0100
1000
0000
0000
0100
2000
0000
0000
0000
3002
0000
0000
0000
,
0203
0000
0000
0000
0000
0000
0000
0300
0020
0000
0000
0000
2030
0000
0000
0000
,
3002
0000
0000
0000
0000
0003
0100
0010
0100
0000
0000
0000
0010
1000
0010
1000
,
0010
0100
0001
0100
0002
0000
0023
0000
,
0130
1000
0100
1000
0002
0000
0203
0000
,
0310
1000
0010
1000
0020
0000
0230
0000
,
0301
0000
0010
0001
0020
0000
0000
0000
,
0031
0000
1000
0001
2000
0000
3020
0000
,
0130
0000
0001
0010
0001
0000
0001
0000
,
0100
0010
0100
0010
0100
0010
0100
0010
,
1000
0010
1000
0010
1000
0000
0001
0000
,
0100
0010
1000
0010
0100
0001
0010
0000
,
0100
1000
0100
0010
0001
0100
0001
0000
,
1000
0010
1000
0010
0100
0001
0010
0100
,
1000
0100
0010
0001
0010
0001
1000
0001
,
1000
0010
0100
0010
1000
0010
0100
0001
,
0010
0000
0000
0100
0000
0000
1000
0000
0000
0100
0000
0000
1000
0000
0001
0000
0100
0000
0010
0000
1000
0000
0100
0000
,
0010
0000
0000
0000
0001
0000
0000
0000
0000
0000
0000
0000
1000
0000
0000
0000
0000
0000
0000
0000
0000
0000
0000
0000
0001
0000
0000
0000
0000
0000
0000
0000
0000
0000
0000
0000
0000
0000
0000
0000
0000
0000
0100
0000
0000
0010
0000
0000
,
0200
0000
0000
0000
0000
0000
0320
0000
0000
1030
0001
1000
,
0001
0000
0000
0000
0100
0000
0000
0000
0010
0000
0000
0000
1000
0000
0010
1000
,
0010
0000
0000
0000
0100
0000
0010
1000
0010
0000
0000
0000
0000
0000
0100
0000
,
0001
0100
0002
0000
0000
0000
0000
0000
0000
0000
0000
0000
0000
0000
1003
0001
,
1000
0010
0100
0001
,
0020
0000
0000
0000
0000
0000
0000
0000
0130
0000
0000
0000
1000
0000
0001
0010
,
0002
0000
0000
0000
0103
0010
1000
0010
,
2000
0000
0000
0000
0000
0000
0000
0000
3002
0000
0000
0000
0003
0000
0000
0100
,
0010
0000
0000
0000
2000
0000
0000
0000
3002
0000
0000
0000
0103
0000
0010
0100
,
0010
0000
0000
0000
0100
0000
0000
0000
0002
0000
0000
0000
0003
0000
1000
0001
,
1000
0000
0000
0000
0000
0000
0010
0100
0010
0000
1000
0000
0001
0000
0000
0000
,
0200
0000
0000
0000
0300
0000
0000
0010
0200
0000
0000
0000
0302
0000
0000
0000
,
2003
0000
0000
0000
3000
0000
0010
1000
0010
0000
0000
0000
0100
0010
1000
0001
,
0100
0000
0000
0000
0010
0000
0000
1000
0010
0000
0000
0000
0010
0000
0000
0010
,
0100
0000
0000
0000
0001
0000
0000
0001
0010
0000
0000
0000
0001
0000
0000
0001
,
0010
0000
0000
0000
0001
0000
0000
0001
0100
0000
0000
0000
0010
0000
0000
0010
,
2000
0000
0000
0000
0000
0000
0000
0000
3001
0000
0000
0000
0001
0000
0000
0010
,
0100
0000
0000
0000
0010
0000
0000
0100
1000
0000
0000
0000
0100
0000
0000
0100
,
0010
0000
0000
0000
0001
0000
0000
0001
0100
0000
0000
0000
0010
0000
0000
0010
,
1000
0000
0000
0000
0001
0000
0000
0001
0100
0000
0000
0000
0010
0000
0000
0010
,
2000
0001
0010
0100
,
0001
0000
0000
0000
0010
0000
0000
0000
0100
3000
0000
0000
0001
0000
0000
0000
,
0200
0010
0001
0010
,
0010
0000
0000
0000
0001
0000
0000
0000
0010
0300
0000
0000
0001
0000
0000
0000
,
0010
0100
0001
0100
,
0010
1000
0001
0100
,
0010
1000
0100
0010
,
0001
0100
0001
0000
1000
0000
0000
0000
,
0001
1000
0001
1000
0001
1000
0010
0100
,
0010
1000
0010
0100
0001
0000
0010
0100
,
1000
0100
0010
0001
0100
0000
0010
1000
,
0010
0100
0001
0010
0001
0000
1000
0000
,
0001
0100
0001
0000
1000
0000
0010
0100
,
0010
1000
0001
0010
0001
0000
1000
0100
,
0010
0001
0100
0001
1000
0000
0010
0100
,
0010
1000
0001
0010
0001
0000
1000
0010
,
1000
0010
0100
0001
0010
0000
0100
1000
,
0100
0010
0001
0100
0001
0000
1000
0010
,
1000
0010
0100
0001
0010
0000
0100
1000
,
0100
0010
0001
0100
0001
0000
1000
0010
,
1000
0010
0100
0001
0010
0000
0100
1000
,
0100
0010
0001
0100
0001
0000
1000
0010
,
1000
0010
0100
0001
0010
0000
0100
1000
,
0100
1000
0100
0010
0001
0000
0100
0000
,
0020
0000
1030
0001
,
0100
0010
0100
0010
1000
0000
0001
0000
,
0020
0000
0130
1000
,
0001
0100
0001
0100
0001
0000
0200
0000
,
0320
0000
1030
0001
,
0100
0010
0100
0010
1000
0000
0002
0000
,
0023
0000
0000
0000
0130
1000
0100
1000
,
0200
0000
0000
0000
0320
0000
0031
1000
,
0002
0000
0103
0010
,
1000
0010
0100
0001
0010
0000
0100
0000
,
1200
0000
0000
0000
0310
0000
0001
0100
,
0010
1000
0010
0100
0002
0000
0000
0000
,
2003
0000
0000
0000
3010
0000
0100
0001
,
0010
0001
0100
0001
0010
0000
0020
0000
,
2030
0000
3001
0100
,
0020
0000
0000
1030
0001
0000
0100
0010
,
1000
0010
0100
0001
0010
0000
0100
1000
,
0100
0010
0001
0100
0010
0000
0010
1000
,
0010
0100
0001
0010
0100
0000
0100
0010
,
0001
1000
0001
0100
0010
0000
0010
1000
,
0010
0100
0001
0010
0100
0000
1000
0100
,
0010
0001
0100
0010
1000
0000
0010
0000
,
2010
3001
0101
0001
,
0011
0000
0001
0100
0001
0000
1000
0000
,
0020
0000
0000
0000
1030
0001
0100
0001
,
0010
0100
1000
0100
0010
0000
0001
0000
,
0200
0000
0000
0000
0310
1000
0010
0100
,
0001
0010
0100
1000
0100
0000
0020
0000
,
0032
0000
0000
0000
0103
0010
1000
0010
,
0100
0001
0010
0100
1000
0000
0002
0000
,
0203
0000
0000
0000
0310
1000
0010
1000
,
0020
0000
0000
0030
0200
0000
0301
0010
,
0002
0000
0203
0320
,
2030
0000
3002
0023
,
0230
0000
2300
3002
,
0203
0320
2030
0000
,
3001
0000
0100
0010
0100
0000
0010
0000
,
1000
0010
1000
0010
1000
0000
0010
0000
,
0100
0010
0100
0010
0100
0010
1000
0010
,
0100
0001
0010
0100
1000
0000
0001
0000
,
0100
0010
1000
0000
1000
0100
0010
0001
,
0100
0001
1000
0001
0100
0010
1000
0010
,
0100
0001
0010
0100
1000
0100
0010
0001
,
0100
0001
0010
0001
0100
0001
0010
0001
,
0100
0010
0100
0010
1000
0010
0100
0001
,
0010
0000
0000
0100
0000
0000
1000
0000
0000
0001
0000
0000
0100
0000
0010
0000
1000
0000
0100
0000
0010
0000
0001
0000
,
0100
0000
0000
0000
0010
0000
0000
0000
0000
0000
0000
0000
1000
0000
0000
0000
0000
0000
0100
0000
0000
0000
0000
0000
0010
0000
0000
0000
0000
0000
0001
0000
0000
0000
0000
0000
0010
0000
0000
0000
0000
0000
0100
0000
0000
1000
0000
0000
,
0010
0000
0000
0100
0000
0000
0001
0000
0000
1000
0000
0000
0100
0000
0000
0010
0000
0000
0001
0000
1000
0000
0001
0000
,
1000
0000
0010
0000
0100
0000
0001
0000
0010
0000
0100
0000
1000
0000
0010
0100
,
0001
0000
0100
0000
0010
0000
1000
0100
1000
0000
0000
0001
0000
0000
0010
0000
,
0001
0010
0001
0000
0010
0000
0100
0000
1000
0000
0001
0000
0100
0000
0001
1000
,
0001
0000
0100
0000
0010
0000
1000
0000
0100
0000
0010
0000
0001
0010
0100
0010
,
0001
0000
0100
0000
0010
0000
1000
0000
0001
0000
0010
0000
0100
0000
1000
0100
,
1000
0000
0010
0000
0100
0000
0001
1000
0001
0000
0100
0000
0010
0000
0100
0000
,
0010
1000
0100
0010
0001
0010
0100
1000
,
0100
0000
0010
0000
0001
0000
0100
0001
0100
0000
0010
0000
1000
0000
0100
0010
,
0001
0000
1000
0000
0001
0000
0100
0010
,
0100
0000
0010
0000
1000
0001
0100
0001
,
1000
0001
0010
0001
,
1000
0000
0000
0000
0010
0000
0100
0000
0010
0000
0000
0000
1000
0000
0000
1000
,
0001
0000
0000
0000
0010
0000
0010
0000
0100
0000
0000
0000
0100
0000
0000
0100
,
0001
0000
0000
0000
0001
0000
0000
0001
0010
0000
0000
0000
0100
0000
0000
0100
,
1000
0000
0000
0000
0100
0000
0000
0100
0010
0000
0000
0000
0001
0000
0000
0001
,
0020
0000
0000
0000
0000
0000
0000
0030
0001
0000
0000
0000
0100
0000
0000
0100
,
0010
0000
0000
0000
0010
0000
0000
0010
1000
0000
0000
0000
1000
0000
0000
1000
,
0010
0000
0000
0000
0010
0000
0000
0010
0100
0000
0000
0000
0100
0000
0000
0100
,
0001
0000
0000
0000
0001
0000
0000
0001
0010
0000
0000
0000
0100
0000
0000
0000
,
0001
1000
0001
1000
0001
0000
0000
0000
0100
0010
0100
0010
0100
0000
0000
0000
,
0001
0010
0001
0010
0001
0000
0000
0000
0100
0010
0100
0010
0100
0000
0000
0000
,
0001
0100
0001
1000
0010
0100
0010
1000
,
0001
0010
0001
1000
0001
0000
0200
0000
,
0310
1000
0010
0000
0200
0000
0301
0000
,
0010
0000
0000
0000
,
1000
0100
0010
0001
0010
0100
1000
0001
,
0100
0010
1000
0100
0010
0001
0100
0010
,
1000
0000
0000
0000
;
