#TITLE:Kiss Me All Night Long;
#SUBTITLE:;
#ARTIST:NAOKI J-STYLE feat.MIU;
#TITLETRANSLIT:;
#SUBTITLETRANSLIT:;
#ARTISTTRANSLIT:;
#CREDIT:;
#BANNER:KissMeAllNightLong-bn.png;
#BACKGROUND:KissMeAllNightLong-bg.png;
#LYRICSPATH:;
#CDTITLE:!joeCDtitle.png;
#MUSIC:NAOKI J-STYLE feat. MIU - Kiss Me All Night Long.mp3;
#OFFSET:1.200;
#SAMPLESTART:36.270;
#SAMPLELENGTH:12.000;
#SELECTABLE:YES;
#BPMS:0.000=155.000;
#STOPS:;
#BGCHANGES:;
// cache tags:
#FIRSTBEAT:4.000;
#LASTBEAT:245.500;
#SONGFILENAME:Songs/Fresh Flock of Fantastic Files F4/(-joe-) Kiss Me All Night Long/KissMeAllNightLong.sm;
#HASMUSIC:1;
#HASBANNER:1;
#MUSICLENGTH:95.980;
// end cache tags

//---------------dance-single - ----------------
#NOTES:
     dance-single:
     :
     Hard:
     10:
     0.844,0.983,0.927,0.385,0.458,441.000,89.000,37.000,0.000,0.000:
0000
0000
0000
0000
,
0000
0000
0000
0000
,
0000
0000
0000
0000
,
0000
0000
0000
0000
,
0000
0000
0000
0000
,
0001
1000
0001
0000
0100
0000
0010
0000
1000
0000
0001
0000
1001
0000
0010
0000
,
1000
0010
1000
0000
0010
0000
0100
0000
0001
0000
0100
0000
1001
0000
0001
0000
,
0100
0010
0100
0000
1000
0000
0010
0000
0100
0000
0001
0000
1001
0000
0001
0000
,
1000
0001
1000
0010
1000
0000
0001
0000
0100
0000
1000
0000
0100
0000
1000
0000
,
1001
0000
0000
0010
0000
0000
1001
0000
0000
0010
0000
0000
0011
0000
0000
0000
,
0110
0000
0000
0001
0000
0000
1010
0000
0000
0100
0000
0000
0010
0000
0001
0000
,
1010
0000
0000
1000
0000
0000
1010
0000
0000
0001
0000
0000
1010
0000
0000
0000
,
0011
0000
0000
0010
0000
0000
1001
0000
0000
1001
0000
0000
0100
0000
0010
0000
,
1001
0000
0000
0110
0000
0000
0101
0000
0000
0001
0000
0000
0101
0000
1000
0000
,
0110
0000
0000
1000
0000
0000
1010
0000
0000
0010
0000
0000
1010
0000
0001
0000
,
1001
0000
0000
0100
0000
0000
0110
0000
0000
0001
0000
0000
0110
0000
1000
0000
,
0101
0000
0000
0100
0000
0000
0101
0000
0000
0010
0000
0000
1001
0000
1010
0000
,
1100
0100
0001
0100
0010
0100
0010
0100
,
0001
0100
0001
1000
0010
0100
0010
0100
,
0001
0010
0001
1000
0001
0100
0010
2000
,
3020
0230
0302
1003
0010
0100
0001
1000
,
0001
1010
0001
0100
0010
0100
0001
1010
,
0001
0100
0001
0100
0010
0100
0001
1100
,
0010
1000
0001
0010
1000
0001
1000
0001
,
1001
0000
0101
0000
1010
0000
0110
0000
1000
0010
0100
0001
1000
0010
0100
0001
,
2000
3010
0100
0001
1001
1000
0010
0100
,
0010
1100
0001
1100
0010
1100
0010
0100
,
0001
1000
0010
1000
0101
1000
0010
0100
,
1010
0001
1000
0001
1001
1000
0100
0010
,
1001
0010
0100
1000
0010
0100
0001
1000
,
0001
0000
0100
0001
1000
0010
0100
0001
1000
0100
0010
0001
1000
0100
0010
0000
,
0001
1000
0001
1000
0000
0001
1000
0001
1000
0000
0010
0100
0001
1000
0010
0100
,
0001
2002
0000
3003
,
0010
0000
1000
0000
0001
0000
1000
0001
0000
1000
0000
0001
1000
0000
0001
0000
,
1001
0000
0100
0000
0010
0000
0100
0010
0000
0100
0000
0010
0100
0000
1001
0000
,
1100
0000
0000
0011
0000
0000
1100
0000
0000
0101
0000
0000
1010
0000
0000
0000
,
0000
0000
0000
0101
0000
0000
0101
0000
0000
0101
0000
0000
0001
0000
1000
0000
,
1002
0103
1010
0100
1000
0001
1010
0001
,
1000
0010
0100
0100
1000
0010
1001
1000
,
0001
0100
0010
1000
0001
0100
0010
1000
0001
1000
0001
0100
0010
1000
0001
0100
,
0010
0100
0010
0000
1001
0000
0010
0000
0001
0000
0001
0000
0010
0000
0200
0000
,
0000
0300
2002
0000
0000
0000
3003
0000
,
1001
0010
1000
0001
1100
0010
0001
0100
,
0010
1100
0001
1100
0010
1100
0001
0001
,
2000
3020
0032
2003
3200
0302
2003
3020
,
0032
2003
3200
0320
1030
0001
0011
0101
,
0002
0000
0000
0000
0000
1003
0000
0000
,
0000
1100
0001
1100
0010
1100
0001
0100
,
1001
0001
1000
0001
1000
1000
0001
1000
,
0001
0100
0010
1000
0001
0000
1000
0010
0100
0001
1000
0000
0001
0010
0100
1000
,
0011
0000
0001
0000
1000
0001
0000
0001
1000
0010
0000
0100
0001
1000
0010
0000
,
1100
0000
0101
0000
1000
0100
0010
0100
1000
0001
0010
0001
1000
0100
0010
0000
,
1100
0001
1000
0001
1000
0010
0001
1000
,
0002
2003
3020
0230
0302
0203
0320
2030
,
3002
0000
0000
0000
0000
1003
0000
0000
,
0000
1001
0100
1001
0010
1001
0100
0010
,
1000
0010
0100
0001
0100
0000
0001
0100
0010
1000
0001
0010
0001
1000
0100
0010
,
0001
2002
0000
3003
,
0101
0000
0000
1010
0000
0000
0011
0000
0000
1010
0000
0000
0000
0000
1010
0000
,
0101
0000
0000
1010
0000
0000
0101
0000
0000
1000
0000
0000
0001
0000
0001
0000
,
1000
0010
1000
0010
0100
0001
1000
0001
1000
0000
2002
0000
0000
0000
3003
0000
;

//---------------dance-single - ----------------
#NOTES:
     dance-single:
     :
     Challenge:
     12:
     1.000,1.000,1.000,0.500,1.000,667.000,133.000,48.000,0.000,0.000:
0000
0000
0000
0000
,
0010
1000
0010
1001
0000
0100
0001
0100
1000
0100
0000
0010
1001
0100
0001
1000
,
0000
0010
1000
0001
0110
1000
0001
1000
0001
0100
0010
1000
0101
0010
0000
1000
,
0001
1000
0010
0100
1010
0001
1000
0001
1000
0100
0001
0010
0001
0100
0001
1000
,
0100
0000
0000
0010
0000
0000
1000
0000
0000
0001
0000
0000
0010
0000
0000
1000
0000
0000
0001
0000
0000
1000
0000
0000
0002
0000
0000
0103
0000
0000
0010
0000
0000
0100
0000
0000
0001
0000
0000
1000
0000
0000
0001
0000
1000
0000
0100
0000
,
0010
0000
0001
0000
0000
0000
0100
0000
0000
0001
0000
0000
0010
0000
0000
0000
0000
0000
0001
0000
0000
1000
0000
0000
0100
0000
0000
0010
0000
0000
1000
0000
0000
0001
0000
0000
0010
0000
0000
0100
0000
0000
0001
0000
0000
1000
0000
0000
,
0001
0010
1000
0001
1000
0100
0001
1000
0001
1000
0100
0010
0001
1000
0010
0001
,
0010
1000
0100
0010
0100
0000
0001
1000
0100
0010
0001
0100
0010
0001
0100
0001
,
1000
0000
0100
0000
0010
0000
0001
0000
0000
0100
0000
0000
0010
0000
0000
0000
0000
0000
0001
0000
0000
1000
0000
0000
0010
0000
0000
1000
0000
0000
0100
0000
0000
1000
0000
0000
0010
0000
0000
0100
0000
0000
0001
0000
0000
0010
0000
0000
,
1001
0000
0000
1010
0000
0000
1001
0000
0000
1010
0000
0000
0022
0000
0033
0000
,
0110
0000
0000
1001
0000
0000
1010
0000
0000
0101
0000
0000
0010
0000
1001
0000
,
1010
0000
0000
1001
0000
0000
1010
0000
0000
1001
0000
0000
2020
0000
3030
0000
,
0011
0000
0000
0000
0000
0000
0000
0000
0000
1010
0000
0000
0000
0000
0000
0000
0000
0000
1001
0000
0000
0000
0000
0000
1000
0000
0000
0001
0000
0000
1000
0000
0100
0000
0010
0000
0001
0000
0000
0000
0000
0000
1000
0000
0000
0000
0000
0000
,
1001
0000
0000
0110
0000
0000
0101
0000
0000
0110
0000
0000
0202
0000
0303
0000
,
0110
0000
0000
1001
0000
0000
1010
0000
0000
1001
0000
0000
1010
0000
0101
0000
,
0110
0000
0000
0101
0000
0000
0110
0000
0000
1010
0000
0000
0220
0000
0330
0000
,
0101
0010
0100
1000
0001
1000
0001
0010
0001
0100
1000
0010
1000
0100
0010
0001
,
1100
0100
1001
0100
0010
0100
1010
0100
,
0001
0100
0101
1000
0010
0100
0011
0100
,
0001
0010
1001
1000
0001
0100
1100
2000
,
3010
0100
1001
0100
0010
0100
0011
2100
,
3001
2010
3001
0100
1010
0100
0001
2010
,
3100
0010
1001
0100
0010
0100
0101
2100
,
3100
0010
1001
0110
1000
0001
2010
3001
,
2002
3003
0202
0303
2020
3030
0220
0330
2002
3003
0100
0001
0100
0001
1000
0010
,
0102
0000
1003
0000
0001
1000
0000
0001
1000
0010
0000
0001
1000
0100
0010
0000
,
1100
0000
0101
0000
1000
0100
0010
0001
1000
0010
0100
0001
1000
0010
0100
0001
,
1100
0000
0001
0000
1000
0100
1000
0000
0001
0100
0010
1000
0001
0100
0010
0000
,
1100
0000
0001
0000
1000
0010
0000
0100
0010
1001
0100
0001
2100
0000
3001
0000
,
1002
0000
0103
0000
0001
1000
0000
0001
1000
0010
0000
0001
1000
0100
0010
0000
,
1100
0000
0101
0000
1000
0010
0100
0001
1000
0100
0010
0001
1000
0100
0010
0100
,
1001
0000
0000
0000
0001
0000
0010
0000
0100
0000
1000
0000
0000
0000
0000
0000
0000
0000
1000
0000
0100
0000
0010
0000
0001
0000
0000
1000
0000
0000
0001
0000
0000
1000
0000
0000
0001
0000
0000
0100
0000
0000
0010
0000
0000
1000
0000
0000
,
0002
0003
2002
0000
0000
0000
3003
0000
,
1010
0000
0010
0000
0001
0000
0100
0010
0000
0001
0000
1000
0010
0000
0100
0000
,
0001
0000
1000
0000
0010
0000
0100
0010
0100
0001
0000
0100
0010
0100
1001
0000
,
1100
0000
0010
1000
0001
0000
1100
0010
0000
1001
0000
0100
1010
0000
0001
0000
,
1010
0000
0010
1000
0001
0000
1100
0010
0100
1001
0000
0100
0001
0100
0010
0000
,
1002
0000
0103
0000
1010
0000
0100
0010
1000
0001
0100
0000
1010
0000
0001
0000
,
1100
0000
0010
0000
1001
0000
0100
0010
1100
0001
0010
1000
0001
1000
0010
0100
,
0001
0100
0001
0100
0010
0100
0001
1000
0001
0100
0010
1000
0001
0100
0010
1000
,
0001
0000
0010
0000
0100
0000
1000
0000
0000
0001
0000
0000
0100
0000
0000
0010
0000
0000
0100
0000
0000
0001
0000
0000
0100
0000
0000
0010
0000
0000
1000
0000
0000
0001
0000
0000
1000
0000
0000
0010
0000
0000
0100
0000
0000
0001
0000
0000
,
1000
0000
0000
0000
0022
0000
0000
0000
0000
0000
0000
0033
0000
0000
0000
0000
,
1001
0000
0110
0000
1100
0000
0011
0000
0100
1000
0010
0000
0001
1000
0100
0010
,
0001
0100
1010
0100
0010
0001
1100
0010
0100
0001
0110
0001
1000
0001
0100
0010
,
1100
0000
0002
0000
1003
0100
0010
0100
1000
0010
0001
1000
0001
0100
0010
1000
,
0002
0000
2003
0000
3001
0100
0000
0010
0100
1010
0000
1000
0012
0000
2003
0000
,
3002
0000
0103
0000
0001
1000
0000
0100
0001
0010
0000
0001
1000
0100
0010
0000
,
0001
0000
0101
0000
1000
0010
1001
0100
1000
0010
1001
0100
0001
1000
0101
0010
,
1000
0000
0001
0000
1000
0001
0000
0001
1000
0010
0000
0100
0001
1000
0010
0100
,
0001
0000
0010
0000
0100
0000
1000
0000
0001
0000
0000
0000
0000
0000
1000
0000
0100
0000
0010
0000
0001
0000
0000
0000
1000
0000
0000
0010
0000
0000
0100
0000
0000
1000
0000
0000
0001
0000
0000
0010
0000
0000
0100
0000
0000
1000
0000
0000
,
0012
0000
0013
0000
1000
0001
0000
0001
1000
0010
0000
0100
0001
1000
0010
0000
,
0010
0000
0101
0000
1000
0100
0011
0100
1000
0001
1010
0001
1000
0100
0011
0000
,
1100
0000
0001
0000
1000
0001
0000
0001
1000
0010
0000
0100
0001
1000
0010
0000
,
0011
0000
1000
0000
0001
1000
0000
0001
1000
0001
0100
0001
1100
0000
1010
0000
,
1000
0000
1001
0000
1000
0001
0000
0001
1000
0010
0000
0100
0001
1000
0010
0000
,
1100
0000
0011
0000
1000
0010
0101
0010
1000
0001
1100
0001
1000
0100
0010
0000
,
0001
0000
0010
0000
0100
0000
1000
0000
0000
0000
0000
0000
0000
0000
0000
0000
0000
0000
0001
0000
0010
0000
0100
0000
1000
0000
0000
0001
0000
0000
1000
0000
0000
0010
0000
0000
0100
0000
0000
0001
0000
0000
1000
0000
0000
0010
0000
0000
,
2002
3003
0220
0000
0000
0330
0000
0000
,
0101
0000
1000
0010
0000
1000
0011
0000
1100
0001
0000
0001
1010
0000
0011
0000
,
0101
0000
1010
0100
0000
1000
0101
0000
0100
0001
0000
0001
1100
0000
0101
0000
,
0001
0000
0010
0000
0100
0000
1000
0000
0000
0001
0000
0000
0100
0000
0000
0010
0000
0000
1000
0000
0000
0001
0000
0000
1000
0000
0000
0001
0000
0000
2000
0000
0000
0001
0000
0000
3100
0000
0000
0010
0000
0000
0000
0000
0000
0000
0000
0000
,
2002
0000
0000
3003
0000
0000
0000
0000
;
