#TITLE:That Is Fair;
#SUBTITLE:;
#ARTIST:Vospi;
#TITLETRANSLIT:;
#SUBTITLETRANSLIT:;
#ARTISTTRANSLIT:;
#CREDIT:;
#BANNER:thatisfair.png;
#BACKGROUND:thatisfair-bg.png;
#LYRICSPATH:;
#CDTITLE:vospi.png;
#MUSIC:Vospi - That Is Fair.mp3;
#OFFSET:-0.087;
#SAMPLESTART:59.196;
#SAMPLELENGTH:11.940;
#SELECTABLE:YES;
#BPMS:0.000=125.000;
#STOPS:;
#BGCHANGES:;
// cache tags:
#FIRSTBEAT:8.000;
#LASTBEAT:175.250;
#SONGFILENAME:Songs/Keys of Flames/That Is Fair (Vospi)/thatisfair.sm;
#HASMUSIC:1;
#HASBANNER:1;
#MUSICLENGTH:86.491;
// end cache tags

//---------------dance-single - ----------------
#NOTES:
     dance-single:
     :
     Hard:
     12:
     1.000,1.000,1.000,0.092,1.000,540.000,113.000,8.000,0.000,0.000:
0000
0000
0000
0000
,
0000
0000
0000
0000
,
0010
0000
0000
0000
0000
0000
0000
0000
0100
0000
0001
0000
0100
0000
0001
0000
1000
0000
0000
0000
0000
0000
1000
0000
0000
0000
0000
0000
0010
0100
0001
0000
,
0010
0000
0000
0000
0000
0000
0000
0000
0100
0000
1000
0000
0100
0000
1000
0000
0001
0000
0000
0000
0000
0000
0001
0000
0000
0000
0000
0000
0010
0100
1000
0000
,
0011
0000
0000
0000
0000
0000
0000
0000
0110
0000
0001
0000
0100
0000
0001
0000
1010
0000
0000
0000
0000
0000
1000
0000
0010
0000
0000
0000
0010
0100
0001
0000
,
1010
0000
0000
0000
0000
0000
0000
0000
0110
0000
1000
0000
0100
0000
1000
0000
0011
0000
0000
0000
0000
0000
0001
0000
0000
0000
0000
0000
0010
0100
1000
0000
,
0010
0000
0000
0000
0000
0000
0000
0000
0100
0000
0001
0000
0100
0000
0001
0000
1000
0000
0000
0000
0000
0000
1000
0000
0000
0000
0000
0000
0010
0100
0001
0000
,
0010
0000
0000
0000
0100
1000
0100
1000
0101
0000
0000
1001
0000
0000
1100
0000
,
1100
0010
1000
0100
0011
0000
0010
0100
1000
0010
0100
0001
0101
0000
0010
1000
,
0110
1000
0001
0100
1010
0000
0010
0101
1000
0010
0100
0010
0101
0000
0010
1000
,
0101
1000
0010
0001
1010
0000
1000
0001
0100
0010
1000
0010
0110
0000
1000
0100
,
1001
0010
0100
0001
1100
0000
1000
0010
0100
0010
1000
0100
0011
0000
1010
0000
,
1100
0010
1000
0100
0011
0000
0010
0100
1000
0010
0100
0001
0101
0000
0010
1000
,
0110
1000
0001
0100
1010
0000
0010
0101
1000
0010
0100
0010
0101
0000
0010
1000
,
0101
1000
0010
0001
1010
0000
1000
0001
0100
0010
1000
0010
0110
0000
1000
0100
,
1001
0010
0100
0001
1010
0100
1000
0010
1001
0000
0000
0101
0000
0000
0110
0000
,
1001
0000
0010
0000
0101
0000
0010
0000
1000
1000
0010
0100
0001
0100
0010
0100
,
1001
0000
0010
0000
0101
0000
0010
0000
1000
0001
1000
0100
0010
0100
0010
0001
,
1100
0000
0010
0000
0101
0000
0010
0000
1000
1000
0010
0100
0001
0100
0010
0100
,
1001
0000
0010
0000
0101
0000
0010
0000
0001
1000
0001
0010
0100
0010
0100
1000
,
0110
0000
0010
0000
0101
0000
0010
0000
1000
1000
0010
0100
0001
0100
0010
0100
,
1001
0000
0010
0000
0101
0000
0010
0000
1000
0001
1000
0100
0010
0100
0010
0001
,
1100
0000
0010
0000
0101
0000
0010
0000
1000
1000
0010
0100
0001
0100
0010
1000
,
1001
0100
0001
1000
0011
0010
0100
1000
0110
0000
0000
0101
0000
0000
1010
0000
,
0001
0000
0010
0000
0001
0000
1000
0000
0100
0000
1000
0000
0100
1000
0100
0000
0001
0000
0010
0000
0001
0000
1000
0000
1000
0000
0010
0000
0010
0000
0100
0000
,
0001
0000
0010
0000
0001
0000
1000
0000
0100
0000
1000
0000
0100
1000
0100
0000
0001
0000
0010
0000
0001
0000
1000
0000
1000
0000
0010
0000
0010
0000
0100
0000
,
0001
0000
0010
0000
0001
0000
1000
0000
0100
0000
1000
0000
0100
0000
0100
0000
0010
0100
1000
0000
0001
0000
0001
0000
1100
0000
0010
0000
0010
0000
0100
0000
,
0001
0010
0001
1000
0100
1000
0100
1000
0022
0033
2200
3300
0000
0000
0010
0000
,
0100
0000
1000
0000
0100
0000
1000
0000
0100
1000
0100
0000
0010
0000
0100
0000
1000
0000
0010
0000
0100
0000
0001
0000
0010
0100
0010
0000
0001
0000
0000
0000
,
0100
0000
1000
0000
0100
0000
1000
0000
0010
0000
0100
0000
0001
0010
0001
0000
0100
0000
0000
0000
0010
0100
0010
0000
1000
0000
0000
0000
0001
0010
0001
0000
,
0100
0000
0010
0000
1000
0000
0100
0000
0010
0000
0100
0000
1000
0000
0010
0000
0100
0000
0001
0000
0100
0000
0010
0000
1000
0001
1000
0000
0010
0000
0000
0000
,
0100
0000
0001
0000
0100
0000
0010
0000
1000
0100
1000
0000
0010
0000
0000
0000
0101
0000
0000
0000
0010
0000
1001
0000
0010
0000
0001
0000
0110
0000
0000
0000
,
1001
0010
0100
0001
0010
0001
0100
0010
1000
0001
0010
0100
1000
0010
0100
0010
,
1000
0010
0100
0001
0010
0100
1000
0010
0100
0010
1000
0010
0100
0010
1000
0100
,
0010
0100
1000
0001
0010
0100
0010
0001
1000
0010
0100
0001
0100
0010
1000
0001
,
0100
0001
0010
0100
1000
0010
0100
0010
1000
0100
0010
0001
1000
0100
0010
0001
,
1001
0000
0000
0000
0010
0000
0000
0000
0101
0000
0010
0000
1100
0000
0001
0000
0110
0000
0000
0000
0000
0000
1010
0000
0000
0000
0000
0000
0001
0010
0100
0000
,
1010
0000
0000
0000
0100
0000
0000
0000
0011
0000
1000
0000
0010
0000
0100
0000
0101
0000
0000
0000
0000
0000
0011
0000
0000
0000
0000
0000
0100
1000
0010
0000
,
0101
0000
0000
0000
0010
0000
0000
0000
1100
0000
0001
0000
0010
0000
0001
0000
0110
0000
0000
0000
0000
0000
1010
0000
0000
0000
0000
0000
0001
0100
0010
0000
,
1000
0000
1000
0000
1000
0000
1000
0000
0101
0000
0101
0000
1000
0100
0010
0000
1100
0000
0010
0000
0100
0000
1100
0000
0010
0000
0100
0000
0011
0000
0100
0000
,
1010
0000
0100
1000
0011
0000
1000
0000
0011
0000
0000
1010
0000
0000
0110
0000
,
0011
0011
0011
0011
1000
0100
0011
0000
0101
0000
0000
1010
0000
0000
1100
0000
,
0011
0011
0011
0011
1000
0100
0011
0000
0101
0000
0000
1010
0000
0000
1100
0000
,
0011
0011
0011
0011
1100
1100
1100
1100
0202
0000
0303
0202
0000
0303
0000
0000
;
