#TITLE:TKM;
#SUBTITLE:;
#ARTIST:Loki;
#TITLETRANSLIT:;
#SUBTITLETRANSLIT:;
#ARTISTTRANSLIT:;
#CREDIT:;
#BANNER:tkm-bn.png;
#BACKGROUND:tkm-bg.png;
#LYRICSPATH:;
#CDTITLE:!rebirth.png;
#MUSIC:tkm.mp3;
#OFFSET:0.320;
#SAMPLESTART:52.680;
#SAMPLELENGTH:12.000;
#SELECTABLE:YES;
#BPMS:0.000=186.000;
#STOPS:;
#BGCHANGES:;
// cache tags:
#FIRSTBEAT:4.000;
#LASTBEAT:308.000;
#SONGFILENAME:Songs/Keys of Flames/TKM (Loki)/tkm.sm;
#HASMUSIC:1;
#HASBANNER:1;
#MUSICLENGTH:101.570;
// end cache tags

//---------------dance-single - ----------------
#NOTES:
     dance-single:
     :
     Hard:
     12:
     1.000,1.000,1.000,0.414,0.556,632.000,256.000,42.000,0.000,2.000:  // measure 1
0000
0000
0000
0000
,  // measure 2
0001
0000
0001
0001
1000
0000
0001
0001
,  // measure 3
1000
0000
0001
0001
1000
0001
1000
0000
,  // measure 4
0001
0000
0001
0001
1000
0000
0100
0000
0001
0000
0001
0001
1000
0000
0100
0000
,  // measure 5
0001
0000
0001
0001
1000
0000
0100
0000
0001
0000
0010
0000
0001
0000
0000
0000
,  // measure 6
1010
0000
1010
0100
0011
0000
0011
0100
,  // measure 7
1001
0000
1001
0010
1001
0100
0011
0000
,  // measure 8
1100
0000
0010
0100
1001
0000
0100
0000
0011
0000
1000
0010
0101
0000
1000
0000
,  // measure 9
0110
0001
1000
0001
1100
0001
1000
0001
1100
0001
1100
0001
1100
0000
0000
0000
,  // measure 10
1001
0000
0000
0000
1001
0010
0100
0000
0011
0000
0000
0000
1001
0100
0010
0000
,  // measure 11
1100
0000
0000
0000
0110
0001
1000
0000
0011
0000
1000
1000
0010
0010
0100
0100
,  // measure 12
0011
0000
0000
0000
1100
0010
0001
0000
1010
0000
0000
0000
1100
0010
0001
0000
,  // measure 13
1010
0000
0000
0000
0011
0100
1000
0000
0110
0000
0000
0000
0110
0000
0000
0000
,  // measure 14
1001
0000
1001
0000
0010
0100
0001
0000
0011
0000
0011
0000
1000
0010
0100
0000
,  // measure 15
1010
0000
1010
0000
0100
0001
0010
0000
1100
0000
0001
0001
0010
0010
0100
0100
,  // measure 16
1001
0000
1001
0000
0001
1000
0010
0000
0101
0000
0101
0000
1000
0100
0010
0000
,  // measure 17
0011
0000
0011
0000
0100
0001
0010
0000
1100
0000
0000
0000
1100
0000
0000
0000
,  // measure 18
1001
0100
0011
0101
1001
0010
0101
0011
,  // measure 19
1001
0010
0101
1010
0110
0001
1100
0011
,  // measure 20
0110
1001
0100
0011
0100
1010
0110
0101
,  // measure 21
1000
0011
0110
1100
0110
0001
1010
0100
,  // measure 22
0011
1100
0010
0101
1010
0100
1001
0110
,  // measure 23
0001
1000
0010
0100
0010
1000
0100
0010
,  // measure 24
1001
0110
0001
1100
0011
1000
0110
0001
,  // measure 25
1010
0000
1010
0000
0101
0000
1100
0000
0000
0000
1000
0010
0100
0000
0001
0000
,  // measure 26
1100
0110
0011
1010
0101
1000
0110
0001
,  // measure 27
1000
0110
0011
1010
0101
1000
0110
1001
,  // measure 28
0100
0011
0110
1100
1010
0100
0011
1100
,  // measure 29
0010
0101
1010
0110
0011
1000
0110
0101
,  // measure 30
1000
0110
0011
1010
0101
1000
0110
0001
,  // measure 31
1000
0011
1010
0101
0110
0001
1100
0011
,  // measure 32
1000
0110
1001
0110
0001
1010
0101
1010
,  // measure 33
0000
0110
0011
0000
1100
0000
0010
0000
,  // measure 34
1001
1001
0110
0110
0011
0011
2020
3030
,  // measure 35
0011
0000
0011
0100
1010
0000
1010
0000
0110
0000
0110
0000
2002
0000
3003
0000
,  // measure 36
1001
1001
0011
0011
1010
1010
0220
0330
,  // measure 37
0110
0110
0022
0033
0220
0330
2200
3300
,  // measure 38
0011
0011
0110
0110
1100
1100
0202
0303
,  // measure 39
1010
1010
0110
0110
0101
0101
2002
3003
,  // measure 40
0110
0110
0011
0011
1010
1010
2200
3300
,  // measure 41
0101
0110
2020
3030
0220
0330
0202
0303
,  // measure 42
0001
0100
0010
1000
0001
0010
0001
0100
0010
1000
0100
1000
0010
0100
0001
0010
,  // measure 43
0001
1000
0100
0010
0100
1000
0010
0100
0001
0001
0100
0100
0010
0010
1000
1000
,  // measure 44
0100
0010
0001
1000
0010
0100
0010
1000
0001
0010
0100
1000
0001
0100
0010
1000
,  // measure 45
0100
0010
0001
0100
0010
0100
0001
1000
0010
0010
0100
0100
0001
0001
1000
1000
,  // measure 46
0100
0010
0001
0100
0010
0100
0001
1000
0100
0010
0001
0010
0100
1000
0001
0100
,  // measure 47
0010
1000
0010
0100
0001
1000
0100
0010
0100
0100
1000
1000
0001
0001
0010
0010
,  // measure 48
1000
0100
0010
0001
1000
0010
0100
0010
1000
0001
0010
0001
0100
0010
1000
0100
,  // measure 49
0010
0001
0010
0100
1000
0010
0100
0001
1000
1000
0010
0010
0100
0100
0001
0001
,  // measure 50
1000
1000
0000
0010
1000
1000
0000
0010
,  // measure 51
1000
1000
0000
0010
0200
0300
0200
0300
,  // measure 52
0001
0001
0000
0100
0001
0001
0000
0100
,  // measure 53
0002
0023
0230
2300
,  // measure 54
3011
0100
1010
0100
0011
1100
0110
1001
,  // measure 55
1100
0011
0110
0001
1100
0010
0101
1000
,  // measure 56
0110
0001
1100
0010
0101
1100
0110
0011
,  // measure 57
1010
0110
1001
0010
1100
0001
1010
0100
,  // measure 58
0011
1000
0110
0001
1010
0110
1001
0110
,  // measure 59
0011
1100
0110
0001
1100
0010
1001
0100
,  // measure 60
0011
1000
0110
0001
1100
0011
0110
1001
,  // measure 61
1100
0110
0101
1000
0110
0001
1100
0010
,  // measure 62
1001
0001
0000
1000
0001
0001
0000
1000
,  // measure 63
0001
0001
0000
1000
0020
0030
0020
0030
,  // measure 64
1000
1000
0000
0010
1000
1000
0000
0010
,  // measure 65
1000
1000
0000
0010
2000
3000
2000
3000
,  // measure 66
0100
0100
0000
1000
0100
0100
0000
1000
,  // measure 67
0100
0100
0000
1000
0200
0300
0200
0300
,  // measure 68
0001
0001
0000
0010
0001
0001
0000
0010
,  // measure 69
0002
0203
0320
2030
,  // measure 70
3011
0000
0000
0000
0011
1000
0100
0000
0011
0000
0000
0000
0011
1000
0100
0000
,  // measure 71
0011
0000
0000
0000
1010
0100
0001
0000
1010
0000
0100
0100
0001
0001
0010
0010
,  // measure 72
1100
0000
0000
0000
0110
0001
1000
0000
0110
0000
0000
0000
0110
0001
1000
0000
,  // measure 73
0110
0000
0000
0000
1001
0100
0010
0000
1001
0000
0000
0000
1001
0000
0000
0000
,  // measure 74
1010
0000
0000
0000
1010
0100
0001
0000
1010
0000
0000
0000
1010
0100
0001
0000
,  // measure 75
1010
0000
0000
0000
0101
0010
1000
0000
0101
0000
0010
0010
1000
1000
0100
0100
,  // measure 76
0011
0000
0000
0000
1100
0000
0000
0010
0101
0000
0000
0000
1100
0000
0000
0010
,  // measure 77
1001
0000
0000
0000
1001
0000
0000
0110
2002
0000
0000
0000
0000
0000
0000
0000
,  // measure 78
3003
0000
0000
0000
;
