#TITLE:Policy in the Sky!;
#SUBTITLE:;
#ARTIST:DJ Sharpnel;
#TITLETRANSLIT:;
#SUBTITLETRANSLIT:;
#ARTISTTRANSLIT:;
#CREDIT:;
#BANNER:policy in the bn.png;
#BACKGROUND:policy in the bg.png;
#LYRICSPATH:;
#CDTITLE:;
#MUSIC:Policy in the Sky.ogg;
#OFFSET:-0.023;
#SAMPLESTART:65.861;
#SAMPLELENGTH:21.941;
#SELECTABLE:YES;
#BPMS:0.000=175.000;
#STOPS:;
#BGCHANGES:;
// cache tags:
#FIRSTBEAT:0.000;
#LASTBEAT:320.000;
#SONGFILENAME:Songs/SHARPNELSTREAMZ v2/Policy in the Sky!/policyinthesky.sm;
#HASMUSIC:1;
#HASBANNER:1;
#MUSICLENGTH:111.438;
// end cache tags

//---------------dance-single - 15- (Nappo)----------------
#NOTES:
     dance-single:
     15- (Nappo):
     Challenge:
     15:
     1.000,1.000,0.036,0.162,1.000,1153.000,4.000,18.000,14.000,0.000:
1000
0000
0001
0000
0100
0000
0010
1000
0010
0100
0010
0100
0001
0000
0000
0000
,
1000
0000
0001
0000
0010
0000
0100
1000
0001
1000
0001
0100
0010
0000
0000
0000
,
1000
0000
0100
0000
0010
0000
0001
1000
0001
0100
0010
1000
0001
0000
0000
0000
,
1000
0000
0100
0000
0010
0000
0001
1000
0001
0100
0010
1000
0001
0000
0001
0000
,
1MM1
0000
0000
0000
1001
0000
1000
0010
0100
0001
1000
0001
1000
0000
0010
0100
,
0001
0000
0010
0000
0100
0000
1000
0001
0010
0001
1000
0010
0100
0000
0010
1000
,
0001
0000
1000
0000
0100
0000
0010
0100
1000
0001
0100
0010
1000
0000
0010
0100
,
0001
0000
1000
0000
0100
0000
0010
0100
1000
0001
1000
0010
0100
0000
0001
0000
,
1000
0001
0010
0100
1000
0001
0010
0100
1000
0001
1000
0001
1000
0010
0100
0001
,
1000
0100
0010
0001
1000
0010
0100
0001
0010
0100
1000
0001
0100
0010
1000
0100
,
0010
0001
1000
0001
1000
0010
0100
0001
1000
0100
0010
0001
1000
0010
0100
0001
,
0010
0100
1000
0001
0100
0010
1000
0100
0010
0001
1000
0010
0100
0001
0010
0100
,
2000
3000
0000
0000
0001
0000
0000
0000
0100
0000
0000
0000
0010
0000
0000
0000
1000
0000
0000
0000
0010
0000
0000
0000
0100
0000
0000
0000
0001
0000
0000
0000
1000
0000
0000
0000
0100
0000
0000
0000
0010
0000
0000
0000
0001
0000
0000
0000
1000
0000
0000
0000
0010
0000
0000
0000
0100
0000
0000
0000
0001
0000
0000
0000
,
0020
0030
0000
0000
0100
0000
0000
0000
1000
0000
0000
0000
0001
0000
0000
0000
0100
0000
0000
0000
0010
0000
0000
0000
1000
0000
0000
0000
0100
0000
0000
0000
0010
0000
0000
0000
0001
0000
0000
0000
1000
0000
0000
0000
0010
0000
0000
0000
0100
0000
0000
0000
0001
0000
0000
0000
0010
0000
0000
0000
0100
0000
0000
0000
,
2000
3000
0000
0000
0010
0000
0000
0000
0100
0000
0000
0000
0010
0000
0000
0000
0100
0000
0000
0000
0010
0000
0000
0000
0100
0000
0000
0000
0010
0000
0000
0000
2000
3000
0000
0000
0001
0000
0000
0000
1000
0000
0000
0000
0001
0000
0000
0000
1000
0000
0000
0000
0001
0000
0000
0000
1000
0000
0000
0000
0001
0000
0000
0000
,
4000
0M00
00M0
0M00
,
3001
0010
0100
1000
0001
0010
0100
1000
0010
0100
0001
1000
0010
0100
0001
1000
,
0010
0100
0001
1000
0100
1000
0001
0100
0001
1000
0010
0100
0001
0010
0100
1000
,
0001
0100
0001
0100
0010
1000
0010
0100
0001
0100
0001
1000
0100
0010
0001
1000
,
0100
0010
0001
1000
0001
0100
0010
1000
0001
0100
0010
1000
0100
0010
0001
1000
,
0010
0100
0001
0010
0100
1000
0001
1000
0001
0100
0001
1000
0100
1000
0001
0100
,
0001
1000
0100
1000
0010
0100
0010
1000
0100
0010
0001
1000
0100
0010
0001
1000
,
0001
1000
0010
0100
0001
0010
0100
1000
0001
0100
0010
1000
0100
0010
0001
1000
,
0010
0100
0001
0010
0100
1000
0001
0100
0010
1000
0100
0010
0001
1000
0010
0100
,
0001
0010
0100
1000
0001
0010
0100
1000
0010
0100
0001
1000
0010
0100
0001
1000
,
0010
0100
0001
1000
0100
1000
0001
0100
0001
1000
0010
0100
0001
0010
0100
1000
,
0001
0100
0001
0100
0010
1000
0010
0100
0001
0100
0001
1000
0100
0010
0001
1000
,
0100
0010
0001
1000
0001
0100
0010
1000
0001
0100
0010
1000
0100
0010
0001
1000
,
0010
0100
0001
0010
0100
1000
0001
1000
0001
0100
0001
1000
0100
1000
0001
0100
,
0001
1000
0100
1000
0010
0100
0010
1000
0100
0010
0001
1000
0100
0010
0001
1000
,
0001
1000
0010
0100
0001
0010
0100
1000
0001
0100
0010
1000
0100
0010
0001
1000
,
0010
0100
0001
0010
0100
1000
0001
0100
0010
1000
0100
0010
0001
1000
0010
0100
,
0001
0010
0100
1000
0001
0010
0100
1000
0010
0100
0001
1000
0010
0100
0001
1000
,
0010
0100
0001
1000
0100
1000
0001
0100
0001
1000
0010
0100
0001
0010
0100
1000
,
0001
0100
0001
0100
0010
1000
0010
0100
0001
0100
0001
1000
0100
0010
0001
1000
,
0100
0010
0001
1000
0001
0100
0010
1000
0001
0100
0010
1000
0100
0010
0001
1000
,
0010
0100
0001
0010
0100
1000
0001
1000
0001
0100
0001
1000
0100
1000
0001
0100
,
0001
1000
0100
1000
0010
0100
0010
1000
0100
0010
0001
1000
0100
0010
0001
1000
,
0001
1000
0010
0100
0001
0010
0100
1000
0001
0100
0010
1000
0100
0010
0001
1000
,
0010
0100
0001
0010
0100
1000
0001
0100
0010
1000
0100
0010
0001
1000
0010
0100
,
0001
0010
0100
1000
0001
0010
0100
1000
0010
0100
0001
1000
0010
0100
0001
1000
,
0010
0100
0001
1000
0100
1000
0001
0100
0001
1000
0010
0100
0001
0010
0100
1000
,
0001
0100
0001
0100
0010
1000
0010
0100
0001
0100
0001
1000
0100
0010
0001
1000
,
0100
0010
0001
1000
0001
0100
0010
1000
0001
0100
0010
1000
0100
0010
0001
1000
,
0010
0100
0001
0010
0100
1000
0001
1000
0001
0100
0001
1000
0100
1000
0001
0100
,
0001
1000
0100
1000
0010
0100
0010
1000
0100
0010
0001
1000
0100
0010
0001
1000
,
0004
4000
0000
0000
0000
0000
0000
0000
0000
0000
0000
0000
0000
0000
0000
0000
0000
0000
0000
0000
0000
0000
0000
0000
,
3MM3
0000
0000
0000
,
0002
0003
0000
0000
0100
0000
0000
0000
0010
0000
0000
0000
1000
0000
0000
0000
0001
0000
0000
0000
0100
0000
0000
0000
0010
0000
0000
0000
1000
0000
0000
0000
0001
0000
0000
0000
0010
0000
0000
0000
0001
0000
0000
0000
1000
0000
0000
0000
0010
0000
0000
0000
0100
0000
0000
0000
0001
0000
0000
0000
0010
0000
0000
0000
,
0001
1000
0010
0100
0001
0010
0100
1000
0001
1000
0001
0100
0010
1000
0010
0100
,
0001
1000
0100
0010
0001
1000
0100
0010
0001
1000
0010
0100
0001
0010
0100
1000
,
0001
0100
0010
1000
0100
0010
0001
1000
0010
0100
0001
0010
0100
1000
0100
0010
,
0002
0003
0000
0000
0100
0000
0000
0000
0010
0000
0000
0000
1000
0000
0000
0000
0100
0000
0000
0000
0010
0000
0000
0000
0001
0000
0000
0000
1000
0000
0000
0000
0010
0000
0000
0000
1000
0000
0000
0000
0001
0000
0000
0000
0010
0000
0000
0000
0001
0000
0000
0000
1000
0000
0000
0000
0100
0000
0000
0000
0010
0000
0000
0000
,
0001
1000
0100
1000
0001
0100
0001
1000
0100
0010
0001
1000
0010
1000
0001
0010
,
0001
0010
0100
1000
0001
0010
0100
1000
0001
0100
0001
0100
0010
1000
0010
1000
,
0002
2003
3002
2003
3002
2003
3002
2003
,
3002
0003
0000
0000
0010
0000
0000
0000
0100
0000
0000
0000
1000
0000
0000
0000
0001
0000
0000
0000
0010
0000
0000
0000
0100
0000
0000
0000
1000
0000
0000
0000
0001
0000
0000
0000
0100
0000
0000
0000
0001
0000
0000
0000
1000
0000
0000
0000
0100
0000
0000
0000
0010
0000
0000
0000
0001
0000
0000
0000
0100
0000
0000
0000
,
0001
1000
0100
0010
0001
1000
0010
0100
0001
0010
0100
1000
0001
0100
0010
1000
,
0100
0010
0001
1000
0010
0100
0001
0010
0100
1000
0001
0100
0001
1000
0100
1000
,
0010
0100
0010
1000
0001
1000
0010
0100
0001
1000
0001
0010
0100
1000
0100
0010
,
0002
0003
0000
0000
0100
0000
0000
0000
0010
0000
0000
0000
1000
0000
0000
0000
0100
0000
0000
0000
0010
0000
0000
0000
0001
0000
0000
0000
1000
0000
0000
0000
0010
0000
0000
0000
1000
0000
0000
0000
0001
0000
0000
0000
0010
0000
0000
0000
0001
0000
0000
0000
1000
0000
0000
0000
0100
0000
0000
0000
0010
0000
0000
0000
,
0001
1000
0010
1000
0001
0010
0001
1000
0100
0010
0001
1000
0010
1000
0001
0010
,
0001
1000
0010
0100
0001
1000
0001
0100
0001
0100
0010
1000
0001
1000
0010
0100
,
0002
00M0
0M00
00M0
0M00
00M0
0M00
00M3
,
1000
0100
0010
0001
1000
0100
0010
0001
0100
0010
1000
0001
0100
0010
1000
0001
,
0100
0010
1000
0001
0010
0001
1000
0010
1000
0001
0100
0010
1000
0100
0010
0001
,
1000
0010
1000
0010
0100
0001
0100
0010
1000
0010
1000
0001
0010
0100
1000
0001
,
0010
0100
1000
0001
1000
0010
0100
0001
1000
0010
0100
0001
0010
0100
1000
0001
,
0100
0010
1000
0100
0010
0001
1000
0001
1000
0010
1000
0001
0010
0001
1000
0010
,
1000
0001
0010
0001
0100
0010
0100
0001
0010
0100
1000
0001
0010
0100
1000
0001
,
1000
0001
0100
0010
1000
0100
0010
0001
1000
0010
0100
0001
0010
0100
1000
0001
,
0100
0010
1000
0100
0010
0001
1000
0010
0100
0001
0010
0100
1000
0001
0100
0010
,
1000
0100
0010
0001
1000
0100
0010
0001
0100
0010
1000
0001
0100
0010
1000
0001
,
0100
0010
1000
0001
0010
0001
1000
0010
1000
0001
0100
0010
1000
0100
0010
0001
,
1000
0010
1000
0010
0100
0001
0100
0010
1000
0010
1000
0001
0010
0100
1000
0001
,
0010
0100
1000
0001
1000
0010
0100
0001
1000
0010
0100
0001
0010
0100
1000
0001
,
0100
0010
1000
0100
0010
0001
1000
0001
1000
0010
1000
0001
0010
0001
1000
0010
,
1000
0001
0010
0001
0100
0010
0100
0001
0010
0100
1000
0001
0010
0100
1000
0001
,
1000
0010
1000
0001
0100
0001
1000
0010
0100
0001
1000
0001
0010
0100
1000
0001
,
0200
0300
0000
0000
;

//---------------dance-single - 14+ (HPF!)----------------
#NOTES:
     dance-single:
     14+ (HPF!):
     Hard:
     14:
     1.000,1.000,0.117,0.260,1.000,1109.000,13.000,29.000,6.000,0.000:
0001
0000
1000
0000
1100
0000
0100
0010
0001
1000
0100
1000
0001
0000
0010
0100
,
1000
0000
0001
0000
0101
0000
0100
0010
1000
0010
0100
0010
1000
0000
0010
1000
,
0100
0000
0010
0000
0011
0000
0001
1000
0100
0010
0100
1000
0001
0000
1000
0010
,
0100
0000
0001
0000
1001
0000
1000
0100
0010
0100
1000
0100
0010
0000
0001
0000
,
1001
0000
1000
0000
0010
0000
0100
0001
1000
0001
0100
0001
1000
0000
0001
0010
,
0100
0000
1000
0000
1001
0000
0001
1000
0100
0010
0100
1000
0001
0000
1000
0001
,
0100
0000
0010
0000
1010
0000
1000
0010
0100
0001
1000
0001
0100
0000
0010
0000
,
1000
0000
0001
0000
1001
0000
1000
0001
0010
0001
1000
0001
0010
0000
0100
0000
,
1000
0100
1000
0001
0010
0100
1000
0001
0100
0001
1000
0010
0100
0010
1000
0100
,
0010
0100
1000
0001
0100
0001
0010
0001
1000
0100
1000
0010
0100
0010
1000
0001
,
0100
0001
1000
0100
0010
0100
1000
0001
0010
0100
1000
0001
0100
0001
1000
0010
,
0100
0010
1000
0001
0100
0001
1000
0100
0010
0001
0010
0100
1000
0000
1000
0000
,
0001
0100
0010
1000
0001
0100
0010
1000
0010
0100
0001
1000
0010
1000
0001
0100
,
0001
1000
0100
0010
0100
1000
0001
0010
0100
0010
0001
1000
0100
0010
0100
1000
,
0001
0100
0010
0100
0010
1000
0001
0100
0001
1000
0100
0010
0100
1000
0001
0010
,
0200
0000
0000
0000
0000
0000
0000
0000
0000
0000
0000
1300
0001
0000
0001
0000
,
1000
0100
0010
0001
1000
0100
0010
0001
1000
0010
0100
0010
1000
0001
0010
0100
,
1000
0001
0010
0100
1000
0001
0100
0001
1000
0001
0100
0001
1000
0001
0100
0001
,
1000
0010
0100
0001
1000
0010
0100
0001
1000
0100
0010
0100
1000
0001
0100
0010
,
1000
0001
0100
0010
1000
0001
0100
0010
1000
0010
0100
0010
1000
0010
0100
0010
,
1000
0001
0010
0100
1000
0001
0010
0100
1000
0010
0100
0010
1000
0001
0010
0100
,
1000
0001
0010
0100
1000
0001
0010
0100
1000
0100
0010
0100
1000
0100
0010
0100
,
1000
0010
0100
0001
1000
0010
0100
0001
1000
0100
0010
0100
1000
0010
0100
0001
,
1000
0010
0100
0001
1000
0010
0100
0001
1000
0001
0100
0001
1000
0000
1000
0000
,
0001
0010
0100
1000
0001
0010
0100
1000
0001
0100
0010
0100
0001
0010
0100
1000
,
0001
0010
0100
1000
0001
0010
0100
1000
0001
1000
0100
1000
0001
1000
0100
1000
,
0001
0100
0010
1000
0001
0100
0010
1000
0001
0010
0100
0010
0001
0100
0010
1000
,
0001
0100
0010
1000
0001
0010
0100
1000
0001
1000
0100
1000
0001
1000
0100
1000
,
0001
0010
0100
1000
0001
0010
0100
1000
0001
0100
0010
0100
0001
0010
0100
1000
,
0001
0010
0100
1000
0001
0100
0010
0100
0001
0100
0010
0100
0001
0100
0010
0100
,
0001
1000
0010
0100
0001
1000
0010
0100
0001
0010
0100
0010
0001
0100
0010
1000
,
0001
0001
2000
0000
3002
0000
1003
1000
,
0001
0100
0010
1000
0001
0100
0010
1000
0001
0010
0100
0010
0001
1000
0010
0100
,
0001
1000
0010
0100
0001
1000
0100
1000
0001
1000
0100
1000
0001
1000
0100
1000
,
0001
0010
0100
1000
0001
0010
0100
1000
0001
0100
0010
0100
0001
0010
0100
1000
,
0001
0010
0100
1000
0001
0100
0010
0100
0001
0100
0010
0100
0001
0100
0010
0100
,
0001
1000
0010
0100
0001
1000
0010
0100
0001
0010
0100
0010
0001
1000
0010
0100
,
0001
1000
0010
0100
0001
1000
0100
1000
0001
1000
0100
1000
0001
1000
0100
1000
,
0001
0010
0100
1000
0001
0010
0100
1000
0001
0100
0010
0100
0001
0010
0100
1000
,
0001
0010
0100
1000
0001
0010
0100
0010
0001
0010
0100
0010
0001
0000
0001
0000
,
1000
0100
0010
0001
1000
0100
0010
0001
1000
0010
0100
0010
1000
0001
0010
0100
,
1000
0001
0010
0100
1000
0001
0100
0010
1000
0010
0100
0010
1000
0010
0100
0010
,
1000
0001
0100
0010
1000
0001
0100
0010
1000
0100
0010
0100
1000
0001
0100
0010
,
1000
0001
0100
0010
1000
0001
0010
0100
1000
0100
0010
0100
1000
0100
0010
0100
,
1000
0001
0010
0100
1000
0001
0010
0100
1000
0010
0100
0010
1000
0100
0010
0100
,
1000
0001
0010
0100
1000
0001
0100
0001
1000
0001
0100
0001
1000
0001
0100
0001
,
1000
0010
0100
0001
1000
0010
0100
0001
1000
0100
0010
0100
1000
0010
0100
0001
,
2000
0000
0001
0000
0002
0000
0000
0003
0002
0000
0000
0003
0002
0000
0000
3003
,
1001
0000
1000
0010
1000
0000
0001
1000
0001
0000
1000
0100
1000
0000
0001
0010
,
0001
0000
1000
0010
1000
0000
0001
1000
0001
0000
0100
0001
0100
0000
0010
1000
,
0010
0000
1000
0001
1000
0000
0001
0010
0001
0000
1000
0100
1000
0000
0001
0100
,
0001
0000
1000
0100
1000
0000
0001
0010
0001
0000
1000
0010
1000
0000
1000
0000
,
1M1M
0000
0000
0000
0000
0000
0000
0000
0010
0000
0000
0000
0100
0000
0000
0000
0001
0000
0000
0000
0000
0000
0000
0000
1000
0000
0000
0000
0001
0000
0000
0000
0010
0000
0000
0000
0000
0000
0000
0000
0100
0000
0000
0000
1000
0000
0000
0000
0002
0003
0000
0000
0000
0000
0000
0000
0002
0003
0000
0000
0000
0000
0000
0000
,
0002
0003
0000
0000
0000
0000
0000
0000
1000
0000
0000
0000
0010
0000
0000
0000
0100
0000
0000
0000
0000
0000
0000
0000
0001
0000
0000
0000
1000
0000
0000
0000
0100
0000
0000
0000
0000
0000
0000
0000
0010
0000
0000
0000
0001
0000
0000
0000
2000
3000
0000
0000
0000
0000
0000
0000
2000
3000
0000
0000
0000
0000
0000
0000
,
2000
3000
0000
0000
0000
0000
0000
0000
0010
0000
0000
0000
0100
0000
0000
0000
0001
0000
0000
0000
0000
0000
0000
0000
1000
0000
0000
0000
0001
0000
0000
0000
0010
0000
0000
0000
0000
0000
0000
0000
0100
0000
0000
0000
1000
0000
0000
0000
0001
0000
0000
0000
0000
0000
0000
0000
0100
0000
0000
0000
0010
0000
0000
0000
,
2000
0000
0000
0000
3020
0000
0000
0000
2030
0000
0000
0000
3002
0000
0000
0003
,
MM11
0000
0010
0001
0010
0000
0001
1000
0001
0000
1000
0010
1000
0000
0001
0100
,
0001
0000
1000
0001
1000
0000
0001
0010
0001
0000
1000
0100
1000
0000
0001
0100
,
0001
0000
1000
0010
1000
0000
0001
1000
0001
0000
1000
0100
1000
0000
0001
1000
,
0001
0000
0010
0100
0010
0000
0100
1000
0100
0000
1000
0001
1000
0000
1000
0000
,
11MM
0000
0000
0000
0000
0000
0000
0000
0100
0000
0000
0000
1000
0000
0000
0000
0001
0000
0000
0000
0000
0000
0000
0000
0100
0000
0000
0000
0001
0000
0000
0000
1000
0000
0000
0000
0000
0000
0000
0000
0001
0000
0000
0000
0010
0000
0000
0000
0200
0300
0000
0000
0000
0000
0000
0000
0200
0300
0000
0000
0000
0000
0000
0000
,
0200
0300
0000
0000
0000
0000
0000
0000
0010
0000
0000
0000
0001
0000
0000
0000
1000
0000
0000
0000
0000
0000
0000
0000
0010
0000
0000
0000
0100
0000
0000
0000
0001
0000
0000
0000
0000
0000
0000
0000
1000
0000
0000
0000
0100
0000
0000
0000
0020
0030
0000
0000
0000
0000
0000
0000
0020
0030
0000
0000
0000
0000
0000
0000
,
0020
0030
0000
0000
0001
0000
0000
0000
1000
0000
0000
0000
0100
0000
0000
0000
1000
0000
0000
0000
0001
0000
0000
0000
0010
0000
0000
0000
0100
0000
0000
0000
1000
0000
0000
0000
0001
0000
0000
0000
0100
0000
0000
0000
0001
0000
0000
0000
1000
0000
0000
0000
0010
0000
0000
0000
0100
0000
0000
0000
0010
0000
0000
0000
,
4000
0004
0000
0000
0000
0000
0000
0000
0000
0000
0000
0000
0000
0000
0000
3000
,
0013
0100
0010
0001
1000
0100
0010
0001
1000
0010
0100
0010
1000
0100
0010
0001
,
1000
0100
0010
0001
1000
0010
0100
0001
1000
0001
0100
0001
1000
0001
0100
0001
,
1000
0010
0100
0001
1000
0010
0100
0001
1000
0100
0010
0100
1000
0010
0100
0001
,
1000
0010
0100
0001
1000
0010
0100
0010
1000
0010
0100
0010
1000
0010
0100
0010
,
1000
0001
0010
0100
1000
0001
0010
0100
1000
0010
0100
0010
1000
0001
0010
0100
,
1000
0001
0010
0100
1000
0001
0010
0100
1000
0100
0010
0100
1000
0100
0010
0100
,
1000
0001
0100
0010
1000
0001
0100
0010
1000
0100
0010
0100
1000
0001
0100
0010
,
1000
0001
0100
0010
1000
0001
0100
0010
1000
0010
0100
0010
1000
0000
1000
0000
,
0001
0010
0100
1000
0001
0010
0100
1000
0001
0100
0010
0100
0001
0010
0100
1000
,
0001
0010
0100
1000
0001
0100
0010
1000
0001
1000
0010
1000
0001
1000
0010
1000
,
0001
0100
0010
1000
0001
0100
0010
1000
0001
0010
0100
0010
0001
1000
0010
0100
,
0001
1000
0010
0100
0001
1000
0100
1000
0001
1000
0100
1000
0001
1000
0100
1000
,
0001
0010
0100
1000
0001
0010
0100
1000
0001
0100
0010
0100
0001
0010
0100
1000
,
0001
0010
0100
1000
0001
0100
0010
0100
0001
0100
0010
0100
0001
0100
0010
0100
,
0001
1000
0010
0100
0001
1000
0010
0100
0001
0010
0100
0010
0001
1000
0010
0100
,
0001
0000
2000
3000
0000
0000
0200
0300
2000
3000
0020
0030
0200
0300
0002
0003
;

//---------------dance-single - 12 (HPF!)----------------
#NOTES:
     dance-single:
     12 (HPF!):
     Medium:
     12:
     1.000,1.000,0.197,0.341,1.000,827.000,22.000,38.000,28.000,0.000:
1000
0000
0001
0000
0011
0000
0010
0001
0010
0001
0010
0001
1000
0000
0010
0000
,
0100
0000
0001
0000
0101
0000
0100
0001
0100
0001
0100
0001
1000
0000
0100
0000
,
0010
0000
0001
0000
1001
0000
1000
0001
1000
0001
1000
0001
0100
0000
0001
0000
,
0100
0000
0010
0000
1010
0000
1000
0010
1000
0010
1000
0010
0100
0000
0100
0000
,
0101
0000
0001
0000
1001
0000
1000
0010
1000
0010
1000
0010
0100
0000
0010
0000
,
1000
0000
0100
0000
0110
0000
0010
0100
0010
0100
0010
0100
1000
0000
0001
0000
,
0100
0000
0001
0000
1001
0000
1000
0100
1000
0100
1000
0100
0010
0000
0001
0000
,
1000
0000
0001
0000
0101
0000
0000
0100
0001
0100
0001
0100
0010
0000
0000
00M0
,
1000
0100
1000
0001
0010
0100
1000
0001
0010
0001
1000
0100
1000
0001
0010
0100
,
1000
0001
0100
0001
1000
0010
1000
0001
0100
0001
1000
0010
0100
0001
1000
0001
,
1000
0100
0010
0001
0010
0100
1000
0001
0010
0001
1000
0100
0010
0001
0010
0100
,
1000
0001
0100
0001
1000
0010
0100
0001
1000
0010
0100
0010
1000
0000
1000
0000
,
0001
0100
0010
1000
0001
0100
0010
1000
0010
0100
0001
1000
0010
1000
0001
0100
,
0001
1000
0100
0010
0100
1000
0001
0010
0100
0010
0001
1000
0100
0010
0100
1000
,
0001
0100
0010
0100
0010
1000
0001
0100
0001
1000
0100
0010
0100
1000
0001
0010
,
0200
0000
0000
0000
0000
0000
0000
0000
0000
0000
0000
1300
0001
0000
0001
0000
,
1002
0000
1003
0100
0010
0100
1000
0001
,
000M
0001
0000
1000
0010
0100
0001
0100
,
0010
00M0
0010
0100
0001
1000
0010
0100
,
0M00
0100
0000
0010
0100
0001
1000
1000
,
2100
0000
3100
0010
0001
0010
0000
0001
,
000M
0001
0000
1000
0010
0100
0001
1000
,
0100
0M00
0100
1000
0001
0010
0100
1000
,
M000
1000
0000
0001
0100
0010
0100
0100
,
0210
0000
0310
1000
0001
0010
0100
0010
,
00M0
0010
0000
0001
0010
0100
0010
0001
,
1000
M000
1000
0010
0100
0001
0100
0010
,
00M0
0010
0000
0100
0001
1000
0001
0001
,
0012
0000
0013
0100
0010
0001
0000
0100
,
0M00
0100
0000
0010
0100
0001
1000
0100
,
0010
00M0
0010
0001
1000
0010
0100
0001
,
1000
1000
0002
0000
2003
0000
3001
0001
,
0102
0000
0103
0010
0100
0001
1000
0100
,
0M00
0100
0000
0010
0001
0100
0010
1000
,
0001
000M
0001
0010
0100
0010
0001
1000
,
M000
1000
0000
0010
0100
0001
0100
0100
,
0201
0000
0301
0010
0001
1000
0000
0100
,
0M00
0100
0000
0010
0100
1000
0001
0010
,
0100
0M00
0100
0010
0001
1000
0010
1000
,
M000
1000
0000
0010
1000
0001
0100
0100
,
0210
0000
0310
1000
0001
0100
0001
1000
,
M000
1000
0000
0100
1000
0001
0010
0100
,
0010
00M0
0010
0100
1000
0001
0100
0001
,
000M
0001
0000
1000
0100
1000
0001
0001
,
0102
0000
0103
0010
1000
0100
0000
1000
,
M000
1000
0000
0100
1000
0001
0100
0001
,
1000
0100
1000
0001
0010
0100
1000
0001
0010
0001
1000
0100
0010
0001
0010
0100
,
2000
0000
0001
0000
0002
0000
0000
0003
0002
0000
0000
0003
0002
0000
0000
3003
,
1001
0000
1000
0010
1000
0000
0001
1000
0001
0000
1000
0100
1000
0000
0001
0010
,
0001
0000
1000
0010
1000
0000
0001
1000
0001
0000
0100
0001
0100
0000
0010
1000
,
0010
0000
1000
0001
1000
0000
0001
0010
0001
0000
1000
0100
1000
0000
0001
0100
,
0001
0000
1000
0100
1000
0000
0001
0010
0001
0000
1000
0010
1000
0000
1000
0000
,
1M1M
0000
0000
0000
0000
0000
0000
0000
0010
0000
0000
0000
0100
0000
0000
0000
0001
0000
0000
0000
0000
0000
0000
0000
1000
0000
0000
0000
0001
0000
0000
0000
0010
0000
0000
0000
0000
0000
0000
0000
0100
0000
0000
0000
1000
0000
0000
0000
0002
0003
0000
0000
0000
0000
0000
0000
0002
0003
0000
0000
0000
0000
0000
0000
,
0002
0003
0000
0000
0000
0000
0000
0000
1000
0000
0000
0000
0010
0000
0000
0000
0100
0000
0000
0000
0000
0000
0000
0000
0001
0000
0000
0000
1000
0000
0000
0000
0100
0000
0000
0000
0000
0000
0000
0000
0010
0000
0000
0000
0001
0000
0000
0000
2000
3000
0000
0000
0000
0000
0000
0000
2000
3000
0000
0000
0000
0000
0000
0000
,
2000
3000
0000
0000
0000
0000
0000
0000
0010
0000
0000
0000
0100
0000
0000
0000
0001
0000
0000
0000
0000
0000
0000
0000
1000
0000
0000
0000
0001
0000
0000
0000
0010
0000
0000
0000
0000
0000
0000
0000
0100
0000
0000
0000
1000
0000
0000
0000
0001
0000
0000
0000
0000
0000
0000
0000
0100
0000
0000
0000
0010
0000
0000
0000
,
2000
0000
0000
0000
3020
0000
0000
0000
2030
0000
0000
0000
3002
0000
0000
0003
,
MM11
0000
0010
0001
0010
0000
0001
1000
0001
0000
1000
0010
1000
0000
0001
0100
,
0001
0000
1000
0001
1000
0000
0001
0010
0001
0000
1000
0100
1000
0000
0001
0100
,
0001
0000
1000
0010
1000
0000
0001
1000
0001
0000
1000
0100
1000
0000
0001
1000
,
0001
0000
0010
0100
0010
0000
0100
1000
0100
0000
1000
0001
1000
0000
1000
0000
,
11MM
0000
0000
0000
0000
0000
0000
0000
0100
0000
0000
0000
1000
0000
0000
0000
0001
0000
0000
0000
0000
0000
0000
0000
0100
0000
0000
0000
0001
0000
0000
0000
1000
0000
0000
0000
0000
0000
0000
0000
0001
0000
0000
0000
0010
0000
0000
0000
0200
0300
0000
0000
0000
0000
0000
0000
0200
0300
0000
0000
0000
0000
0000
0000
,
0200
0300
0000
0000
0000
0000
0000
0000
0010
0000
0000
0000
0001
0000
0000
0000
1000
0000
0000
0000
0000
0000
0000
0000
0010
0000
0000
0000
0100
0000
0000
0000
0001
0000
0000
0000
0000
0000
0000
0000
1000
0000
0000
0000
0100
0000
0000
0000
0020
0030
0000
0000
0000
0000
0000
0000
0020
0030
0000
0000
0000
0000
0000
0000
,
0020
0030
0000
0000
0001
0000
0000
0000
1000
0000
0000
0000
0100
0000
0000
0000
1000
0000
0000
0000
0001
0000
0000
0000
0010
0000
0000
0000
0100
0000
0000
0000
1000
0000
0000
0000
0001
0000
0000
0000
0100
0000
0000
0000
0001
0000
0000
0000
1000
0000
0000
0000
0010
0000
0000
0000
0100
0000
0000
0000
0010
0000
0000
0000
,
4000
0004
0000
0000
0000
0000
0000
0000
0000
0000
0000
0000
0000
0000
0000
3000
,
1003
0100
0010
0001
1000
0100
0010
0001
1000
0010
0100
0010
1000
0100
0010
0001
,
1000
0100
0010
0001
1000
0010
0100
0001
1000
0001
0100
0001
1000
0001
0100
0001
,
1000
0010
0100
0001
1000
0010
0100
0001
1000
0100
0010
0100
1000
0010
0100
0001
,
1000
0010
0100
0001
1000
0010
0100
0010
1000
0010
0100
0010
1000
0010
0100
0010
,
1000
0001
0010
0100
1000
0001
0010
0100
1000
0010
0100
0010
1000
0001
0010
0100
,
1000
0001
0010
0100
1000
0001
0010
0100
1000
0100
0010
0100
1000
0100
0010
0100
,
1000
0001
0100
0010
1000
0001
0100
0010
1000
0100
0010
0100
1000
0001
0100
0010
,
1000
0001
0100
0010
1000
0001
0100
0010
1000
0010
0100
0010
1000
0000
1000
0000
,
0001
0010
0100
1000
0001
0010
0100
1000
0001
0100
0010
0100
0001
0010
0100
1000
,
0001
0010
0100
1000
0001
0100
0010
1000
0001
1000
0010
1000
0001
1000
0010
1000
,
0001
0100
0010
1000
0001
0100
0010
1000
0001
0010
0100
0010
0001
1000
0010
0100
,
0001
1000
0010
0100
0001
1000
0100
1000
0001
1000
0100
1000
0001
1000
0100
1000
,
0001
0010
0100
1000
0001
0010
0100
1000
0001
0100
0010
0100
0001
0010
0100
1000
,
0001
0010
0100
1000
0001
0100
0010
0100
0001
0100
0010
0100
0001
0100
0010
0100
,
0001
1000
0010
0100
0001
1000
0010
0100
0001
0010
0100
0010
0001
1000
0010
0100
,
0002
0000
2000
0000
3000
0000
0200
0300
2000
3000
2000
3000
0020
0030
0020
0030
,
0003
0000
0000
0000
;

//---------------dance-single - 11 (HPF!)----------------
#NOTES:
     dance-single:
     11 (HPF!):
     Easy:
     11:
     0.976,1.000,0.224,0.368,0.678,694.000,25.000,41.000,38.000,0.000:
1000
0000
0001
0000
0011
0000
0010
0001
0010
0001
0010
0001
1000
0000
0010
0000
,
0100
0000
0001
0000
0101
0000
0100
0001
0100
0001
0100
0001
1000
0000
0100
0000
,
0010
0000
0001
0000
1001
0000
1000
0001
1000
0001
1000
0001
0100
0000
0001
0000
,
0100
0000
0010
0000
1010
0000
1000
0010
1000
0010
1000
0010
0100
0000
0100
0000
,
0101
0000
0001
0000
1001
0000
1000
0010
1000
0010
1000
0010
0100
0000
0010
0000
,
1000
0000
0100
0000
0110
0000
0010
0100
0010
0100
0010
0100
1000
0000
0001
0000
,
0100
0000
0001
0000
1001
0000
1000
0100
1000
0100
1000
0100
0010
0000
0001
0000
,
1000
0000
0001
0000
0101
0000
0000
0100
0001
0100
0001
0100
0010
0000
0000
00M0
,
1000
0100
1000
0001
0010
0100
1000
0001
0010
0001
1000
0100
1000
0001
0010
0100
,
1000
0001
0100
0001
1000
0010
1000
0001
0100
0001
1000
0010
0100
0001
1000
0001
,
1000
0100
0010
0001
0010
0100
1000
0001
0010
0001
1000
0100
0010
0001
0010
0100
,
1000
0001
0100
0001
1000
0010
0100
0001
1000
0010
0100
0010
1000
0000
1000
0000
,
0001
0100
0010
1000
0001
0100
0010
1000
0010
0100
0001
1000
0010
1000
0001
0100
,
0001
1000
0100
0010
0100
1000
0001
0010
0100
0010
0001
1000
0100
0010
0100
1000
,
0001
0100
0010
0100
0010
1000
0001
0100
0001
1000
0100
0010
0100
1000
0001
0010
,
0200
0000
0000
0000
0000
0000
0000
0000
0000
0000
0000
1300
0001
0000
0001
0000
,
1002
0000
1003
0100
0010
0100
1000
0001
,
000M
0001
0000
1000
0010
0100
0001
0100
,
0010
00M0
0010
0100
0001
1000
0010
0100
,
0M00
0100
0000
0010
0100
0001
1000
1000
,
2100
0000
3100
0010
0001
0010
0000
0001
,
000M
0001
0000
1000
0010
0100
0001
1000
,
0100
0M00
0100
1000
0001
0010
0100
1000
,
M000
1000
0000
0001
0100
0010
0100
0100
,
0210
0000
0310
1000
0001
0010
0100
0010
,
00M0
0010
0000
0001
0010
0100
0010
0001
,
1000
M000
1000
0010
0100
0001
0100
0010
,
00M0
0010
0000
0100
0001
1000
0001
0001
,
0012
0000
0013
0100
0010
0001
0000
0100
,
0M00
0100
0000
0010
0100
0001
1000
0100
,
0010
00M0
0010
0001
1000
0010
0100
0001
,
1000
1000
0002
0000
2003
0000
3001
0001
,
0102
0000
0103
0010
0100
0001
1000
0100
,
0M00
0100
0000
0010
0001
0100
0010
1000
,
0001
000M
0001
0010
0100
0010
0001
1000
,
M000
1000
0000
0010
0100
0001
0100
0100
,
0201
0000
0301
0010
0001
1000
0000
0100
,
0M00
0100
0000
0010
0100
1000
0001
0010
,
0100
0M00
0100
0010
0001
1000
0010
1000
,
M000
1000
0000
0010
1000
0001
0100
0100
,
0210
0000
0310
1000
0001
0100
0001
1000
,
M000
1000
0000
0100
1000
0001
0010
0100
,
0010
00M0
0010
0100
1000
0001
0100
0001
,
000M
0001
0000
1000
0100
1000
0001
0001
,
0102
0000
0103
0010
1000
0100
0000
1000
,
M000
1000
0000
0100
1000
0001
0100
0001
,
1000
0100
1000
0001
0010
0100
1000
0001
0010
0001
1000
0100
0010
0001
0010
0100
,
2000
0000
0001
0000
0002
0000
0000
0003
0002
0000
0000
0003
0002
0000
0000
3003
,
1001
0000
1000
0010
1000
0000
0001
1000
0001
0000
1000
0100
1000
0000
0001
0010
,
0001
0000
1000
0010
1000
0000
0001
1000
0001
0000
0100
0001
0100
0000
0010
1000
,
0010
0000
1000
0001
1000
0000
0001
0010
0001
0000
1000
0100
1000
0000
0001
0100
,
0001
0000
1000
0100
1000
0000
0001
0010
0001
0000
1000
0010
1000
0000
1000
0000
,
1M1M
0000
0000
0000
0000
0000
0000
0000
0010
0000
0000
0000
0100
0000
0000
0000
0001
0000
0000
0000
0000
0000
0000
0000
1000
0000
0000
0000
0001
0000
0000
0000
0010
0000
0000
0000
0000
0000
0000
0000
0100
0000
0000
0000
1000
0000
0000
0000
0002
0003
0000
0000
0000
0000
0000
0000
0002
0003
0000
0000
0000
0000
0000
0000
,
0002
0003
0000
0000
0000
0000
0000
0000
1000
0000
0000
0000
0010
0000
0000
0000
0100
0000
0000
0000
0000
0000
0000
0000
0001
0000
0000
0000
1000
0000
0000
0000
0100
0000
0000
0000
0000
0000
0000
0000
0010
0000
0000
0000
0001
0000
0000
0000
2000
3000
0000
0000
0000
0000
0000
0000
2000
3000
0000
0000
0000
0000
0000
0000
,
2000
3000
0000
0000
0000
0000
0000
0000
0010
0000
0000
0000
0100
0000
0000
0000
0001
0000
0000
0000
0000
0000
0000
0000
1000
0000
0000
0000
0001
0000
0000
0000
0010
0000
0000
0000
0000
0000
0000
0000
0100
0000
0000
0000
1000
0000
0000
0000
0001
0000
0000
0000
0000
0000
0000
0000
0100
0000
0000
0000
0010
0000
0000
0000
,
2000
0000
0000
0000
3020
0000
0000
0000
2030
0000
0000
0000
3002
0000
0000
0003
,
MM11
0000
0010
0001
0010
0000
0001
1000
0001
0000
1000
0010
1000
0000
0001
0100
,
0001
0000
1000
0001
1000
0000
0001
0010
0001
0000
1000
0100
1000
0000
0001
0100
,
0001
0000
1000
0010
1000
0000
0001
1000
0001
0000
1000
0100
1000
0000
0001
1000
,
0001
0000
0010
0100
0010
0000
0100
1000
0100
0000
1000
0001
1000
0000
1000
0000
,
11MM
0000
0000
0000
0000
0000
0000
0000
0100
0000
0000
0000
1000
0000
0000
0000
0001
0000
0000
0000
0000
0000
0000
0000
0100
0000
0000
0000
0001
0000
0000
0000
1000
0000
0000
0000
0000
0000
0000
0000
0001
0000
0000
0000
0010
0000
0000
0000
0200
0300
0000
0000
0000
0000
0000
0000
0200
0300
0000
0000
0000
0000
0000
0000
,
0200
0300
0000
0000
0000
0000
0000
0000
0010
0000
0000
0000
0001
0000
0000
0000
1000
0000
0000
0000
0000
0000
0000
0000
0010
0000
0000
0000
0100
0000
0000
0000
0001
0000
0000
0000
0000
0000
0000
0000
1000
0000
0000
0000
0100
0000
0000
0000
0020
0030
0000
0000
0000
0000
0000
0000
0020
0030
0000
0000
0000
0000
0000
0000
,
0020
0030
0000
0000
0001
0000
0000
0000
1000
0000
0000
0000
0100
0000
0000
0000
1000
0000
0000
0000
0001
0000
0000
0000
0010
0000
0000
0000
0100
0000
0000
0000
1000
0000
0000
0000
0001
0000
0000
0000
0100
0000
0000
0000
0001
0000
0000
0000
1000
0000
0000
0000
0010
0000
0000
0000
0100
0000
0000
0000
0010
0000
0000
0000
,
4000
0004
0000
0000
0000
0000
0000
0000
0000
0000
0000
0000
0000
0000
0000
3000
,
1003
0000
0100
1000
0010
0100
0001
1000
,
M000
1000
0000
0100
1000
0001
0100
0010
,
0100
0M00
0100
0010
1000
0001
0010
0001
,
000M
0001
0000
1000
0100
1000
0010
0010
,
1020
0000
1030
0100
1000
0001
0000
0100
,
0M00
0100
0000
0010
1000
0100
1000
0001
,
0010
00M0
0010
0100
1000
0001
0100
0010
,
00M0
0010
0000
1000
0100
1000
0001
0001
,
1002
0000
1003
0100
0010
0100
1000
0010
,
00M0
0010
0000
0100
0001
1000
0100
1000
,
0001
000M
0001
1000
0100
1000
0010
0100
,
0M00
0100
0000
0010
1000
0100
1000
1000
,
2010
0000
3010
0100
0001
1000
0000
0100
,
0M00
0100
0000
1000
0010
0100
0001
1000
,
0001
0100
0001
1000
0010
0100
0010
1000
0001
0100
0010
1000
0010
0100
0001
1000
,
0002
0000
2000
0000
3000
0000
0200
0300
2000
3000
2000
3000
0020
0030
0020
0030
,
0003
0000
0000
0000
;
