#TITLE:Piano Concerto No. 1 "SCORPION FIRE";
#SUBTITLE:;
#ARTIST:virkato;
#TITLETRANSLIT:;
#SUBTITLETRANSLIT:;
#ARTISTTRANSLIT:;
#CREDIT:;
#BANNER:Piano Concerto No. 1 Scorpion Fire.png;
#BACKGROUND:Piano Concerto No. 1 Scorpion Fire-bg.png;
#LYRICSPATH:;
#CDTITLE:!toph-cdtitle.png;
#MUSIC:Virkato - Piano Concerto No. 1 Scorpion Fire.mp3;
#OFFSET:0.236;
#SAMPLESTART:66.000;
#SAMPLELENGTH:11.000;
#SELECTABLE:YES;
#BPMS:0.000=184.800,160.000=185.030,198.000=182.150,200.000=174.100,203.000=177.000,206.000=184.000,234.000=180.000,236.000=178.000,238.000=168.000,238.500=167.000,239.000=161.200,240.000=173.400,242.000=175.900,250.000=177.000,252.000=178.000,254.000=184.000,272.000=186.000,290.000=188.000,296.000=178.000,298.000=179.000,318.000=182.000,322.000=188.000,346.000=180.000,360.000=173.000,362.000=170.000,363.000=138.600,368.000=123.000,370.000=85.000,371.000=75.000,372.000=68.300,373.000=57.700,373.500=49.000;
#STOPS:;
#BGCHANGES:;
// cache tags:
#FIRSTBEAT:2.000;
#LASTBEAT:374.000;
#SONGFILENAME:Songs/StepmaniaFreak's Favorites/Piano Concerto No. 1 Scorpion Fire [Toph]/Piano Concerto No. 1 Scorpion Fire.sm;
#HASMUSIC:1;
#HASBANNER:1;
#MUSICLENGTH:130.185;
// end cache tags

//---------------dance-single - ----------------
#NOTES:
     dance-single:
     :
     Hard:
     12:
     1.000,1.000,1.000,0.184,1.000,803.000,195.000,24.000,0.000,7.000:
0000
0000
1001
0000
,
0000
0000
0000
0000
,
0000
0000
0000
0000
,
0000
0000
0000
0000
,
1100
0000
0000
0000
,
0110
0000
0000
0001
,
0011
0000
0000
0000
,
0000
0000
0000
0101
,
0000
0000
0000
0000
0000
1000
0100
0010
0001
0110
0000
0000
,
0000
0000
0000
0000
0001
0100
0010
1000
0100
0010
0100
0010
,
0001
0000
0000
0000
0000
1100
0000
0000
0000
0000
0000
0000
0000
0000
0000
0000
0000
0000
0000
0000
0000
0000
0000
0000
0000
0000
0000
0000
0000
0000
0110
0000
0000
0000
0000
0000
0000
0000
0000
0000
0000
0000
0000
0000
0000
0000
0000
0000
,
0000
1001
0000
0000
,
0000
0000
0110
0000
,
0011
1000
0100
0010
0001
0010
0001
0100
0010
0100
0001
0010
0100
1000
0010
0100
,
0001
0100
0010
1000
0001
0010
0100
1000
0010
0100
0010
1000
0110
0000
0011
0000
,
1100
0001
0100
0010
1000
0100
0010
0001
1000
0010
0100
0001
0010
0001
0100
0010
,
1000
0001
0010
0001
0100
0001
1000
0010
0100
0001
0010
0100
1001
0000
1100
0000
,
0011
1000
0001
0100
0010
0100
0001
0010
0100
1000
0010
0100
0001
1000
0101
0010
,
1001
0100
0010
1000
0001
0010
0001
0100
0010
1000
0100
0010
1001
0000
1100
0000
,
0011
0000
0000
0110
0110
0000
1100
0000
0101
1000
0100
0010
1001
0100
0010
0001
,
0110
0000
0000
1000
0000
0000
0001
0000
0000
1000
0000
0000
0010
0000
0000
1000
0000
0000
0100
0000
0000
1000
0000
0000
0010
0000
0000
0100
0000
0000
0100
0000
0000
0001
0000
0000
0001
0000
0000
0000
1000
0000
0000
0000
1000
0000
0000
0000
,
0110
0011
0000
1100
0000
0000
0000
0000
,
0000
0000
0000
0000
,
0000
0000
0000
0000
0000
0000
1000
0100
,
1010
0001
0110
0001
,
1100
0001
1001
0010
,
0101
1001
1100
0110
,
0011
0101
1010
1001
,
0110
1000
0011
1000
0101
1000
0011
0100
,
1010
0001
1100
0010
1100
0001
0110
1000
,
0011
0000
0000
0100
0000
0000
1010
0000
0001
0000
0010
0000
1100
0000
0000
0001
0000
0000
1010
0000
0000
0100
0000
0000
,
1001
0100
0011
1000
0011
0100
1010
0001
,
2010
0100
0010
0001
0100
0010
3002
0100
,
0023
1000
0100
0001
0100
1000
0032
1000
,
0023
1000
0100
1030
0002
0100
0023
0100
,
0032
0100
0013
2000
0100
0010
3002
0100
,
2003
0100
0010
3002
0100
0010
2003
0001
,
3210
0001
2310
0100
3012
0100
1023
0100
,
2031
0100
0010
3002
0100
0010
2003
0100
,
3011
1000
0010
0100
0001
0010
0001
0100
0010
1001
0100
1000
,
0011
0100
0100
1000
0001
0001
0100
0010
0010
1000
0100
0100
,
0011
0000
1000
0000
1000
0000
0001
0000
0100
0000
0100
0000
0010
0000
1000
0000
1000
0000
0001
0000
0100
0010
0100
0000
,
1001
0100
0100
0010
0001
0001
0100
0010
0010
1000
0100
0100
,
0010
0000
0001
0000
0100
0000
0010
0000
0100
0000
0001
0000
0001
0000
1000
0000
0100
0000
0010
0000
0001
0100
0010
0000
,
1100
0001
1000
0010
1000
0100
1000
0001
0010
0101
0010
1000
,
0101
0000
0010
0000
1000
0000
0001
0000
0010
0000
0100
0000
1000
0000
0001
0100
0010
0000
1000
0000
0100
0010
0001
0000
,
1010
0001
1000
0010
0100
0001
1100
0010
0001
1000
0010
0100
,
1001
0100
0010
1100
0001
0100
1010
0001
1000
0110
0001
0010
,
1001
0100
0010
1000
0001
0000
1001
0100
0010
0001
0100
0010
,
1001
0100
0010
1000
0001
0010
1100
0001
0100
0010
1000
0100
,
0011
0000
0000
0000
0000
0000
0000
0000
0000
0000
0000
0000
0000
0000
0000
0000
0000
0000
0000
0000
0000
0000
0000
0000
1000
0000
0000
0000
0100
0000
0000
0000
0010
0000
0000
0000
0001
0000
0000
0100
0000
0000
0010
0000
0000
1000
0000
0000
,
0001
0000
1100
0000
0110
0000
0011
0000
1001
0000
0110
0000
0001
1000
0010
1000
,
0100
1000
0010
1000
0001
0100
0010
0100
1001
0000
0110
0000
0110
0000
1000
0100
,
0010
0001
0100
0010
1000
0100
0010
0001
0110
0000
1001
0000
1001
0100
0010
0001
,
0100
0010
0100
0001
0010
0001
0100
0010
1001
0000
0000
0001
0010
0001
0100
0010
,
1001
0000
0100
0010
0001
0100
0010
1000
0100
0000
0000
0000
0100
0010
0001
0000
,
0001
1000
0010
1000
0100
1000
0001
0000
0110
0000
0000
0000
1000
0010
0100
0001
,
0010
0000
1100
0000
0011
0000
0101
0000
1010
0001
0100
0010
1000
0100
0010
0001
,
1000
0010
0100
0001
1000
0001
0100
0010
1001
0100
0010
0001
1000
0010
0100
0001
,
0010
0001
1000
0010
1000
0100
0010
0001
1100
0001
0010
0100
1000
0100
1000
0010
,
0100
0000
1100
0000
0110
0000
0011
0000
1001
0000
0110
0000
0000
0000
0100
0010
,
1000
0100
0010
0001
1000
0010
0100
0001
1010
0000
0101
0000
0101
0000
0001
0100
,
0010
1000
0100
1000
0010
0100
0001
0010
1100
0000
0011
0000
0011
0000
1000
0001
,
0100
0010
1000
0001
0010
0001
1100
0010
1001
0000
0110
0000
0010
0100
0001
1000
,
0011
0000
0110
0000
0110
1000
0100
1000
0011
0000
0000
0000
0001
0100
0010
1000
,
0100
1000
0010
0100
0001
1000
0101
0010
1001
0000
0000
0000
0001
0100
0010
1000
,
0001
1000
0100
0010
0001
1000
0101
0010
1001
0100
0010
0001
0001
0000
0000
0000
,
1001
0100
0010
0001
1000
0010
0100
0001
1100
1100
0000
1100
0000
1100
0000
1100
,
0000
0000
0000
0100
0010
1000
0100
0010
1001
0100
0010
0001
1000
0010
1000
0100
,
0011
1000
0001
0100
0010
1000
0100
0010
1001
0100
0010
1000
0100
0010
0001
1000
,
0110
0000
0000
0001
0000
0000
0100
0000
0000
0010
0000
0000
1000
0000
0000
0100
0000
0000
0010
0000
0000
0001
0000
0000
1100
0000
0000
0000
0000
0000
0000
0000
0000
0000
0000
0000
0100
0000
0000
0000
0010
0000
0000
0000
0100
0000
0000
0000
,
1001
0000
0000
0100
0000
0100
0011
0000
0000
1000
0000
0000
,
1001
0000
0000
0000
0110
0000
0000
0000
1001
0000
1001
0000
1000
0100
0010
0001
,
1100
0000
1100
0000
0010
0100
0001
1000
0110
0000
0110
0000
0001
0100
0010
1000
,
0011
0000
0001
0000
0100
0010
1000
0001
0110
0000
1000
0000
0101
0000
0010
0000
,
0101
1000
0110
0001
1100
0010
0001
1000
,
0010
0100
0001
1000
0110
0001
1100
0010
,
1100
0001
0110
1000
0101
0010
1000
0001
,
0010
0001
0100
0010
2000
0000
0000
0000
,
0000
3020
0230
0000
,
0000
0000
0000
0000
0302
0000
0000
0000
1103
0000
0000
0000
1000
0100
0010
0001
,
0110
0000
0000
0000
0010
0100
0001
1000
0011
0000
0000
0000
0001
0100
0010
1000
,
0110
0000
0000
0000
0000
0000
0000
0000
0000
0000
0000
0000
0011
0000
0000
1000
0000
0000
0100
0000
0000
0010
0000
0000
1001
0000
0000
0000
0000
0000
0000
0000
0000
0000
0000
0000
1000
0000
0100
0000
0010
0000
0100
0000
0010
0000
0001
0000
,
1000
0000
0000
0000
0000
0000
0001
0100
0010
1000
0100
0010
0001
0000
0000
0000
0000
0000
0001
0010
0100
1000
0001
0100
,
0010
1100
1100
0001
1010
1010
0100
0011
0011
1000
0101
0101
,
0010
1100
1100
0001
0110
0110
1000
0101
0101
1001
1001
1001
,
0110
0110
0110
1100
1010
1001
0010
0000
0000
0101
0000
0000
,
0000
0000
0000
0000
,
0000
0000
0000
0000
,
1100
0000
0000
0000
,
0110
0000
0000
0001
,
0011
0000
0000
0000
,
0000
0000
0000
0000
0000
0000
0000
0000
0000
0000
0000
0000
0000
0000
0000
0000
0000
0000
0000
0000
0000
0000
0000
0000
0000
0000
0000
0000
0000
0000
0000
0000
0000
0000
0000
0000
0000
0000
0000
0000
0000
0000
0000
0000
0000
0000
0000
0000
0000
0000
0000
0000
0000
0000
0000
0000
0000
0000
0000
0000
0000
0000
0000
0000
0000
0000
0000
0000
0000
0000
0000
0000
0000
0000
0000
0000
0000
0000
0000
0000
0000
0000
0000
0000
0000
0000
0000
0000
0000
0000
0000
0000
0000
0000
0000
0000
0110
0000
0000
0000
0000
0000
0000
0000
0000
0000
0000
0000
0000
0000
0000
0000
0000
0000
0000
0000
0000
0000
0000
0000
0000
0000
0000
0000
0000
0000
0000
0000
0000
0000
0000
0000
0000
0000
0000
0000
0000
0000
0000
0000
0000
0000
0000
0000
1000
0000
0000
0000
0000
0000
0000
0000
0000
0000
0000
0000
0000
0000
0000
0000
0000
0000
0100
0000
0000
0000
0000
0000
0000
0000
0000
0000
0000
0000
0000
0000
0010
0000
0000
0000
0000
0000
0000
0000
0000
0000
0000
0000
0000
0000
0000
0000
,
1001
0000
0110
1000
0011
0000
0000
0000
;
