#TITLE:Apocynthion Drive;
#SUBTITLE:;
#ARTIST:HertzDevil;
#TITLETRANSLIT:;
#SUBTITLETRANSLIT:;
#ARTISTTRANSLIT:;
#CREDIT:Kommisar;
#BANNER:../bn.png;
#BACKGROUND:../bg.png;
#LYRICSPATH:;
#CDTITLE:;
#MUSIC:HertzDevil - Apocynthion Drive.ogg;
#OFFSET:0.972;
#SAMPLESTART:165.823;
#SAMPLELENGTH:17.240;
#SELECTABLE:YES;
#DISPLAYBPM:225.000;
#BPMS:0.000=225.000,219.000=450.000,220.000=225.000,288.313=4000000.250,289.000=225.000,295.417=4000000.250,296.000=225.000,300.375=4000000.250,301.000=225.000,307.688=4000000.250,308.000=225.000,316.688=4000000.250,317.000=225.000,325.250=4000000.250,326.000=225.000,394.250=4000000.250,394.500=225.000,409.250=4000000.250,409.500=225.000,410.313=4000000.250,410.500=225.000,499.958=450.000,500.250=350.000,500.500=450.000,501.000=4000000.250,501.500=225.000,611.938=4000000.250,612.000=225.000,916.000=500.000,917.000=225.000;
#STOPS:;
#BGCHANGES:;
// cache tags:
#FIRSTBEAT:4.000;
#LASTBEAT:1337.000;
#SONGFILENAME:Songs/Cirque du Zonda/Zaia - Apocynthion Drive/Apocynthion Drive.sm;
#HASMUSIC:1;
#HASBANNER:1;
#MUSICLENGTH:354.324;
// end cache tags

//---------------dance-single - Zaia - 17.9----------------
#NOTES:
     dance-single:
     Zaia - 17.9:
     Challenge:
     17:
     1.000,1.000,0.000,0.550,1.000,3560.000,0.000,195.000,0.000,0.000:
0000
0000
0000
0000
,
0001
0000
1000
0100
1000
0000
0002
0000
0000
0000
0023
0000
0000
0000
0130
0000
,
1000
0000
0001
0100
0001
0000
0020
0000
0000
0000
0230
0000
0000
0000
1300
0000
,
0001
0000
0100
0010
0100
0000
0002
0000
0000
0000
2003
0000
0000
0000
3100
0000
,
0010
0100
1000
0001
1000
0010
0100
0001
,
1000
0100
1000
0001
0010
0100
1000
0010
0100
0001
1000
0100
0010
0001
1000
0001
,
0100
0010
1000
0001
1000
0010
1000
0100
0010
0001
1000
0010
0100
0001
1000
0001
,
1000
0100
1000
0001
0010
0100
1000
0010
0100
0001
1000
0100
0010
0001
1000
0001
,
1000
0010
0100
0001
1000
0001
1000
0100
0010
0001
1000
0010
0100
0001
1000
0001
,
1000
0100
0010
0001
1000
0100
1000
0010
0100
0001
1000
0100
0010
0001
1000
0001
,
1000
0010
0100
0001
1000
0010
1000
0100
0010
0001
1000
0010
0100
0001
1000
0001
,
1000
0100
1000
0001
0010
0100
1000
0001
1000
0010
0100
0001
1000
0100
1000
0001
,
0100
0010
0100
0001
1000
0010
0100
0001
1000
0001
0100
0010
1000
0001
0100
0010
,
1000
0100
1000
0001
0100
0010
1000
0100
0010
0001
1000
0010
0100
0001
1000
0001
,
0010
0100
1000
0001
1000
0100
1000
0010
0100
0001
1000
0100
0010
0001
1000
0001
,
1000
0010
1000
0001
0100
0010
1000
0100
0010
0001
1000
0010
0100
0001
1000
0001
,
1000
0100
0010
0001
1000
0001
1000
0010
0100
0001
1000
0100
0010
0001
1000
0001
,
1000
0010
0100
0001
1000
0010
1000
0100
0010
0001
1000
0010
0100
0001
1000
0001
,
1000
0100
0010
0001
1000
0100
1000
0010
0100
0001
1000
0100
0010
0001
1000
0001
,
1000
0010
1000
0001
0100
0010
1000
0001
1000
0100
0010
0001
1000
0010
1000
0001
,
0100
0000
0001
0000
0010
0000
0100
1000
0001
1000
0001
0100
0010
0100
0001
1000
,
0001
0010
0001
0200
0000
0000
0310
1000
,
0001
0020
0000
0000
0130
1000
0002
0000
,
0000
0103
0020
0000
0000
1030
0200
0000
,
0320
0032
2003
3002
,
0000
1003
0020
0000
0000
0130
0002
0000
,
2003
0000
3200
0000
0320
0000
0000
0031
,
2000
0000
0000
3020
0000
0000
0000
0230
,
0000
0000
0000
0000
0302
0000
0000
0013
,
0200
0000
0000
1300
0020
0000
0130
0002
,
0000
0000
1003
0100
0010
0100
1000
0001
,
0100
0010
1000
0002
0000
0000
2003
0000
,
3020
0000
0000
0230
0000
0000
0301
0010
,
0100
1000
0000
0010
0100
0000
0002
0000
,
0000
0000
1003
0010
0100
0010
1000
0001
,
0010
0000
0001
0000
1000
0010
0100
0001
1000
0001
0100
0010
0100
0001
1000
0010
,
1000
0001
0100
0001
1000
0100
0010
0100
1000
0001
1000
0010
0100
0010
1000
0001
,
1000
0100
0010
0001
1000
0001
1000
0010
0100
0001
1000
0001
0010
0100
1000
0001
,
0100
0010
1000
0001
0010
0100
0010
0001
1000
0001
1000
0010
0100
0010
1000
0001
,
1000
0100
0010
0001
1000
0001
0100
0010
0100
0001
1000
0100
1000
0001
0100
0001
,
1000
0100
0010
0100
1000
0001
0010
0100
1000
0010
1000
0001
1000
0100
1000
0001
,
0010
0001
1000
0001
0100
0010
1000
0001
1000
0100
0010
0001
1000
0001
0100
0001
,
1000
0100
0010
0001
1000
0100
1000
0010
0100
0001
1000
0010
1000
0001
0010
0001
,
0100
0010
1000
0001
0010
0001
1000
0100
0010
0100
1000
0001
1000
0010
0100
0001
,
1000
0100
0010
0001
1000
0010
0100
0010
1000
0001
0010
0100
1000
0001
1000
0010
,
0100
0001
1000
0001
0010
0100
2000
0000
0000
0000
0000
0000
3002
0000
0000
0000
,
0000
0000
2003
0000
0000
0000
0000
0000
3020
0000
0000
0000
0130
0000
0001
1000
,
0010
0100
0001
1000
0010
0100
0001
0000
1000
0100
1000
0000
0010
0000
0100
0000
,
0001
1000
0001
0000
0010
0000
0100
1000
0001
0000
0100
0000
0010
0000
1000
0000
,
0001
0000
0000
0000
0000
0000
0000
0000
0000
0000
0000
0000
0010
0000
0000
0000
0000
0000
0000
0000
0000
0000
0000
0000
0001
0000
0000
0000
0000
0000
0000
0000
0000
0000
0000
0000
0000
0000
0000
0000
0000
0000
0000
0000
0000
0000
0000
0000
1000
0000
0000
0000
0000
0000
0000
0000
0000
0000
0000
0000
0000
0000
0000
0000
0000
0000
0000
0000
0000
0000
0000
0000
0010
0000
0000
0000
0000
0000
0000
0000
0000
0000
0000
0000
0100
0000
0000
0000
0000
0000
0000
0000
0000
0000
0000
0000
0002
0000
0000
0003
0000
0000
0000
0000
0000
0000
0000
0000
0000
0000
0000
0000
0000
0000
0000
0000
0000
0000
0000
0000
2000
0000
0000
0000
3000
0000
0000
0000
0000
0000
0000
0000
0000
0000
0000
0000
0000
0000
0000
0000
0000
0000
0000
0000
0200
0000
0000
0000
0000
0000
0300
0000
0000
0000
0000
0000
0000
0000
0000
0000
0000
0000
0000
0000
0000
0000
0000
0000
0020
0000
0000
0000
0000
0000
0000
0000
0030
0000
0000
0000
0000
0000
0000
0000
0000
0000
0000
0000
0000
0000
0000
0000
,
0002
0000
0000
0003
0000
0000
0020
0000
0000
0000
0030
0000
0200
0000
0000
0000
0000
0000
1300
0000
0000
0000
0000
0000
0010
0000
0000
0000
0000
0000
0100
0000
0000
0000
0000
0000
0010
0000
0000
0000
0000
0000
1000
0000
0000
0000
0000
0000
,
0100
0000
0010
0001
1000
0001
1000
0010
0100
0001
1000
0100
1000
0001
0100
0001
,
0010
0000
0000
0000
0000
0000
0000
0000
0000
0000
0000
0000
0001
0000
0000
0000
0000
0000
0000
0000
0000
0000
0000
0000
1000
0000
0000
0000
0000
0000
0000
0000
0000
0000
0000
0000
0001
0000
0000
0000
0000
0000
0000
0000
0000
0000
0000
0000
1000
0000
0000
0000
0000
0000
0000
0000
0000
0000
0000
0000
0100
0000
0000
0000
0000
0000
0000
0000
0000
0000
0000
0000
0010
0000
0000
0000
0000
0000
0000
0000
0000
0000
0000
0000
0001
0000
0000
0000
0000
0000
0000
0000
0000
0000
0000
0000
1000
0000
0000
0000
0000
0000
0000
0000
0000
0000
0000
0000
0010
0000
0000
0000
0000
0000
0000
0000
0000
0000
0000
0000
0200
0000
0000
0300
0000
0000
0000
0000
0000
0000
0000
0000
0000
0000
0000
0000
0000
0000
0000
0000
0000
0000
0000
0000
0002
0000
0000
0003
0000
0000
0000
0000
0000
0000
0000
0000
0000
0000
0000
0000
0000
0000
0000
0000
0000
0000
0000
0000
0020
0000
0000
0000
0030
0000
0000
0000
0000
0000
0000
0000
0000
0000
0000
0000
0000
0000
0000
0000
0000
0000
0000
0000
,
0200
0000
0000
0000
0300
0000
0000
0000
0000
0000
0000
0000
0000
0000
0000
0000
0000
0000
0000
0000
0000
0000
0000
0000
2000
0000
0000
0000
0000
0000
3000
0000
0000
0000
0000
0000
0000
0000
0000
0000
0000
0000
0000
0000
0000
0000
0000
0000
0200
0000
0000
0000
0000
0000
0300
0000
0000
0000
0000
0000
0000
0000
0000
0000
0000
0000
0000
0000
0000
0000
0000
0000
0020
0000
0000
0000
0000
0000
0000
0000
0030
0000
0000
0000
0000
0000
0000
0000
0000
0000
0000
0000
0000
0000
0000
0000
0002
0000
0000
0000
0000
0000
0000
0000
0003
0000
0000
0000
0000
0000
0000
0000
0000
0000
0000
0000
0000
0000
0000
0000
0200
0000
0000
0000
0000
0000
0000
0000
0000
0000
0000
0000
0300
0000
0000
0000
0000
0000
0000
0000
0000
0000
0000
0000
0020
0000
0000
0000
0000
0000
0000
0000
0000
0000
0000
0000
0030
0000
0000
0000
0000
0000
0000
0000
0000
0000
0000
0000
2000
0000
0000
0000
0000
0000
0000
0000
0000
0000
0000
0000
0000
0000
0000
0000
3000
0000
0000
0000
0000
0000
0000
0000
,
0020
0000
0000
0000
0000
0000
0000
0000
0000
0000
0000
0000
0000
0000
0000
0000
0030
0000
0000
0000
0000
0000
0000
0000
0200
0000
0000
0000
0000
0000
0000
0000
0000
0000
0000
0000
0000
0000
0000
0000
0000
0000
0000
0000
0000
0000
0000
0000
0302
0000
0000
0000
0000
0000
0000
0000
0000
0000
0000
0000
0000
0000
0000
0000
0000
0000
0000
0000
0000
0000
0000
0000
0023
0000
0000
0000
0000
0000
0000
0000
0000
0000
0000
0000
0000
0000
0000
0000
0000
0000
0000
0000
0000
0000
0000
0000
0200
0000
0000
0000
0000
0000
0030
0000
0000
0000
0000
0000
0000
0000
0000
0000
0000
0000
0000
0000
0000
0000
0000
0000
2000
0000
0000
0000
0000
0000
0300
0000
0000
0000
0000
0000
0000
0000
0000
0000
0000
0000
0000
0000
0000
0000
0000
0000
3020
0000
0000
0000
0000
0000
0000
0000
0000
0000
0000
0000
0000
0000
0000
0000
0000
0000
0000
0000
0000
0000
0000
0000
0000
0000
0000
0000
0000
0000
0000
0000
0000
0000
0000
0000
0000
0000
0000
0000
0000
0000
0000
0000
0000
0000
0000
0000
,
1030
0000
0001
0010
0001
0000
1000
0000
0001
0010
0001
0000
1000
0001
1000
0000
,
0010
0000
0100
0001
0100
0000
0010
0000
1000
0001
1000
0000
0001
0010
0001
0000
,
1000
0000
0010
0100
0010
0000
1000
0000
0001
0100
0001
0000
1000
0100
1000
0000
,
0001
0000
0010
0100
0010
0000
0001
0000
1000
0010
1000
0000
0001
0010
0001
0000
,
1000
0000
0010
0100
0010
0000
1000
0000
0001
0100
0001
0000
1000
0001
1000
0000
,
0100
0000
0010
0001
0010
0000
0100
0000
1000
0001
1000
0000
0001
0100
0001
0000
,
1000
0000
0100
0010
0100
0000
1000
0000
0001
0010
0001
0000
1000
0010
1000
0000
,
0001
0000
0100
0010
0100
0000
0001
0000
1000
0100
1000
0000
0001
0100
0001
0000
,
1000
0000
0100
1000
0100
0000
0010
0000
0001
1000
0001
0000
1000
0010
1000
0000
,
0001
0000
0010
0001
0010
0000
0100
0000
1000
0000
0010
0000
0100
0000
0001
0000
,
1000
0000
0001
0100
0001
0000
2000
0000
0000
0000
3200
0000
0000
0000
0300
0000
,
0020
0000
0032
2003
0000
3010
0100
0001
,
1000
0000
0001
0010
0001
0000
2000
0000
0000
0000
3020
0000
0000
0000
0030
0000
,
1000
0000
0001
0100
0001
0000
1000
0000
0100
0000
0010
0000
0001
0000
0100
0000
,
0010
0000
0100
0001
0100
0000
0002
0000
0000
0000
0023
0000
0000
0000
0030
0000
,
0100
1000
0010
0100
0001
0010
0100
1000
,
0010
0100
0010
0100
0000
0000
0001
0100
0001
0100
0000
0000
0010
1000
0010
1000
,
0000
0000
0000
0000
0000
0000
0000
0000
0001
0000
0000
0010
0000
0000
0100
0000
0000
1000
0000
0000
0100
0000
0000
0010
0000
0000
0001
0000
0000
1000
0000
0000
,
0100
0000
0000
0010
0000
0000
0100
0000
0000
1000
0000
0000
0001
0000
0000
0010
0000
0000
0001
0000
0000
1000
0000
0000
0001
0000
0000
0000
0000
0000
0000
0000
,
0100
0010
0100
0010
0000
0000
0100
0001
0100
0001
0000
0000
1000
0100
1000
0100
,
0000
0000
0000
0000
0000
0000
0000
0000
1000
0000
0000
0001
0000
0000
0010
0000
0000
0100
0000
0000
0010
0000
0000
0001
0000
0000
1000
0000
0000
0001
0000
0000
,
0010
0000
0000
0100
0000
0000
0010
0000
0000
0001
0000
0000
1000
0000
0000
0001
0000
0000
0100
0000
0000
0010
0000
0000
1000
0000
0000
0001
0000
0000
0000
0000
,
1000
0000
0000
0000
0000
0000
0010
0000
0000
0000
0000
0000
0100
0000
0000
0000
0000
0000
0010
0000
0000
0000
0000
0000
0100
0000
0000
0000
0000
0000
0000
0001
0000
0000
0000
0000
0100
0000
0000
0000
0000
0000
0001
0000
0000
0000
0000
0000
0100
0000
0000
0000
0000
0000
0001
0000
0000
0000
0000
0000
0100
0000
0000
0000
,
0000
0000
0000
0010
0000
0000
0000
0000
1000
0000
0000
0000
0000
0000
0010
0000
0000
0000
0000
0000
1000
0000
0000
0000
0000
0000
0010
0000
0000
0000
0000
0000
1000
0000
0000
0000
0000
0000
0000
0001
0000
0000
0000
0000
0010
0000
0000
0000
0000
0000
0001
0000
0000
0000
0000
0000
0010
0000
0000
0000
0000
0000
0001
0000
,
0000
0000
0000
0010
0000
0000
0000
0000
0000
0000
0000
0000
0100
0000
0000
0000
1000
0000
0000
0000
0010
0000
0000
0000
0100
0000
0000
0000
0001
0000
0000
0000
1000
0000
0000
0000
0100
0000
0000
0000
1000
0000
0000
0000
0001
0000
0000
0000
,
0100
0010
0100
0001
0010
0100
0010
0001
1000
0010
0100
0010
,
1000
0000
0000
0000
0001
0000
0000
0000
0000
0000
0000
0000
0000
0000
0000
0000
0000
0000
0000
0000
0000
0000
0000
0000
1000
0000
0000
0100
0000
0000
1000
0000
0000
0001
0000
0000
0010
0000
0000
0100
0000
0000
1000
0000
0000
0001
0000
0000
,
1000
0100
0010
0100
1000
0001
0100
0010
1000
0001
0100
0001
1000
0010
0100
0001
,
1000
0100
1000
0001
0010
0100
1000
0001
1000
0010
0100
0010
1000
0001
1000
0010
,
0100
0010
1000
0001
0100
0010
1000
0001
0010
0001
1000
0100
0010
0001
1000
0100
,
1000
0001
0010
0100
1000
0001
0100
0010
0100
0001
1000
0010
0100
0001
1000
0010
,
1000
0001
0010
0001
1000
0100
0010
0001
1000
0010
0100
0010
1000
0001
0100
0010
,
1000
0001
1000
0010
0100
0001
1000
0001
0010
0100
0010
0001
1000
0100
1000
0001
,
0010
0100
1000
0001
1000
0100
1000
0001
0100
0001
1000
0010
0100
0010
1000
0001
,
0010
0001
1000
0100
0010
0001
1000
0100
1000
0001
0100
0010
0100
0001
1000
0010
,
0100
0001
0100
0010
1000
0010
0100
0001
1000
0100
0010
0100
1000
0001
0010
0100
,
1000
0001
1000
0100
1000
0001
0100
0010
0100
0001
1000
0010
0100
0010
1000
0001
,
0010
0001
1000
0100
0010
0001
1000
0100
0010
0100
1000
0001
0100
0010
0100
0001
,
1000
0010
0100
0001
1000
0001
0100
0010
1000
0001
0010
0001
1000
0100
1000
0001
,
0010
0100
1000
0001
1000
0100
0010
0001
1000
0010
0100
0001
1000
0010
0100
0010
,
1000
0001
0010
0001
1000
0100
0010
0001
1000
0100
1000
0001
0100
0001
1000
0010
,
0100
0001
1000
0001
0100
0001
1000
0010
1000
0001
0010
0001
1000
0100
0010
0001
,
1000
0001
0010
0100
1000
0001
0100
0010
0100
0001
1000
0010
0100
0001
1000
0010
,
1000
0001
0010
0001
1000
0100
0010
0100
1000
0000
0001
0000
0010
0000
0100
0000
,
0010
0001
0100
0010
2000
0000
0000
0000
,
3000
0002
0000
0000
0000
0003
0200
0000
,
0000
0000
0000
0300
0010
1000
0001
0100
,
0010
0000
1000
0000
0000
0000
0100
0000
0000
0000
0010
0001
1000
0010
0100
0001
,
1000
0001
0010
0100
1000
0010
0100
0001
1000
0010
1000
0100
0010
0001
1000
0001
,
0100
0010
0100
0001
1000
0001
0010
0100
1000
0010
0100
0001
1000
0010
1000
0100
,
0010
0001
0100
0001
1000
0010
0100
0001
1000
0001
0010
0100
1000
0010
0100
0001
,
1000
0010
1000
0100
0010
0001
1000
0001
0100
0010
0100
0001
1000
0001
0010
0100
,
1000
0010
0100
0001
1000
0010
1000
0100
0010
0001
0100
0000
0010
0000
1000
0000
,
0100
1000
0010
0100
0001
0010
0100
0010
,
0001
1000
0010
0010
1000
0000
0001
0100
,
0100
0001
0000
0010
0100
0100
1000
0000
,
0001
0000
0100
0000
0000
0000
0010
0000
0000
0000
1000
0001
1000
0000
0100
0000
,
0010
0000
0001
1000
0000
0010
0100
0000
,
0001
0100
0001
0000
0000
0000
1000
0000
0001
0000
1000
0000
0001
0000
1000
0000
,
0001
0000
1000
0000
0001
0000
1000
0000
0001
0000
1000
0000
0001
0000
1000
0001
,
1000
0000
0010
0000
0100
0000
0001
0100
0001
0000
1000
0000
0001
0000
0100
0000
,
0010
0100
0010
0100
0010
1000
0001
0010
,
0100
0010
0001
1000
0020
0000
0000
0030
,
1000
0001
1000
0000
0100
0000
0010
0000
0001
1000
0001
0000
0100
0000
0010
0000
,
0010
0100
0100
0001
1000
0100
0010
0100
,
1000
0000
0010
0000
0100
0001
1000
0010
0100
0001
1000
0001
0100
0010
1000
0001
,
1000
0100
0010
0100
1000
0001
0010
0100
1000
0001
0010
0001
1000
0001
0100
0010
,
1000
0010
0100
0000
0001
0000
0100
0000
0001
0000
0100
0000
0010
0000
1000
0000
,
0010
1000
0010
1000
0001
1000
0001
0010
,
0100
0000
0010
0000
0100
0000
0010
0000
0100
0000
1000
0000
0100
0010
0001
0000
,
1000
0000
0000
0010
0100
0001
1000
0100
,
0010
0000
0001
0000
1000
0000
0001
0100
0001
0000
2000
0000
0000
0000
3001
0000
,
0010
0100
0010
0100
1000
0000
0001
0000
0100
0000
0020
0000
0000
0000
1030
0000
,
0001
0100
0001
0100
0010
0000
1000
0100
0010
0000
0002
0000
0000
0000
1003
0000
,
0001
0100
0001
0100
0010
0000
1000
0000
0001
0000
1000
0000
0100
0000
0010
0000
,
0100
0000
1000
0000
0001
1000
0100
0010
0100
1000
0001
0100
0010
1000
0001
1000
,
0100
0010
0001
1000
0001
1000
0010
0100
0010
1000
0001
0010
0100
1000
0001
1000
,
0010
0100
0001
1000
0001
1000
0100
0010
0100
1000
0001
0100
0010
1000
0001
1000
,
0100
0010
0001
1000
0001
1000
0010
0100
0010
1000
0001
0010
0100
1000
0001
1000
,
0010
0100
0001
1000
0100
1000
0001
0100
0010
0100
0001
1000
0100
0010
0001
1000
,
0001
0100
0010
1000
0001
1000
0001
0010
0100
0010
0001
1000
0010
0100
0001
1000
,
0001
0010
0100
1000
0001
1000
0001
0100
0010
0100
0001
1000
0100
0010
0001
1000
,
0001
0100
0010
1000
0001
1000
0001
0100
0010
1000
0001
1000
0100
0010
0100
1000
,
0001
0100
0010
1000
0001
1000
0100
0010
0100
1000
0001
0100
0010
1000
0001
1000
,
0100
0010
0001
1000
0001
1000
0010
0100
0010
1000
0001
0010
0100
1000
0001
1000
,
0010
0100
0001
1000
0001
1000
0100
0010
0100
1000
0001
0100
0010
1000
0001
1000
,
0100
0010
0001
1000
0001
1000
0010
0100
0010
1000
0001
0010
0100
1000
0001
1000
,
0010
0100
0001
1000
0100
1000
0001
0100
0010
0100
0001
1000
0100
0010
0001
1000
,
0001
0100
0010
1000
0001
1000
0001
0010
0100
0010
0001
1000
0010
0100
0001
1000
,
0001
0010
0100
1000
0001
1000
0001
0100
0010
0100
0001
1000
0100
0010
0001
1000
,
0001
0100
0010
1000
0001
0000
1000
0000
0001
0000
1000
0001
0100
0010
0100
0001
,
1000
0100
0010
0001
2000
0000
0000
0000
0000
0000
0000
0000
0000
0000
3001
0100
,
0010
1000
0001
0010
0200
0000
0000
0000
0000
0000
2300
0000
0000
0000
0000
0000
,
0000
0000
3001
0100
0010
1000
0001
0010
,
0100
0010
0001
0010
0100
1000
0002
0000
,
0000
0000
0000
0000
0003
2000
0000
0000
,
0000
0000
3000
0000
0001
0100
0001
1000
0010
1000
0001
1000
0001
0010
0100
1000
,
0001
0000
0000
1000
0000
0000
0010
0000
0000
0100
0000
0000
0010
0000
0000
1000
0000
0000
0001
0000
0000
0100
0000
0000
0001
0000
0000
0000
0000
0000
0000
0000
1000
0000
0000
0000
0000
0000
0000
0000
0100
0000
0000
0000
0000
0000
0000
0000
,
1000
0000
0000
0001
0000
0000
0100
0000
0000
0010
0000
0000
1000
0000
0000
0001
0000
0000
1000
0000
0000
0100
0000
0000
0010
0000
0000
0001
0000
0000
1000
0000
,
0000
0010
0000
0000
0100
0000
0000
0001
0000
0000
1000
0000
0000
0100
0000
0000
1000
0000
0000
0010
0000
0000
0100
0000
0000
0001
0000
0000
1000
0000
0000
0100
,
0000
0020
0000
0000
0000
0000
0000
0000
0000
0000
0000
0000
0000
0000
0000
0000
,
0000
0000
0000
0000
0031
1000
0001
0000
1000
0100
1000
0000
0001
0010
0001
0000
,
1000
0000
0001
0000
1000
0000
0001
0000
1000
0000
0001
0000
1000
0001
0100
0010
,
0100
0001
1000
0001
0010
0100
1000
0001
0100
0010
1000
0100
1000
0010
0100
0001
,
1000
0001
0010
0100
1000
0001
1000
0010
0100
0001
1000
0100
0010
0001
0010
0100
,
1000
0001
0100
0010
0100
0001
1000
0001
0010
0001
1000
0100
1000
0001
0010
0100
,
0010
0001
1000
0001
0100
0010
1000
0001
0010
0100
1000
0010
1000
0100
0010
0001
,
1000
0001
0100
0010
1000
0001
1000
0100
0010
0001
1000
0010
0100
0001
0100
0010
,
1000
0001
0010
0100
0010
0001
1000
0001
0100
0001
1000
0010
0100
0001
1000
0100
,
1000
0001
1000
0100
0010
0100
1000
0001
1000
0010
0100
0001
1000
0001
0010
0100
,
1000
0010
0100
0001
1000
0001
0010
0001
1000
0001
0100
0010
1000
0001
1000
0010
,
0100
0010
1000
0001
1000
0100
0010
0001
1000
0001
0100
0010
1000
0001
0010
0100
,
0010
0001
1000
0001
0100
0010
1000
0001
0010
0100
1000
0010
1000
0100
0010
0001
,
1000
0001
0100
0010
1000
0001
1000
0100
0010
0001
1000
0010
0100
0001
0100
0010
,
1000
0001
0010
0100
0010
0001
1000
0001
0100
0001
1000
0010
1000
0001
0100
0010
,
0100
0001
1000
0001
0010
0100
1000
0001
0100
0010
1000
0100
1000
0010
0100
0001
,
1000
0001
0010
0100
1000
0001
1000
0010
0100
0001
1000
0100
0010
0001
0010
0100
,
1000
0001
0100
0010
0100
0001
1000
0001
0010
0001
1000
0100
0010
0001
1000
0010
,
1000
0001
1000
0010
0100
0010
1000
0001
1000
0100
0010
0001
1000
0001
0100
0010
,
1000
0100
0010
0001
1000
0001
0100
0001
1000
0001
0010
0100
1000
0001
1000
0100
,
0010
0100
1000
0001
1000
0010
0100
0001
1000
0001
0010
0100
1000
0001
0100
0001
,
1000
0100
1000
0001
0010
0001
1000
0010
1000
0001
0100
0010
1000
0001
0010
0100
,
1000
0001
1000
0001
0100
0000
0010
0000
1000
0000
0100
0000
1000
0000
0010
0000
,
0100
0001
0010
0100
0010
0001
1000
0010
,
0100
0001
1000
0100
0010
0100
1000
0010
,
0000
0100
0001
1000
0100
1000
0001
0100
,
0010
1000
0001
1000
0000
0001
0020
0000
,
0000
0000
0000
0130
2000
0000
0000
3001
,
0100
0010
0000
1000
0010
0100
0000
0000
,
0001
0010
0001
0100
0010
1000
0002
0000
,
0000
0000
0000
0000
,
0000
2003
0000
0000
,
3001
0100
0010
0100
0010
1000
0001
0010
0100
1000
0001
1000
0010
0000
0000
0000
,
0100
0000
0001
0000
1000
0100
0000
0010
,
0000
0001
0000
1000
0010
0000
0100
0000
,
0001
0000
0010
0100
0000
0010
0000
0001
,
0000
1000
0010
0000
0100
0000
0001
0000
,
1000
0100
0000
1000
0000
0010
0000
0100
,
0001
0000
1000
0000
0001
0000
0010
0100
,
0000
0010
0000
0001
0000
1000
0010
0000
,
0100
0000
0001
0000
1000
0100
0000
0010
,
0000
0001
0000
1000
0010
0000
0100
0000
,
0010
0000
1000
0100
0000
1000
0000
0001
,
0000
0100
0010
0000
1000
0000
0001
0000
,
0010
0100
0000
0010
0000
0001
0000
1000
,
0010
0000
0100
0000
0001
0000
0100
0010
,
0000
0000
1000
0000
0000
0000
0001
0000
0000
0000
0010
0000
0200
2300
3200
2300
,
3001
0200
0000
0320
0000
0000
0000
0000
,
0000
0000
0000
0000
2030
0000
3010
0200
,
0000
0302
0000
0000
0000
0000
0000
0023
,
0000
0230
0000
0000
,
0000
0000
0000
0000
,
0000
0000
0000
0000
,
0300
0000
0000
0000
,
0000
2000
0000
3002
0000
0000
0000
0000
,
0000
0000
0000
0000
0023
0000
0130
1000
,
0000
0002
0000
0000
0000
0000
0000
0203
,
0000
0000
0320
0000
1030
0002
0000
1003
,
0002
0000
0000
0000
0000
0000
0000
0003
,
0020
0000
0000
0000
0000
0000
0230
0000
0000
0000
0000
0000
1300
0001
0010
0100
,
1000
0001
1000
0100
0010
0100
1000
0010
0100
0001
0100
0010
1000
0001
1000
0001
,
0010
0001
0100
0010
1000
0001
0100
0001
1000
0001
0010
0001
0100
0010
1000
0001
,
0010
0001
1000
0001
0010
0001
0100
0010
1000
0001
0100
0001
1000
0001
0010
0001
,
0100
0010
1000
0001
0010
0001
1000
0001
0100
0001
0010
0100
1000
0001
0100
0001
,
1000
0001
0100
0001
0010
0100
1000
0001
0100
0001
1000
0001
0100
0001
0010
0100
,
1000
0001
0100
0001
1000
0001
0100
0001
0010
0100
1000
0001
1000
0010
0100
0010
,
1000
0001
0010
0100
1000
0010
1000
0001
0100
0001
1000
0001
0100
0010
1000
0100
,
1000
0001
0100
0001
1000
0001
0010
0100
1000
0010
1000
0001
0100
0001
1000
0001
,
0100
0010
1000
0100
0010
0100
1000
0001
0010
0100
1000
0001
1000
0001
0010
0001
,
1000
0001
0100
0010
1000
0001
1000
0010
0100
0000
0001
0000
0100
0000
0010
0000
,
0000
0100
0001
0100
0010
0000
1000
0010
,
1000
0001
0000
0000
0000
0000
0000
0000
,
0000
0000
0000
0000
,
0000
0000
0000
0000
,
2000
0000
0000
0000
,
0000
0000
0000
0000
3001
0010
0001
0000
1000
0000
0002
0000
0000
0000
0023
0000
,
0000
0000
0000
0000
0031
1000
0001
0000
0100
0000
0020
0000
0000
0000
0230
0000
,
0000
0000
0000
0000
0301
1000
0001
0000
0010
0000
0002
0000
0000
0000
2003
0000
,
0000
0000
0000
0000
3100
0010
0100
0000
1000
0000
0020
0000
0000
0000
0230
0000
,
0000
0000
0000
0000
0310
1000
0010
0000
0100
0000
0002
0000
0000
0000
2003
0000
,
0000
0000
3000
0000
0001
0010
0001
0000
0100
0000
0020
0000
0000
0000
0230
0000
,
0000
0000
0000
0000
0301
0010
0001
0000
1000
0000
0200
0000
0000
0000
0320
0000
,
0000
0000
0000
0000
0031
1000
0001
0000
0100
0000
0020
0000
0000
0000
2030
0000
,
0000
0000
0000
0000
3010
0100
0010
0000
1000
0000
0002
0000
0000
0000
2003
0000
,
0000
0000
0000
0000
3001
0100
0001
0000
1000
0000
0020
0000
0000
0000
0230
0000
,
0000
0000
0000
0000
0301
0010
0001
0000
0100
0000
0020
0000
0000
0000
2030
0000
,
0000
0000
0000
0000
3100
0010
0100
0000
0010
0000
0002
0000
0000
0000
2003
0000
,
0000
0000
0000
0000
3001
0100
0001
0000
1000
0000
0200
0000
0000
0000
0320
0000
,
0000
0000
0000
0000
0031
1000
0001
0000
0100
0000
0020
0000
0000
0000
2030
0000
,
0000
0000
0000
0000
3001
0010
0001
0000
1000
0000
0020
0000
0000
0000
0230
0000
,
0000
0000
0000
0000
0310
1000
0010
0000
0100
0000
0002
0000
0000
0000
2003
0000
,
0000
0000
3000
0000
0001
0010
0001
1000
0100
0010
0001
0100
0010
1000
0001
0010
,
0100
1000
0001
1000
0010
0100
0001
1000
0001
0100
0001
0010
0100
1000
0001
0100
,
0010
1000
0001
1000
0001
0010
0001
1000
0100
0010
0001
0100
0010
1000
0001
0010
,
0100
1000
0001
1000
0001
0100
0010
1000
0001
1000
0001
0010
0100
1000
0001
0100
,
0010
1000
0001
1000
0001
0010
0100
1000
0001
0010
0001
0100
0010
1000
0001
0010
,
0100
1000
0001
1000
0001
0100
0010
1000
0001
0100
0001
0010
0100
1000
0001
0100
,
0010
1000
0001
1000
0001
0010
0001
1000
0100
0010
0001
1000
0001
0100
0010
1000
,
0001
0010
0001
1000
0010
0100
0010
1000
0001
0100
0010
1000
0001
1000
0010
0100
,
0001
1000
0010
0100
0001
0010
0001
1000
0010
0100
0001
0010
0100
1000
0001
0100
,
0010
1000
0001
1000
0100
0010
0001
1000
0001
0010
0001
0100
0010
1000
0001
0010
,
0100
1000
0001
1000
0001
0100
0001
1000
0010
0100
0001
0010
0100
1000
0001
0100
,
0010
1000
0001
1000
0001
0010
0100
1000
0001
1000
0001
0100
0010
1000
0001
0010
,
0100
1000
0001
1000
0001
0100
0010
1000
0001
0100
0001
0010
0100
1000
0001
0100
,
0010
1000
0001
1000
0001
0010
0100
1000
0001
0010
0001
0100
0010
1000
0001
0010
,
0100
1000
0001
1000
0001
0100
0001
1000
0010
0100
0001
1000
0001
0010
0100
1000
,
0001
0100
0001
1000
0001
0000
0010
0000
0100
0000
1000
0000
0001
1000
0001
1000
,
0100
1000
0001
1000
0010
0000
0100
0000
0001
0000
0100
0000
0010
0000
0100
0000
,
0001
0010
0100
1000
0020
0000
0000
0000
0000
2030
0000
0000
0000
0000
0000
0000
,
3000
0000
0000
0000
0001
0010
0100
1000
0001
0100
0001
1000
0010
0100
0001
1000
,
0001
0010
0100
1000
0001
0100
0010
1000
0001
1000
0100
1000
0020
0000
0000
0000
,
0000
0000
0000
0000
0130
0001
1000
0010
0100
0010
1000
0001
0010
0100
1000
0001
,
1000
0000
0010
0000
0100
0000
0002
0000
0000
0003
0000
0000
0002
0000
0000
0003
0000
0000
2000
0000
0000
3000
0000
0000
,
2000
3000
0020
0000
0000
0000
0000
0000
,
0030
0000
0000
0100
0001
0010
0001
0100
,
0010
0000
0000
0000
1000
0000
0000
0000
0200
0300
0020
0030
0200
0300
0020
0030
0001
0000
0000
0000
0000
0000
0000
0000
1000
0000
0000
0000
0010
0000
0100
0000
,
0001
0000
0000
0000
0000
0000
0010
0000
0000
0000
0000
0000
0100
0000
0000
1000
0000
0000
0001
0000
0000
0000
0000
0000
0010
0000
0000
0000
0100
0000
0000
0000
1000
0000
0000
0000
0002
0000
0000
0000
0000
0000
0000
0000
0000
0000
0000
0000
,
0103
0000
0010
0000
1000
0000
0001
0000
0000
0000
0000
0000
0010
0000
0000
0100
0000
0000
0000
0000
0000
1000
0000
0000
,
0001
0000
0100
0000
0001
0010
0001
0000
1000
0010
1000
0000
0001
0010
0100
1000
,
0001
0100
0010
1000
0001
0000
0100
0000
0001
0000
0010
0000
0100
0000
1000
0000
,
0001
0100
0000
0010
1000
0100
0000
0100
,
0000
0020
0000
0000
0000
0000
0000
0000
,
0000
0000
0000
0000
0031
1000
0001
1000
0010
1000
0001
1000
0100
0010
0100
1000
,
0001
0010
0100
1000
0001
0000
0000
0000
1000
0010
0100
0001
0100
0010
1000
0100
,
0010
0001
1000
0000
0000
0000
0001
0100
0010
0000
1000
0000
0100
0000
0010
0000
,
0001
0000
0010
0100
1000
0100
0010
0001
0100
0010
1000
0100
0010
0000
0001
0000
,
1000
0000
0010
0000
0200
0000
0000
0000
0000
0000
0301
0000
1000
0010
0100
0001
,
1000
0010
0100
0001
1000
0100
0010
0001
1000
0100
0010
0100
1000
0001
0100
0001
,
1000
0010
1000
0001
0010
0100
1000
0001
1000
0010
0100
0010
1000
0000
0001
0000
,
0010
0100
1000
0001
0100
0010
1000
0001
,
0010
0000
0100
0000
1000
0001
1000
0010
1000
0001
0100
0010
1000
0001
0100
0001
,
1000
0001
1000
0100
1000
0001
0010
0100
0010
0001
1000
0001
0010
0001
1000
0010
,
1000
0001
0100
0010
0100
0001
1000
0010
0100
0001
1000
0001
1000
0100
0010
0100
,
1000
0001
0010
0100
1000
0001
0010
0001
1000
0100
0010
0001
1000
0010
0100
0001
,
0100
0010
1000
0001
0010
0001
1000
0100
1000
0001
0010
0100
1000
0001
1000
0010
,
0100
0010
1000
0001
0020
0000
0230
0000
2300
0000
3002
0000
0203
0000
0000
0000
,
0320
2030
0000
0000
0000
0000
3002
0000
,
0203
0000
0000
0000
0320
0000
0000
0000
2030
0000
0000
0000
3001
0100
0010
1000
,
0001
0100
0010
1000
0001
0010
0100
1000
0001
0010
0100
1000
0001
1000
0010
0100
,
0001
1000
0010
0100
0001
1000
0001
0010
0100
1000
0001
1000
0010
0100
0001
0010
,
0100
1000
0001
1000
0100
0010
0001
0100
0010
1000
0001
1000
0010
0100
0001
0010
,
0100
1000
0001
1000
0100
0010
0001
0100
0010
1000
0001
1000
0010
0100
0001
0010
,
0100
1000
0100
0010
0001
0100
0010
1000
0001
1000
0010
0100
0001
0010
0100
1000
,
0010
1000
0001
1000
0001
0100
0010
1000
0100
0010
0001
1000
0001
0100
0010
1000
,
0001
0010
0100
1000
0001
0100
0010
1000
0001
0010
0100
1000
0100
0010
0001
1000
,
0010
0100
0001
1000
0100
0010
0001
1000
0010
0100
0001
1000
0001
0010
0001
1000
,
0010
1000
0001
0010
0001
1000
0010
1000
0001
0010
0001
1000
0001
0100
0010
1000
,
0001
0000
0000
0010
0000
0000
0001
0000
0000
1000
0000
0000
0010
0000
0000
0100
0000
0000
0001
0000
0000
1000
0000
0000
0100
0000
0000
1000
0000
0000
0001
0000
0000
0010
0000
0000
0100
0000
0000
0000
1000
0000
0000
0000
0100
0000
0000
0000
,
0010
0001
0010
0100
1000
0100
0010
0001
1000
0010
0100
0001
,
0100
0010
1000
0010
0100
0001
0100
0010
1000
0002
0000
0000
,
0000
2003
0000
3020
,
0000
0000
0000
0230
0000
0000
0302
0000
0000
1003
0100
0010
,
0001
0010
0100
1000
0100
0010
0001
0010
0100
1000
0001
0100
,
0010
1000
0010
0100
0001
0100
0010
1000
0010
0100
0001
0010
,
0001
1000
0010
0100
0001
0010
0001
1000
0100
0010
0001
0100
,
0001
1000
0100
0010
0001
0100
0001
1000
0010
0100
0000
0000
,
0100
0020
2030
3002
,
0023
0000
0230
0000
2300
0000
3002
0003
,
0002
0003
0200
0000
0320
0000
2030
3000
,
2000
3000
0200
0000
0320
0000
0032
0003
,
0002
0003
0200
0000
0320
0000
2030
0000
,
3002
0000
0023
0000
0230
0000
1300
0001
,
1000
0001
1000
0001
1000
0001
1000
0001
,
1000
0000
0001
0000
1000
0000
0001
0000
1000
0001
1000
0001
0010
0001
1000
0010
,
0100
0001
1000
0100
0010
0001
1000
0001
0100
0010
1000
0001
1000
0001
0010
0100
,
0010
0001
1000
0010
0100
0001
1000
0001
0010
0100
1000
0001
1000
0001
0100
0010
,
0100
0001
1000
0100
0010
0001
1000
0001
0100
0010
1000
0001
1000
0001
0010
0100
,
0010
0001
1000
0010
0100
0001
1000
0001
0010
0100
1000
0001
0100
0001
1000
0100
,
0010
0100
1000
0001
0100
0010
1000
0001
1000
0100
0010
0001
1000
0001
1000
0010
,
0100
0010
1000
0001
0010
0100
1000
0001
1000
0010
0100
0001
1000
0001
1000
0100
,
0010
0100
1000
0001
0100
0010
1000
0001
1000
0100
0010
0001
1000
0001
1000
0100
,
0010
0001
1000
0001
0100
0010
0100
0001
1000
0100
0010
0001
1000
0001
0100
0010
,
0100
0001
1000
0100
0010
0001
1000
0001
0100
0010
1000
0001
1000
0001
0010
0100
,
0010
0001
1000
0010
0100
0001
1000
0001
0010
0100
1000
0001
1000
0001
0100
0010
,
0100
0001
1000
0100
0010
0001
1000
0001
0100
0010
1000
0001
1000
0001
0010
0100
,
0010
0001
1000
0010
0100
0001
1000
0001
0010
0100
1000
0001
0100
0001
1000
0100
,
0010
0100
1000
0001
0100
0010
1000
0001
1000
0100
0010
0001
1000
0001
1000
0010
,
0100
0010
1000
0001
0010
0100
1000
0001
1000
0010
0100
0001
1000
0001
1000
0100
,
0010
0100
1000
0001
0100
0010
1000
0001
1000
0100
0010
0001
2000
0000
0000
0000
,
0000
3000
0000
0000
;
