#TITLE:Illumination of the Sky;
#SUBTITLE:;
#ARTIST:Phantasma;
#TITLETRANSLIT:;
#SUBTITLETRANSLIT:;
#ARTISTTRANSLIT:;
#CREDIT:;
#BANNER:../bn.png;
#BACKGROUND:../veyron.png;
#LYRICSPATH:;
#CDTITLE:;
#MUSIC:illumination_of_the_sky.ogg;
#OFFSET:-0.150;
#SAMPLESTART:29.562;
#SAMPLELENGTH:18.800;
#SELECTABLE:YES;
#BPMS:0.000=204.000;
#STOPS:;
#BGCHANGES:;
// cache tags:
#FIRSTBEAT:0.000;
#LASTBEAT:387.500;
#SONGFILENAME:Songs/Cirque du Veyron/Zaia - Illumination of the Sky/Illumination.sm;
#HASMUSIC:1;
#HASBANNER:1;
#MUSICLENGTH:118.700;
// end cache tags

//---------------dance-single - Zaia----------------
#NOTES:
     dance-single:
     Zaia:
     Challenge:
     15:
     1.000,1.000,0.118,0.253,1.000,1083.000,14.000,30.000,0.000,0.000:
0001
0010
0100
1000
0010
0100
0001
0010
,
0002
1000
1003
0002
0100
0103
0001
0010
,
0100
1000
0010
0100
0001
1000
0010
0100
,
0020
1000
1030
0002
0100
0103
0001
1000
,
0100
0010
0100
1000
0001
0100
0010
1000
,
0002
0010
0013
0200
1000
1300
0010
0100
,
0001
0100
0010
1000
0001
0010
0100
1000
,
0200
1000
1300
0002
1000
1003
0010
0100
,
0001
0010
0001
0100
0010
1000
0001
0010
,
0200
1000
1300
0020
0100
0130
0001
0100
,
0010
1000
0100
0010
0001
0100
0010
1000
,
0002
0010
0013
0200
0010
0310
0001
0100
,
0001
1000
0100
1000
0010
0100
0001
1000
,
0200
0010
0310
0002
0100
0103
0010
1000
,
0001
1000
0100
1000
0010
0100
0001
1000
,
0200
0010
0310
0001
1000
0010
0100
0001
,
1001
0000
0000
1001
0000
0000
0000
0000
,
0000
0000
0000
0010
,
0100
0101
0000
1001
0000
0000
0000
0000
,
0000
0000
0000
0000
0000
1100
1000
0000
,
0101
0000
0001
0101
0000
0000
0110
0000
,
0110
0000
0000
0010
0110
1000
0000
0001
,
0100
0100
0001
1000
1000
0020
0000
0130
,
0100
0000
0001
0010
0010
0002
0000
1003
,
0100
0100
0010
0200
0000
1300
0000
0001
,
0100
0100
0001
2000
0000
3010
0010
0100
,
0100
0001
0001
0200
0000
0310
0000
0100
,
0001
1000
0001
1000
0010
0120
0000
0130
,
0001
0100
0010
2000
0000
3001
0000
0010
,
0100
0010
0001
0011
0000
0110
0000
1000
,
0100
1000
0000
0001
0010
0000
0000
0000
,
2002
0000
0000
3003
,
1000
0100
0010
0001
1000
0100
1000
0001
0010
0100
0010
0001
1000
0100
1000
0001
,
1000
0010
0100
0001
1000
0001
0100
0010
1000
0001
0100
0001
1000
0010
0100
0001
,
1000
0100
0010
0100
1000
0001
0010
0001
1000
0100
1000
0100
0010
0001
1000
0001
,
0100
0010
0100
0001
1000
0010
0100
0001
1000
0001
0100
0001
1000
0010
0100
0001
,
1000
0001
0010
0100
1000
0001
1000
0100
0010
0001
1000
0100
1000
0001
1000
0001
,
0100
0010
1000
0001
0100
0001
1000
0010
1000
0010
0100
0001
1000
0001
0100
0010
,
1000
0001
1000
0100
0010
0001
1000
0001
0010
0100
0010
0001
1000
0001
0010
0001
,
1000
0010
0100
0001
0100
0010
1000
0001
0100
0001
1000
0010
0100
0001
1000
0010
,
1000
0001
0010
0100
0010
0001
1000
0100
0010
0001
1000
0100
1000
0001
0010
0100
,
1000
0001
0100
0010
0100
0001
1000
0010
0100
0001
1000
0010
1000
0001
0100
0001
,
1000
0100
0010
0100
1000
0001
0010
0001
1000
0100
0010
0001
1000
0001
0010
0001
,
1000
0010
0100
0001
1000
0010
0100
0001
1000
0010
0100
0010
0100
0001
0100
0010
,
1000
0001
0010
0001
1000
0100
1000
0001
0010
0100
0010
0001
1000
0100
0010
0001
,
1000
0010
0100
0001
0100
0010
1000
0001
0100
0010
1000
0001
0100
0001
1000
0010
,
1000
0001
1000
0100
1000
0001
0010
0100
0010
0001
1000
0100
1000
0001
1000
0001
,
0100
0010
1000
0010
0100
0001
1000
0100
0020
0000
0000
0000
0000
0000
0000
0000
,
0031
1000
0100
0010
0100
1000
0001
0010
0100
1000
0001
0010
0100
1000
0100
1000
,
0001
0100
0010
1000
0010
0100
0001
1000
0010
1000
0001
0100
0010
1000
0010
0100
,
0001
1000
0100
1000
0001
0010
0100
1000
0001
1000
0100
0010
0100
1000
0001
0010
,
0001
1000
0010
0100
0001
1000
0010
1000
0001
0100
0010
0100
0001
1000
0010
0100
,
0001
1000
0100
1000
0001
0010
0001
1000
0100
0010
0100
1000
0001
1000
0100
0010
,
0001
1000
0010
0100
0001
1000
0010
1000
0010
0100
0001
0100
0001
1000
0010
0100
,
0001
1000
0100
0010
0100
1000
0001
0010
0100
0010
0001
1000
0100
1000
0001
0010
,
0001
1000
0001
0100
0010
1000
0010
0100
0001
1000
0001
0100
0001
0100
0010
1000
,
0001
0010
0001
1000
0100
0010
0001
0010
0001
1000
0100
0010
0001
1000
0001
0010
,
0001
1000
0010
0100
0001
1000
0010
0100
0001
0100
0010
1000
0001
0100
0001
1000
,
0001
0010
0100
1000
0001
0010
0100
0010
0001
1000
0100
1000
0001
0010
0100
1000
,
0001
0100
0010
0100
0001
1000
0010
1000
0001
0100
0001
1000
0001
0100
0010
1000
,
0001
0010
0100
1000
0100
0010
0001
1000
0100
1000
0100
0010
0100
1000
0001
0010
,
0001
1000
0010
0100
0001
1000
0010
0100
0010
1000
0001
0100
0010
1000
0001
0100
,
0001
1000
0100
0010
0100
1000
0001
0010
0001
1000
0100
0010
0100
1000
0001
0010
,
0001
0000
1000
0000
0001
0000
0010
0000
0001
1000
0001
1000
0001
1000
0001
1000
,
0001
0000
0100
0000
0001
0000
0010
0000
0001
0000
0100
0000
0010
0000
1000
0100
,
0010
0000
0001
0000
1000
0000
0010
0000
0100
0000
0010
0000
1000
0000
0001
0100
,
0001
0000
0010
0000
0001
0000
0100
0000
0010
0000
1000
0000
0100
0000
0010
0100
,
1000
0000
0010
0000
0100
0000
0001
0000
0100
0000
0010
0000
1000
0000
0010
1000
,
0001
0000
0010
0000
0100
0000
0010
0000
0001
0000
0100
0000
0010
0000
1000
0010
,
0100
0000
0001
0000
1000
0000
0100
0000
0010
0000
0100
0000
1000
0000
0010
0100
,
0001
0000
1000
0000
0001
0000
0100
0000
0001
0000
0010
0000
0100
0000
1000
0100
,
1000
0000
0001
0000
0100
0000
0010
0000
0100
0000
0001
0000
1000
0000
0001
1000
,
0010
1000
0100
1000
0001
1000
0010
0100
,
0100
0001
0010
0010
0100
1000
1000
0001
,
0001
0010
0100
0010
0001
1000
0010
0100
,
0100
0001
0100
0100
0010
1000
1000
0010
,
0010
1000
0010
0100
0001
0010
0001
1000
,
1000
0010
0100
0100
0001
1000
1000
0001
,
0001
1000
0010
0100
0001
1000
0010
1000
,
1000
0001
0010
0100
2000
3200
0320
0032
,
0103
0010
1000
0001
0100
0010
1000
0010
0100
0001
1000
0010
0100
0001
0100
0001
,
1000
0100
0010
0100
1000
0001
0010
0100
0010
0001
1000
0100
1000
0001
0010
0100
,
1000
0001
0100
0010
0100
0001
1000
0010
0100
0001
1000
0010
1000
0001
0100
0001
,
1000
0100
0010
0100
1000
0001
0010
0001
1000
0100
0010
0001
1000
0001
0010
0001
,
1000
0010
0100
0001
1000
0010
0100
0001
1000
0010
0100
0010
0100
0001
0100
0010
,
1000
0001
0010
0001
1000
0100
1000
0001
0010
0100
0010
0001
1000
0100
0010
0001
,
1000
0010
0100
0001
0100
0010
1000
0001
0100
0010
1000
0001
0100
0001
1000
0010
,
1000
0001
1000
0100
1000
0001
0010
0100
0010
0001
1000
0100
1000
0001
1000
0100
,
1000
0001
0100
0010
1000
0010
0100
0001
1000
0010
1000
0001
0100
0010
0100
0001
,
1000
0100
0010
0100
1000
0001
0010
0001
1000
0100
0010
0100
0010
0001
0010
0001
,
1000
0010
0100
0001
1000
0001
0100
0010
1000
0001
0100
0001
1000
0010
0100
0001
,
1000
0100
1000
0001
0010
0001
1000
0100
0010
0001
1000
0001
1000
0001
0010
0100
,
1000
0001
0100
0010
1000
0001
0100
0001
1000
0010
1000
0010
0100
0001
1000
0001
,
0010
0100
0010
0001
1000
0100
1000
0001
0010
0100
1000
0001
1000
0100
0010
0001
,
1000
0100
0010
0001
0010
0100
1000
0001
,
0100
0000
0010
0000
1000
0000
0010
0000
0100
0001
1000
0100
0010
0001
1000
0010
,
0200
0000
0000
0000
0000
0000
0000
0300
;
