#TITLE:Holiday;
#SUBTITLE:;
#ARTIST:Greenday;
#TITLETRANSLIT:;
#SUBTITLETRANSLIT:;
#ARTISTTRANSLIT:;
#CREDIT:;
#BANNER:Holiday-bn.png;
#BACKGROUND:Holiday-bg.png;
#LYRICSPATH:;
#CDTITLE:BEN original.png;
#MUSIC:Holiday.ogg;
#OFFSET:-0.180;
#SAMPLESTART:46.458;
#SAMPLELENGTH:14.800;
#SELECTABLE:YES;
#DISPLAYBPM:146.000;
#BPMS:0.000=146.490;
#STOPS:144.000=0.800
,258.000=0.800
;
#BGCHANGES:;
// cache tags:
#FIRSTBEAT:16.000;
#LASTBEAT:270.000;
#SONGFILENAME:Songs/lvsb tourney pack/Holiday - Greenday/Holiday.sm;
#HASMUSIC:1;
#HASBANNER:0;
#MUSICLENGTH:115.800;
// end cache tags

//---------------dance-single - Blank----------------
#NOTES:
     dance-single:
     Blank:
     Beginner:
     1:
     0.104,0.144,0.017,0.000,0.000,82.000,2.000,0.000,0.000,0.000:










0000
0000
0000
0000
,
0000
0000
0000
0000
,
0000
0000
0000
0000
,
0000
0000
0000
0000
,
1000
0000
0000
0000
,
0001
0000
0000
0000
,
0010
0000
0000
0000
,
0100
0000
0000
0000
,
1000
0000
0000
0000
,
0001
0000
0000
0000
,
0010
0000
0000
0000
,
0100
0000
0000
0000
,
0001
0000
0000
0000
,
1000
0000
0000
0000
,
0010
0000
0000
0000
,
0100
0100
0100
0000
,
0100
0000
0000
0000
,
0001
0000
0000
0000
,
1000
0000
0000
0000
,
0010
0000
0000
0000
,
0001
0000
0000
0000
,
1000
1000
1000
0000
,
0001
0000
0000
0000
,
1000
0000
0010
0000
,
0001
0000
0000
0000
,
1000
0000
0000
0000
,
0100
0000
0000
0000
,
0001
0000
0000
0000
,
1000
0000
0001
0000
,
1000
0000
0000
0000
,
0001
0000
1000
0000
,
0001
0000
0000
0000
,
0010
0000
0100
0000
,
0010
0000
0000
0000
,
0100
0000
0010
0000
,
0100
0000
0000
0000
,
1001
0000
1000
0000
,
0000
0000
0001
0000
,
0000
0000
1000
0000
,
0000
0000
0010
0000
,
0000
0000
0001
0000
,
0000
0000
1000
1000
,
1000
0000
0000
0000
,
0000
0000
0001
0001
,
0001
0001
0001
0000
,
0000
0000
1000
0000
,
0000
0000
0001
0000
,
0000
0000
0010
0000
,
0000
0000
0100
0000
,
0000
0000
0001
0000
,
0000
1000
1000
0000
,
0000
0000
0001
0000
,
0000
0000
0100
0000
,
0000
0000
1000
0000
,
0000
0000
0001
0000
,
0000
0000
0010
0000
,
0010
0000
0100
0000
,
0000
0000
1000
0000
,
0000
0000
0001
0000
,
0000
0000
0100
0000
,
0000
0000
0010
0000
,
0000
0000
1000
0000
,
0000
0000
0001
0000
,
0000
0000
0100
0000
,
0000
0000
1001
0000
,
1000
0000
0001
0000
,
0010
0010
0010
0000
;

//---------------dance-single - Blank----------------
#NOTES:
     dance-single:
     Blank:
     Hard:
     8:
     0.472,0.525,0.380,0.017,0.505,337.000,44.000,2.000,0.000,0.000:







0000
0000
0000
0000
,
0000
0000
0000
0000
,
0000
0000
0000
0000
,
0000
0000
0000
0000
,
1000
1001
0010
0101
,
0010
0000
0000
1001
0000
0000
0010
0100
0010
0100
0010
0100
,
0010
0101
0010
1100
,
0010
0000
0000
0110
0000
0000
0001
0010
0001
0010
0001
0010
,
0001
0100
0001
0010
,
0001
0100
0010
1000
,
0001
0010
1000
0100
,
0001
0000
0000
0100
0000
0000
1000
0000
0010
1000
0000
0010
,
0001
0000
0000
0100
0000
1000
0001
0000
0000
0010
0000
0100
,
1000
0001
0100
0000
,
1000
0000
0000
0001
0000
0010
0001
0000
0000
0100
0000
0010
,
1010
1001
0110
0011
,
1100
0000
0000
0001
0000
0000
0100
0000
0000
1000
0000
0100
,
0010
0001
0010
0100
,
1000
0000
0000
1000
0000
0001
0000
0000
0000
0000
0000
0000
,
0001
0010
0001
0010
0100
1000
0100
1000
0010
0100
0010
0100
,
0001
0000
0000
0100
0000
0100
1000
0000
0000
1000
0000
1000
,
0010
0010
0101
0010
,
1000
0000
0000
0001
0000
0001
0010
0000
0000
0001
0000
1000
,
1100
1001
0110
0101
,
1010
0001
0110
1000
,
0101
0000
0000
0010
0000
1000
0001
0000
0000
0010
0000
0000
,
0100
0000
0000
1000
0000
0001
0000
0000
0010
0001
0000
0000
,
0001
0100
0001
0010
0001
0010
0100
0010
0100
1000
0010
0100
,
0001
0000
0000
1000
0000
0010
0100
0000
0000
0001
0000
0000
,
0010
0000
0100
0000
0000
0100
0000
0000
1000
0000
0000
0000
,
0010
0000
0000
0100
0000
0000
0001
0000
0010
0000
0000
0011
,
0000
0100
1000
0001
,
0010
0000
0000
0001
0000
0000
0100
0000
0000
0010
0000
1000
,
0000
0000
1000
0000
0000
0001
0000
0000
0010
0000
0000
0000
,
1001
0000
0000
0000
0000
0000
0010
0000
0100
0000
0000
0011
,
0000
0000
0000
0100
1000
0001
0010
0100
1000
0001
0100
0010
,
1000
1001
0010
1100
,
0001
0110
1000
0011
,
0100
0000
0010
0001
0000
0100
0010
0000
0000
0001
0000
0000
,
0010
0100
1000
0010
,
0100
0001
1000
0100
0010
0001
0100
0000
0000
1000
0000
0010
,
0001
0000
0000
0001
0000
0100
1000
0000
0000
0100
0000
0000
,
1001
0000
0000
0000
0000
0000
0100
0000
0000
0010
0000
0001
,
0100
0000
0000
0010
0000
1000
1010
0000
0000
0011
0000
0000
,
0101
0110
1001
0010
,
1000
0000
0000
0001
0000
0100
0010
0000
0000
1000
0000
0000
,
0001
0000
0000
0100
0000
0000
0010
0000
0000
0010
0000
1000
,
0000
0000
1000
0001
0000
0000
0100
0010
1000
0001
0100
0010
,
1000
0001
0100
0010
1000
0001
0100
0000
0000
1000
0000
0001
,
0010
0000
0000
0100
0000
0000
1000
0000
0001
0100
0000
0000
,
0010
0000
0000
1001
0000
0000
0110
0000
0000
0001
0000
0010
,
0100
0000
0000
1000
0000
0001
0011
0000
0000
1010
0000
0000
,
0101
0110
1001
0101
,
0010
0000
0000
1000
0000
0010
0100
0000
0000
0001
0000
0000
,
1000
0000
0000
0001
0000
0000
0100
0000
0000
0100
0000
0010
,
0000
0000
1000
0001
0000
0000
0100
0001
0010
0100
0010
0001
,
1000
0100
0010
0001
1000
0001
0010
0000
0000
1000
0000
0000
,
0010
0000
0000
0100
0000
0000
1000
0000
0001
0000
0000
0010
,
0000
0000
0001
0000
0000
0000
0100
0000
0000
0010
0000
0000
,
1000
0000
0001
0000
0000
0010
0000
0000
0000
0001
0010
0100
,
1000
0100
0010
0001
1000
0100
0010
0000
0000
0010
0000
0000
,
1000
0000
0000
0001
0000
0010
0000
0000
0010
0000
0000
0001
,
0000
0000
0100
0000
0000
0000
1001
0000
0000
0000
0000
0000
,
0010
0000
0100
0000
0000
1001
0000
0000
0000
0100
0010
0001
,
0010
0100
1000
0001
0100
0010
1000
0000
0000
0011
0000
0000
,
1000
0001
0010
0001
,
1000
0000
0001
0010
0000
0000
2002
0000
0000
0000
0000
0000
,
0000
0000
3003
0000
;

//---------------dance-single - Blank----------------
#NOTES:
     dance-single:
     Blank:
     Challenge:
     9:
     0.671,0.641,0.397,0.484,0.825,442.000,46.000,56.000,0.000,0.000:



0000
0000
0000
0000
,
0000
0000
0000
0000
,
0000
0000
0000
0000
,
0000
0000
0000
0000
,
0001
0011
0100
1010
,
0001
0000
0000
0110
0000
0000
0001
0010
0100
1000
0010
0100
,
0001
1001
0010
0101
,
0010
0000
0000
1001
0000
0000
0010
1000
0100
0010
0001
1000
,
0100
0000
0100
0010
0000
0010
0001
0000
0001
0010
0000
0010
,
0100
0000
0100
1000
0000
1000
0010
0000
0010
0100
0000
0100
,
1000
0000
1000
0010
0000
0010
0100
0000
0100
0001
0000
0001
,
1000
0000
1000
0010
0000
0010
0001
0000
0001
1000
0000
1000
,
0002
0000
0000
0013
0000
0001
0200
0000
0000
0310
0000
1000
,
0002
0013
1001
0010
,
2000
0000
0000
3100
0000
0010
0002
0000
0000
0103
0000
0010
,
2001
0000
0000
0000
0000
3000
0210
0000
0000
0000
0000
0300
0012
0000
0000
0000
0000
0003
1200
0000
0000
0000
0000
0300
,
0001
0000
0000
0011
0000
0000
0100
0000
0010
0002
0000
0000
,
0103
0000
0010
2000
0000
0000
3010
0000
0100
2000
0000
0000
,
3001
0010
0100
1000
0000
0000
0010
0100
0001
1000
0000
0000
,
0010
0001
0010
0100
1000
0010
0100
0001
0010
0100
1000
0001
,
0010
0000
0000
0001
0000
0010
0002
0000
0000
0103
0000
0010
,
2000
3001
0011
0100
,
2000
0000
0000
3001
0000
0100
0020
0000
0000
1030
0000
0001
,
0021
0000
0000
0000
0000
0030
1002
0000
0000
0000
0000
0003
2100
0000
0000
0000
0000
3000
0021
0000
0000
0000
0000
0030
,
1000
0000
0000
0110
0000
0000
0100
0000
0010
0002
0000
0000
,
0103
0000
0010
2000
0000
0000
3001
0000
0010
0200
0000
0000
,
1300
0001
0010
0100
0000
0000
1000
0001
0100
0010
0000
0000
,
0001
0010
0100
1000
0001
0100
0010
1000
0100
0010
0100
1000
,
0001
0000
0001
1000
0000
1000
0100
0000
0100
0010
0100
1000
,
0001
0000
0001
0010
0000
0010
0100
0000
0100
0010
0001
1000
,
0100
0000
0100
0010
0000
0010
0001
0000
0001
0010
0100
0010
,
0001
0000
0001
0010
0000
0010
0100
0000
0100
1000
0001
0100
,
0010
0000
0010
1000
0000
1000
0100
0000
0100
0010
0001
1000
,
0010
0000
0010
0100
0000
0100
0010
0000
0010
1000
0010
0100
,
0001
0000
0001
0100
0000
0100
0010
0000
0010
1000
0001
0010
,
0100
0000
0100
0010
0000
0010
0001
0000
0001
0010
0100
1000
,
2002
3003
0000
0000
0010
0000
0000
0000
0101
0000
0000
0000
0010
0000
0000
0000
,
1100
0010
1001
0100
,
0010
0001
0010
0100
1000
0001
0010
0000
0000
1001
0000
0000
,
0010
0101
0010
1100
,
0001
0010
0100
1000
0001
0100
0020
0000
0000
1030
0000
0001
,
0200
0000
0000
0310
0000
0100
0002
0000
0000
1003
0000
0000
,
1001
0000
0000
0100
0000
0000
0020
0000
0000
0031
0000
0100
,
0020
0000
0000
0000
0000
0000
1030
0000
0000
0000
0001
0000
0021
0000
0000
0000
0000
0030
1002
0000
0000
0000
0000
0003
,
1200
0000
0000
0000
0000
0300
0012
0000
0000
0000
0000
0003
0120
0000
0000
0000
0000
0030
0001
0000
0000
0000
1000
0000
,
0200
0000
0000
0310
0000
1000
0002
0000
0000
0013
0000
0100
,
2000
0000
0000
3001
0000
0000
1000
0100
0010
0001
0000
0000
,
0100
0010
1000
0001
0000
0000
1000
0010
0100
0001
0010
0100
,
1000
0001
0100
0010
1000
0001
0020
0000
0000
1030
0000
0001
,
0200
0000
0000
0301
0000
0100
2000
0000
0000
3001
0000
0010
,
0200
0000
0000
0000
0000
0300
1001
0000
0000
0000
0000
0000
0110
0000
0000
0000
0000
0000
0001
0000
0000
0000
0100
0000
,
0020
0000
0000
0000
0000
0000
1030
0000
0000
0000
0001
0000
0201
0000
0000
0000
0000
0300
1002
0000
0000
0000
0000
0003
,
0120
0000
0000
0000
0000
0030
2100
0000
0000
0000
0000
3000
0012
0000
0000
0000
0000
0000
0203
0000
0000
0000
0000
0000
,
1300
0000
0010
0200
0000
0000
0301
0000
0100
2000
0000
0000
,
3001
0000
0010
0200
0000
0000
1300
0001
0100
0010
0000
0000
,
0001
0010
0100
1000
0000
0000
0100
0010
0001
1000
0001
0100
,
0010
1000
0100
0010
0001
1000
0100
0000
0100
0010
0000
0010
,
0001
0000
0001
0010
0100
1000
0001
0000
0001
0010
0000
0010
,
0100
0000
0100
1000
0100
0010
0001
0000
0001
0010
0000
0010
,
0100
0000
0100
1000
0001
0010
0100
0000
0100
0010
0000
0010
,
0100
0000
0100
1000
0100
0010
0001
0000
0001
1000
0000
1000
,
0001
0000
0001
0010
0100
1000
0001
0000
0001
0100
0000
0100
,
0010
0000
0010
1000
0001
0010
0100
0000
0100
0010
0000
0010
,
0001
0000
0001
0100
0001
1000
0100
0000
0100
1000
0000
1000
,
0010
0000
0000
0000
0000
0000
0000
0000
0010
0000
0000
0000
0100
0000
0000
0000
0001
0000
0000
0000
1000
0000
0000
0000
2002
0000
0000
3003
0000
0000
0000
0000
0000
0000
0000
0000
0100
0000
0000
0000
0000
0000
0000
0000
0000
0000
0000
0000
,
0011
0000
0100
0011
0000
0000
1100
0000
0010
1100
0000
0000
,
1010
0101
2002
0000
,
0000
0000
3003
0000
;

//---------------dance-single - Blank----------------
#NOTES:
     dance-single:
     Blank:
     Medium:
     6:
     0.380,0.408,0.181,0.250,0.069,258.000,21.000,29.000,0.000,0.000:





0000
0000
0000
0000
,
0000
0000
0000
0000
,
0000
0000
0000
0000
,
0000
0000
0000
0000
,
1000
0001
0010
0001
,
0100
0000
0000
0010
0000
0000
1000
0000
1000
0001
0000
0001
,
0010
0001
1000
0010
,
0100
0000
0100
1000
0000
1000
0010
0000
0010
0100
0000
0100
,
0001
1000
0001
0010
,
0001
1000
0200
0000
,
0301
0010
0100
0001
,
0100
1000
0200
0000
,
0310
1000
0001
0010
,
0100
1000
0002
0000
,
1003
0100
0010
0001
,
2000
3002
0203
0320
,
1030
0001
0010
0001
,
1000
0100
0001
0010
,
0100
1000
0002
0000
,
1003
0010
0001
0100
,
1000
0001
0010
0001
,
1000
0100
0020
0000
,
0031
1000
0010
0001
,
0200
0320
2030
3002
,
0013
0100
1000
0001
,
0100
0001
0010
0100
,
1000
0001
0200
0000
,
0310
0000
1000
0001
0000
0100
0010
0000
0100
1000
0000
0001
,
0010
1000
0010
0001
,
1001
0100
0010
0001
,
1100
0001
0100
0010
,
1001
0100
0010
0001
,
0110
0001
0010
0100
,
0011
0100
1000
0001
,
0110
0001
0010
1000
,
0011
0100
1000
0001
,
1100
0001
0011
0100
,
1000
0001
0100
0010
,
1000
0000
1000
0100
0000
0100
0010
0000
0000
0001
0000
0000
,
0100
1000
0001
0010
,
1000
0000
1000
0001
0000
0001
0010
0000
0000
1000
0000
0000
,
0001
0010
0001
0100
,
0002
0000
1003
0100
,
0010
0001
2000
3002
,
0023
0230
1300
0001
,
0100
1000
0010
0001
,
0010
0100
1000
1000
,
0002
0000
1000
1000
,
0010
0010
0103
1000
,
0100
0001
0010
0001
,
2000
0001
3001
0100
,
0010
0001
0200
0320
,
2030
3002
0013
0100
,
1000
0001
0010
0001
,
1000
0100
0010
0001
,
2000
0000
3001
0010
,
0100
0001
1001
0010
,
0100
0001
0011
0100
,
1000
0001
0110
0001
,
0010
1000
0101
0010
,
1000
0001
1010
0001
,
0010
0100
0011
1000
,
0100
0001
0110
1000
,
0001
0010
1100
0001
,
0100
0010
1001
0002
,
1003
0000
0100
1000
0000
0000
0001
0000
0010
0001
0000
0000
,
0011
1001
2200
0000
,
0000
0000
3300
0000
;

//---------------dance-single - Blank----------------
#NOTES:
     dance-single:
     Blank:
     Easy:
     4:
     0.340,0.379,0.043,0.458,0.000,218.000,5.000,53.000,0.000,0.000:




0000
0000
0000
0000
,
0000
0000
0000
0000
,
0000
0000
0000
0000
,
0000
0000
0000
0000
,
1000
0000
0001
0000
,
0010
0000
2000
0000
,
3001
0000
0010
0000
,
0001
0000
0200
0000
,
0310
0000
1000
0000
,
0001
0000
0020
0000
,
0130
0000
1000
0000
,
0001
0000
0200
0000
,
0310
0000
1000
0000
,
0001
0010
0001
0000
,
1000
0000
0001
0000
,
0100
1010
0001
0011
,
0100
0000
1000
0000
,
0001
0010
0001
1000
,
0100
0010
0001
0000
,
1000
0000
0001
0000
,
0010
0001
1000
0000
,
0001
1000
0010
0000
,
0100
1000
0001
0000
,
0020
0032
2003
3200
,
0310
0000
0001
0000
,
2000
3010
0002
0103
,
1000
0010
0001
0000
,
0200
1300
0020
0130
,
2000
0001
0001
0001
,
3002
1000
1000
1000
,
0023
0100
0100
0100
,
0032
1000
1000
1000
,
0203
0010
0010
0010
,
0302
1000
1000
1000
,
0203
0010
0010
0010
,
0302
0010
0010
0013
,
1001
1000
0001
0010
,
0001
1000
0100
0010
,
0002
1000
1003
0010
,
0001
1000
0100
0010
,
0002
1000
1000
0010
,
0003
0010
0100
1000
,
0002
1000
1003
0010
,
1000
0100
1000
0002
,
0023
0230
2300
3001
,
0100
1000
0010
0001
,
0010
0001
0100
1000
,
0100
0010
0002
1000
,
1000
1000
1003
0010
,
1000
0001
0010
0100
,
0010
2000
3001
0100
,
0010
0001
0200
0302
,
0023
0230
1300
0010
,
0001
1000
0100
0010
,
0001
0100
0010
0001
,
1000
0100
2000
3001
,
0020
0031
2000
3010
,
0002
0013
2000
3100
,
0020
0130
2000
3010
,
0002
0103
0020
0031
,
2000
3100
0020
0031
,
2000
3100
0020
0031
,
0200
1300
0002
0013
,
2000
3100
0002
0103
,
0020
0031
1001
0001
,
1000
0010
0001
0100
,
0010
1000
0220
0000
,
0000
0000
0330
0000
;
