#TITLE:Papaver Rhoeas;
#SUBTITLE:;
#ARTIST:DJ Sharpnel;
#TITLETRANSLIT:;
#SUBTITLETRANSLIT:;
#ARTISTTRANSLIT:;
#CREDIT:[D4RK];
#BANNER:papaver bn.png;
#BACKGROUND:papaver bg.png;
#LYRICSPATH:;
#CDTITLE:;
#MUSIC:Papaver Rhoeas.ogg;
#OFFSET:1.325;
#SAMPLESTART:109.210;
#SAMPLELENGTH:21.052;
#SELECTABLE:YES;
#DISPLAYBPM:182.000;
#BPMS:0.000=182.400,19.000=136.800,19.500=273.600,20.000=182.400;
#STOPS:;
#BGCHANGES:;
// cache tags:
#FIRSTBEAT:20.000;
#LASTBEAT:664.000;
#SONGFILENAME:Songs/SHARPNELSTREAMZ v2/Papaver Rhoeas/Papaver Rhoeas.sm;
#HASMUSIC:1;
#HASBANNER:1;
#MUSICLENGTH:221.000;
// end cache tags

//---------------dance-single - 15+ (D4RKTYLR)----------------
#NOTES:
     dance-single:
     15+ (D4RKTYLR):
     Challenge:
     15:
     1.000,1.000,0.100,0.199,1.000,2090.000,22.000,44.000,120.000,0.000:
0000
0000
0000
0000
,
0000
0000
0000
0000
,
0000
0000
0000
0000
,
0000
0000
0000
0000
,
0000
0000
0000
0000
,
1001
1000
0010
0100
0001
0010
0100
0010
,
0001
0100
0010
1000
0001
0010
0100
0010
,
0001
0000
1000
0000
0010
0100
0010
1000
0001
1000
0100
0010
0001
1000
0010
0100
,
0002
0000
0000
0000
0000
0000
0003
0000
0000
0000
0000
0000
2000
0000
0000
0000
0000
0000
3000
0000
0000
0000
0000
0000
0001
0000
0100
0000
0001
0000
0100
0000
0001
0000
0100
0000
0001
0000
0000
1000
0000
0000
0010
0000
0000
0100
0000
0000
,
M001
0000
1000
0100
0010
0001
1000
0000
0001
0000
1000
0010
0100
0001
1000
0000
,
0001
0000
1000
0001
0010
0100
1000
0000
0001
0000
1000
0001
0100
0010
1000
0000
,
0001
0000
1000
0100
1000
0001
0010
0000
0001
0000
1000
0010
1000
0001
0100
0000
,
0001
0000
1000
0100
1000
0001
0010
0000
0001
0000
1000
0010
1000
0001
0100
0000
,
0001
0000
1000
0100
0010
0100
1000
0000
0001
0000
1000
0010
0100
0010
1000
0000
,
0001
0000
1000
0100
0010
0100
1000
0000
0001
0000
1000
0010
0100
0010
1000
0000
,
0001
0000
1000
0010
0100
0001
0010
0000
0001
0000
1000
0100
0010
0001
0100
0000
,
0002
0000
0000
0003
0000
0000
2000
0000
0000
3000
0000
0000
0001
1000
0001
1000
0001
1000
0002
0000
0000
0003
0000
0000
,
1M00
0000
0001
0100
0010
1000
0001
0000
1000
0000
0001
0010
0100
1000
0001
0000
,
1000
0000
0001
1000
0100
0010
0001
0000
1000
0000
0001
1000
0010
0100
0001
0000
,
1000
0000
0001
0010
0001
1000
0100
0000
1000
0000
0001
0100
0001
1000
0010
0000
,
1000
0000
0001
0010
0001
1000
0100
0000
1000
0000
0001
0100
0001
1000
0010
0000
,
1000
0000
0001
0010
0100
0010
0001
0000
1000
0000
0001
0100
0010
0100
0001
0000
,
1000
0000
0001
0010
0100
0010
0001
0000
1000
0000
0001
0100
0010
0100
0001
0000
,
1000
0000
0001
0100
0010
1000
0100
0000
1000
0000
0001
0010
0100
1000
0010
0000
,
2000
0000
0000
0000
0000
0000
3000
0000
0000
0000
0000
0000
0002
0000
0000
0000
0000
0000
0003
0000
0000
0000
0000
0000
1000
0000
0100
0000
1000
0000
0100
0000
1000
0000
0100
0000
1000
0000
0000
0001
0000
0000
0010
0000
0000
0100
0000
0000
,
1000
0010
1000
0001
0010
0001
1000
0100
1000
0010
1000
0001
0010
0001
1000
0001
,
1000
0100
1000
0001
0100
0001
1000
0010
1000
0100
1000
0001
0100
0001
1000
0001
,
0010
0100
0010
0001
1000
0001
0010
0100
1000
0001
1000
0100
0010
0100
1000
0001
,
0100
0010
0100
0001
1000
0001
0100
0010
1000
0001
1000
0010
0100
0010
1000
0001
,
0010
0100
1000
0010
0100
0001
1000
0001
0010
0100
1000
0010
0100
0001
1000
0001
,
0010
0100
1000
0010
0100
0001
1000
0001
0010
0100
1000
0010
0100
0001
1000
0100
,
0010
0100
1000
0001
0100
0001
1000
0100
0010
0100
1000
0001
0100
0001
1000
0100
,
0010
0100
1000
0001
0100
0001
1000
0100
0010
0100
1000
0001
0100
0001
1000
0010
,
1000
0100
1000
0001
0100
0001
1000
0010
1000
0100
1000
0001
0100
0001
1000
0001
,
1000
0010
1000
0001
0010
0001
1000
0100
1000
0010
1000
0001
0010
0001
1000
0001
,
0100
0010
0100
0001
1000
0001
0100
0010
1000
0001
1000
0010
0100
0010
1000
0001
,
0010
0100
0010
0001
1000
0001
0010
0100
1000
0001
1000
0100
0010
0100
1000
0001
,
0100
0010
1000
0100
0010
0001
1000
0001
0100
0010
1000
0100
0010
0001
1000
0001
,
0100
0010
1000
0100
0010
0001
1000
0001
0100
0010
1000
0100
0010
0001
1000
0010
,
0100
0010
1000
0001
0010
0001
1000
0010
0100
0010
1000
0001
0010
0001
1000
0010
,
2000
0000
0000
0000
0000
0000
3000
0000
0000
0000
0000
0000
0002
0000
0000
0000
0000
0000
0003
0000
0000
0000
0000
0000
1000
0000
0001
0000
1000
0000
0001
0000
1000
0000
0001
0000
1000
0000
0000
0100
0000
0000
0010
0000
0000
0001
0000
0000
,
2000
0000
3MM0
0000
,
0000
0000
0000
0000
,
M000
0M00
0000
M000
0M00
0000
M000
0M00
0000
M000
0M00
0000
M000
0M00
0000
M000
,
0M00
0000
00M0
000M
0000
00M0
000M
0000
00M0
000M
0000
00M0
000M
0000
00M0
000M
,
M000
00M0
0000
M000
00M0
0000
M000
00M0
0000
M000
00M0
0000
M000
00M0
0000
M000
,
00M0
0M00
0000
000M
0M00
0000
000M
0M00
0000
000M
0M00
0000
000M
0M00
0000
000M
,
0M00
00M0
M000
00M0
M000
00M0
M000
00M0
M000
00M0
M000
00M0
M000
00M0
M000
00M0
,
M000
000M
0M00
000M
0M00
000M
0M00
000M
0M00
000M
0M00
000M
0M00
000M
0M00
000M
,
M000
0M00
M000
0M00
M000
0M00
M000
0M00
M000
0M00
M000
0M00
M000
0M00
M000
0M00
,
00M0
000M
00M0
000M
00M0
000M
00M0
000M
00M0
000M
00M0
000M
00M0
000M
00M0
0000
,
1001
0000
0001
0000
1000
0000
0001
0000
2000
0000
0000
3000
2000
0000
0000
3000
,
0010
0200
0000
0302
0000
0000
1003
0000
,
0010
0100
0010
0100
0002
0000
2003
0000
,
3200
0000
0300
0010
0001
0000
1000
0000
,
0001
0100
0001
0100
0010
0000
1000
0000
,
0100
0010
0001
1000
,
0020
0130
0002
0013
,
0200
1300
0001
1000
,
1010
0101
0011
1100
,
1001
0101
1010
1100
,
0011
1001
1100
0011
,
0101
1010
1001
0110
,
0100
0100
0001
0001
1000
1000
0010
0010
,
0100
0100
0001
0001
0010
0010
0100
0100
,
1000
0100
0010
0001
1000
0100
0010
0001
1000
0010
0100
0001
1000
0010
0100
0001
,
2000
0000
0000
0000
0000
0000
3000
0000
0000
0000
0000
0000
0002
0000
0000
0000
0000
0000
0003
0000
0000
0000
0000
0000
1000
0000
0001
0000
1000
0000
0001
0000
1000
0000
0001
0000
1000
0000
0000
0100
0000
0000
0010
0000
0000
0001
0000
0000
,
2M00
0M00
0M01
0M00
0M01
0M00
0M01
0M00
,
3M01
0010
0001
1000
0100
0010
0100
1000
0001
0010
0001
0100
0010
1000
0010
0100
,
0001
0010
0100
1000
0010
0100
0001
1000
0001
0010
0100
1000
0001
0100
0010
1000
,
0001
0100
0001
1000
0010
0100
0010
1000
0001
0100
0001
0010
0100
1000
0100
0010
,
0001
0100
0010
1000
0100
0010
0001
0100
0010
1000
0100
0010
0001
1000
0001
1000
,
0001
0100
0001
1000
0010
0100
0010
1000
0001
0100
0001
0010
0100
1000
0100
0010
,
0001
0100
0001
0100
0010
1000
0010
1000
0100
0010
0100
0010
0001
1000
0001
1000
,
0001
0100
0010
1000
0100
0010
0001
0100
0001
0010
0100
1000
0010
0100
0001
0010
,
0001
0100
0010
1000
0001
0100
0010
1000
0001
0100
0010
1000
0001
1000
0001
1000
,
0001
0010
0001
1000
0010
0100
0010
1000
0001
0010
0001
1000
0100
0010
0100
1000
,
0001
0010
0100
1000
0010
0100
0001
1000
0001
0010
0100
1000
0001
0100
0010
1000
,
0001
0100
0001
1000
0100
0010
0100
1000
0001
0100
0001
1000
0010
0100
0010
1000
,
0001
0100
0010
1000
0100
0010
0001
0100
0010
1000
0100
0010
0001
1000
0001
1000
,
0001
0100
0001
1000
0010
0100
0010
1000
0001
0100
0001
0010
0100
1000
0100
0010
,
0001
0100
0001
0010
0001
1000
0001
0010
0100
1000
0001
0100
0001
0100
0010
1000
,
0100
0010
0001
1000
0100
0010
0001
1000
0100
0010
0001
1000
0100
0010
0001
1000
,
0010
1000
0010
0100
0001
0100
0001
0010
0100
0010
0100
1000
0001
1000
0001
1000
,
0100
1000
0100
0010
0001
1000
0001
0010
0100
1000
0100
1000
0010
0100
0001
1000
,
0001
0100
0010
1000
0100
0010
0001
0100
0001
1000
0001
0010
0001
1000
0001
0010
,
0100
1000
0100
0010
0001
1000
0001
0100
0010
1000
0010
0100
0001
0010
0001
1000
,
0001
0100
0010
1000
0100
0010
0001
0100
0010
1000
0100
0010
0001
1000
0001
1000
,
0001
0010
0001
1000
0100
0010
0100
1000
0001
0010
0001
0100
0010
1000
0010
0100
,
0001
0010
0001
0010
0100
1000
0100
1000
0010
0100
0010
0100
0001
1000
0001
1000
,
0001
0010
0100
1000
0010
0100
0001
0010
0001
0100
0010
1000
0100
0010
0001
0100
,
0001
0010
0100
1000
0001
0010
0100
1000
0001
0010
0100
1000
0001
1000
0001
1000
,
0001
0010
0001
1000
0010
0100
0010
1000
0001
0010
0001
1000
0100
0010
0100
1000
,
0001
0010
0100
1000
0010
0100
0001
1000
0001
0010
0100
1000
0001
0100
0010
1000
,
0001
0100
0001
1000
0100
0010
0100
1000
0001
0100
0001
1000
0010
0100
0010
1000
,
0001
0100
0010
1000
0100
0010
0001
0100
0010
1000
0100
0010
0001
1000
0001
1000
,
0001
0010
0001
1000
0001
0100
0010
1000
0010
0100
0001
0010
0001
1000
0100
0010
,
0100
1000
0010
0100
0001
0010
0100
1000
0001
0010
0001
1000
0100
0010
0100
1000
,
0010
0100
0001
0010
0100
1000
0010
0100
0001
0010
0100
1000
0010
0100
0001
0010
,
0100
1000
0010
0100
0001
0010
0100
1000
0001
0100
0010
1000
0001
0010
0100
1000
,
0020
0230
0320
2030
3200
0320
0032
0023
,
0230
2300
3020
0230
0302
0203
0320
2030
,
3001
0010
0100
0010
0001
0010
0100
1000
0001
0100
0010
0100
0001
0100
0010
0100
,
0001
1000
0001
0010
0100
1000
0100
0010
0001
1000
0001
0100
0010
1000
0010
0100
,
0001
1000
0001
0100
0001
1000
0001
0100
0010
1000
0010
0100
0001
1000
0001
0010
,
0100
1000
0100
0010
0001
1000
0001
0010
0100
1000
0100
0010
0001
1000
0001
0100
,
0010
1000
0010
0100
0010
1000
0010
0100
0010
1000
0010
0100
0010
1000
0010
0100
,
0001
0000
0000
0010
0000
0000
0001
0000
0000
1000
0000
0000
0040
0000
0000
0000
0000
0000
0130
0000
0000
0000
0000
0000
0001
0000
1000
0000
0001
0000
1000
0000
0001
0000
1000
0000
0002
0000
0000
0000
0000
0000
0000
0000
0000
0000
0000
0000
,
1003
0100
0010
0100
1000
0100
0010
0100
1000
0001
0100
0001
1000
0010
0100
0001
,
0010
0100
1000
0100
0010
0001
1000
0001
0100
0010
1000
0010
0100
0001
1000
0001
,
1000
0100
0010
0100
1000
0100
0010
0001
1000
0010
0100
0010
1000
0010
0100
0010
,
1000
0001
1000
0100
0010
0001
0010
0100
1000
0001
1000
0010
0100
0001
0100
0010
,
1000
0001
1000
0010
1000
0001
1000
0010
0100
0001
0100
0010
1000
0001
1000
0100
,
0010
0001
0010
0100
1000
0001
1000
0100
0010
0001
0010
0100
1000
0001
1000
0010
,
0100
0001
0100
0010
0100
0001
0100
0010
0100
0001
0100
0010
0100
0001
0100
0010
,
1000
0000
0000
0100
0000
0000
1000
0000
0000
0001
0000
0000
0400
0000
0000
0000
0000
0000
0310
0000
0000
0000
0000
0000
1000
0000
0001
0000
1000
0000
0001
0000
1000
0000
0001
0000
2000
0000
0000
0000
0000
0000
0000
0000
0000
0000
0000
0000
,
3001
0100
0001
1000
0010
1000
0001
0100
0001
1000
0010
1000
0001
0100
0001
1000
,
0010
1000
0001
0010
0001
1000
0100
1000
0001
0010
0001
1000
0100
1000
0001
0100
,
0001
1000
0010
1000
0001
0100
0001
1000
0010
1000
0001
0100
0001
1000
0010
1000
,
0001
0010
0001
1000
0100
1000
0001
0010
0001
1000
0100
1000
0001
0010
0001
1000
,
0010
0100
0010
1000
0001
0010
0100
0010
0001
1000
0010
0100
0010
1000
0001
0010
,
0100
0010
0001
1000
0010
0100
0010
1000
0001
0010
0100
0010
0001
1000
0010
0100
,
0010
1000
0001
0100
0010
0100
0001
1000
0100
0010
0100
1000
0001
0100
0010
0100
,
0001
0000
0000
0000
0000
0000
1000
0000
0000
0010
0000
0000
0400
0000
0000
0000
0000
0000
0301
0000
0000
0000
0000
0000
1000
0000
0100
0000
1000
0000
0100
0000
1000
0000
0100
0000
2000
0000
0000
0000
0000
0000
3000
0000
0000
0000
0000
0000
,
0001
0100
0001
1000
0010
1000
0001
0100
0001
1000
0010
1000
0001
0100
0001
1000
,
0010
1000
0001
0010
0001
1000
0100
1000
0001
0010
0001
1000
0100
1000
0001
0100
,
0001
1000
0010
1000
0001
0100
0001
1000
0010
1000
0001
0100
0001
1000
0010
1000
,
0001
0010
0001
1000
0100
1000
0001
0010
0001
1000
0100
1000
0001
0010
0001
1000
,
0010
0100
0010
1000
0001
0010
0100
0010
0001
1000
0010
0100
0010
1000
0001
0010
,
0100
0010
0001
1000
0010
0100
0010
1000
0001
0010
0100
0010
0001
1000
0010
0100
,
0010
1000
0001
0100
0010
0100
0001
1000
0100
0010
0100
1000
0001
0100
0010
0100
,
0001
0000
0000
1000
0000
0000
0001
0000
0000
1000
0000
0000
0400
0000
0000
0000
0000
0000
0310
0000
0000
0000
0000
0000
0001
0000
1000
0000
0001
0000
1000
0000
0001
0000
1000
0000
0002
0000
0000
0000
0000
0000
0003
0000
0000
0000
0000
0000
,
1000
0001
0100
0010
1000
0001
1000
0010
0100
0001
0100
0001
0010
0100
0010
0100
,
1000
0001
1000
0010
1000
0001
1000
0010
0100
0001
1000
0010
0100
0001
1000
0010
,
0100
0001
0100
0010
1000
0001
1000
0100
0010
0100
0010
0001
1000
0010
1000
0001
,
0010
0100
1000
0010
1000
0001
0010
0100
1000
0010
0100
0001
1000
0001
1000
0001
,
1000
0010
1000
0001
0100
0010
0100
0001
1000
0010
1000
0100
0010
0001
0010
0100
,
1000
0010
1000
0010
0100
0001
0100
0001
0010
0100
0010
0100
1000
0001
1000
0001
,
1000
0010
0100
0001
0010
0100
1000
0010
1000
0100
0010
0001
0100
0010
1000
0100
,
1000
0010
0100
0001
1000
0010
0100
0001
1000
0010
0100
0001
1000
0001
1000
0001
,
1000
0100
1000
0001
0100
0010
0100
0001
1000
0100
1000
0001
0010
0100
0010
0001
,
1000
0100
0010
0001
0100
0010
1000
0001
1000
0100
0010
0001
1000
0010
0100
0001
,
1000
0010
1000
0001
0010
0100
0010
0001
1000
0010
1000
0001
0100
0010
0100
0001
,
1000
0010
0100
0001
0010
0100
1000
0010
0100
0001
0010
0100
1000
0001
1000
0001
,
1000
0100
1000
0001
1000
0010
0100
0001
0100
0010
1000
0100
1000
0001
0010
0100
,
0010
0001
0100
0010
1000
0100
0010
0001
1000
0100
1000
0001
0010
0100
0010
0001
,
0100
0010
1000
0100
0010
0001
0100
0010
1000
0100
0010
0001
0100
0010
1000
0100
,
0010
0001
0100
0010
1000
0100
0010
0001
1000
0010
0100
0001
1000
0100
0010
0001
,
1000
0010
1000
0001
0100
0010
0100
0001
1000
0010
1000
0100
0010
0001
0010
0100
,
1000
0010
0100
0001
0010
0100
1000
0001
1000
0010
0100
0001
1000
0100
0010
0001
,
1000
0100
1000
0001
0010
0100
0010
0001
1000
0100
1000
0010
0100
0001
0100
0010
,
1000
0100
0010
0001
0100
0010
1000
0100
0010
0001
0100
0010
1000
0001
1000
0001
,
1000
0100
1000
0001
0010
0100
0010
0001
1000
0100
1000
0010
0100
0001
0100
0010
,
1000
0100
1000
0100
0010
0001
0010
0001
0100
0010
0100
0010
1000
0001
1000
0001
,
1000
0100
0010
0001
0100
0010
1000
0100
1000
0010
0100
0001
0010
0100
1000
0010
,
1000
0100
0010
0001
1000
0100
0010
0001
1000
0100
0010
0001
1000
0001
1000
0001
,
1000
0010
1000
0001
0010
0100
0010
0001
1000
0010
1000
0001
0100
0010
0100
0001
,
1000
0010
0100
0001
0010
0100
1000
0001
1000
0010
0100
0001
1000
0100
0010
0001
,
1000
0100
1000
0001
0100
0010
0100
0001
1000
0100
1000
0001
0010
0100
0010
0001
,
1000
0100
0010
0001
0100
0010
1000
0100
0010
0001
0100
0010
1000
0001
1000
0001
,
1000
0100
1000
0001
0010
0100
0010
0001
1000
0100
1000
0010
0100
0001
0100
0010
,
1000
0100
1000
0010
1000
0001
1000
0010
0100
0001
1000
0100
1000
0100
0010
0001
,
0100
0010
1000
0001
0100
0010
1000
0001
0100
0010
1000
0001
0100
0010
1000
0001
,
0010
0001
0010
0100
1000
0100
1000
0010
0100
0010
0100
0001
1000
0001
1000
0001
,
0200
0000
0000
0000
,
0000
0000
0000
0000
,
0300
0000
0000
0000
;

//---------------dance-single - 15- (D4RK)----------------
#NOTES:
     dance-single:
     15- (D4RK):
     Hard:
     15:
     1.000,1.000,0.100,0.199,1.000,2030.000,22.000,44.000,120.000,0.000:
0000
0000
0000
0000
,
0000
0000
0000
0000
,
0000
0000
0000
0000
,
0000
0000
0000
0000
,
0000
0000
0000
0000
,
1001
1000
0010
0100
0001
0010
0100
0010
,
0001
0100
0010
1000
0001
0010
0100
0010
,
0001
0000
1000
0000
0010
0100
0010
1000
0001
1000
0100
0010
0001
1000
0010
0100
,
0002
0000
0000
0000
0000
0000
0003
0000
0000
0000
0000
0000
2000
0000
0000
0000
0000
0000
3000
0000
0000
0000
0000
0000
0001
0000
0100
0000
0001
0000
0100
0000
0001
0000
0100
0000
0001
0000
0000
1000
0000
0000
0010
0000
0000
0100
0000
0000
,
M001
0000
1000
0100
0010
0001
1000
0000
0001
0000
1000
0010
0100
0001
1000
0000
,
0001
0000
1000
0001
0010
0100
1000
0000
0001
0000
1000
0001
0100
0010
1000
0000
,
0001
0000
1000
0100
1000
0001
0010
0000
0001
0000
1000
0010
1000
0001
0100
0000
,
0001
0000
1000
0100
1000
0001
0010
0000
0001
0000
1000
0010
1000
0001
0100
0000
,
0001
0000
1000
0100
0010
0100
1000
0000
0001
0000
1000
0010
0100
0010
1000
0000
,
0001
0000
1000
0100
0010
0100
1000
0000
0001
0000
1000
0010
0100
0010
1000
0000
,
0001
0000
1000
0010
0100
0001
0010
0000
0001
0000
1000
0100
0010
0001
0100
0000
,
0002
0000
0000
0003
0000
0000
2000
0000
0000
3000
0000
0000
0001
1000
0001
1000
0001
1000
0002
0000
0000
0003
0000
0000
,
1M00
0000
0001
0100
0010
1000
0001
0000
1000
0000
0001
0010
0100
1000
0001
0000
,
1000
0000
0001
1000
0100
0010
0001
0000
1000
0000
0001
1000
0010
0100
0001
0000
,
1000
0000
0001
0010
0001
1000
0100
0000
1000
0000
0001
0100
0001
1000
0010
0000
,
1000
0000
0001
0010
0001
1000
0100
0000
1000
0000
0001
0100
0001
1000
0010
0000
,
1000
0000
0001
0010
0100
0010
0001
0000
1000
0000
0001
0100
0010
0100
0001
0000
,
1000
0000
0001
0010
0100
0010
0001
0000
1000
0000
0001
0100
0010
0100
0001
0000
,
1000
0000
0001
0100
0010
1000
0100
0000
1000
0000
0001
0010
0100
1000
0010
0000
,
2000
0000
0000
0000
0000
0000
3000
0000
0000
0000
0000
0000
0002
0000
0000
0000
0000
0000
0003
0000
0000
0000
0000
0000
1000
0000
0100
0000
1000
0000
0100
0000
1000
0000
0100
0000
1000
0000
0000
0100
0000
0000
0010
0000
0000
0001
0000
0000
,
0100
0001
0000
0100
0001
0000
1000
0010
0100
0001
0000
1000
0001
0000
0001
0010
,
0100
1000
0000
0001
1000
0000
0001
0100
0010
1000
0000
0001
1000
0000
1000
0100
,
0010
0001
0000
1000
0001
0000
1000
0010
0100
0001
0000
1000
0001
0000
0001
0100
,
0001
1000
0000
0100
1000
0000
0001
0010
0001
1000
0000
0010
1000
0000
1000
0010
,
0100
0010
0000
1000
0001
0000
1000
0100
0010
0100
0000
1000
0001
0000
1000
0010
,
0100
0010
0000
1000
0001
0000
1000
0100
0010
0100
0000
1000
0001
0000
0001
0100
,
0010
0100
0000
0001
1000
0000
0001
0010
0100
0010
0000
0001
1000
0000
0001
0100
,
0010
0100
0000
0001
1000
0000
0001
0010
0100
1000
0001
0100
0010
0000
1000
0000
,
0001
1000
0000
0010
1000
0000
0001
0100
0010
1000
0000
0001
1000
0000
1000
0100
,
0010
0001
0000
1000
0001
0000
1000
0010
0100
0001
0000
1000
0001
0000
0001
0010
,
0100
1000
0000
0001
1000
0000
0001
0100
0010
1000
0000
0001
1000
0000
1000
0010
,
1000
0001
0000
0010
0001
0000
1000
0100
1000
0001
0000
0100
0001
0000
0001
0100
,
0010
0100
0000
0001
1000
0000
0001
0010
0100
0010
0000
0001
1000
0000
0001
0100
,
0010
0100
0000
0001
1000
0000
0001
0010
0100
0010
0000
0001
1000
0000
1000
0001
,
0100
0010
0000
1000
0001
0000
1000
0100
0010
0001
0000
1000
0010
0000
0100
0001
,
2000
0000
0000
0000
0000
0000
3000
0000
0000
0000
0000
0000
0002
0000
0000
0000
0000
0000
0003
0000
0000
0000
0000
0000
1000
0000
0001
0000
1000
0000
0001
0000
1000
0000
0001
0000
1000
0000
0000
0100
0000
0000
0010
0000
0000
0001
0000
0000
,
2000
0000
3MM0
0000
,
0000
0000
0000
0000
,
M000
0M00
0000
M000
0M00
0000
M000
0M00
0000
M000
0M00
0000
M000
0M00
0000
M000
,
0M00
0000
00M0
000M
0000
00M0
000M
0000
00M0
000M
0000
00M0
000M
0000
00M0
000M
,
M000
00M0
0000
M000
00M0
0000
M000
00M0
0000
M000
00M0
0000
M000
00M0
0000
M000
,
00M0
0M00
0000
000M
0M00
0000
000M
0M00
0000
000M
0M00
0000
000M
0M00
0000
000M
,
0M00
00M0
M000
00M0
M000
00M0
M000
00M0
M000
00M0
M000
00M0
M000
00M0
M000
00M0
,
M000
000M
0M00
000M
0M00
000M
0M00
000M
0M00
000M
0M00
000M
0M00
000M
0M00
000M
,
M000
0M00
M000
0M00
M000
0M00
M000
0M00
M000
0M00
M000
0M00
M000
0M00
M000
0M00
,
00M0
000M
00M0
000M
00M0
000M
00M0
000M
00M0
000M
00M0
000M
00M0
000M
00M0
0000
,
1001
0000
0001
0000
1000
0000
0001
0000
2000
0000
0000
3000
2000
0000
0000
3000
,
0010
0200
0000
0302
0000
0000
1003
0000
,
0010
0100
0010
0100
0002
0000
2003
0000
,
3200
0000
0300
0010
0001
0000
1000
0000
,
0001
0100
0001
0100
0010
0000
1000
0000
,
0100
0010
0001
1000
,
0020
0130
0002
0013
,
0200
1300
0001
1000
,
1010
0101
0011
1100
,
1001
0101
1010
1100
,
0011
1001
1100
0011
,
0101
1010
1001
0110
,
0100
0100
0001
0001
1000
1000
0010
0010
,
0100
0100
0001
0001
0010
0010
0100
0100
,
1000
0100
0010
0001
1000
0100
0010
0001
1000
0010
0100
0001
1000
0010
0100
0001
,
2000
0000
0000
0000
0000
0000
3000
0000
0000
0000
0000
0000
0002
0000
0000
0000
0000
0000
0003
0000
0000
0000
0000
0000
1000
0000
0001
0000
1000
0000
0001
0000
1000
0000
0001
0000
1000
0000
0000
0100
0000
0000
0010
0000
0000
0001
0000
0000
,
2M00
0M00
0M01
0M00
0M01
0M00
0M01
0M00
,
3M01
0010
0001
1000
0100
0010
0100
1000
0001
0010
0001
0100
0010
1000
0010
0100
,
0001
0010
0100
1000
0010
0100
0001
1000
0001
0010
0100
1000
0001
0100
0010
1000
,
0001
0100
0001
1000
0010
0100
0010
1000
0001
0100
0001
0010
0100
1000
0100
0010
,
0001
0100
0010
1000
0100
0010
0001
0100
0010
1000
0100
0010
0001
1000
0001
1000
,
0001
0100
0001
1000
0010
0100
0010
1000
0001
0100
0001
0010
0100
1000
0100
0010
,
0001
0100
0001
0100
0010
1000
0010
1000
0100
0010
0100
0010
0001
1000
0001
1000
,
0001
0100
0010
1000
0100
0010
0001
0100
0001
0010
0100
1000
0010
0100
0001
0010
,
0001
0100
0010
1000
0001
0100
0010
1000
0001
0100
0010
1000
0001
1000
0001
1000
,
0001
0010
0001
1000
0010
0100
0010
1000
0001
0010
0001
1000
0100
0010
0100
1000
,
0001
0010
0100
1000
0010
0100
0001
1000
0001
0010
0100
1000
0001
0100
0010
1000
,
0001
0100
0001
1000
0100
0010
0100
1000
0001
0100
0001
1000
0010
0100
0010
1000
,
0001
0100
0010
1000
0100
0010
0001
0100
0010
1000
0100
0010
0001
1000
0001
1000
,
0001
0100
0001
1000
0010
0100
0010
1000
0001
0100
0001
0010
0100
1000
0100
0010
,
0001
0100
0001
0010
0001
1000
0001
0010
0100
1000
0001
0100
0001
0100
0010
1000
,
0100
0010
0001
1000
0100
0010
0001
1000
0100
0010
0001
1000
0100
0010
0001
1000
,
0010
1000
0010
0100
0001
0100
0001
0010
0100
0010
0100
1000
0001
1000
0001
1000
,
0100
1000
0100
0010
0001
1000
0001
0010
0100
1000
0100
1000
0010
0100
0001
1000
,
0001
0100
0010
1000
0100
0010
0001
0100
0001
1000
0001
0010
0001
1000
0001
0010
,
0100
1000
0100
0010
0001
1000
0001
0100
0010
1000
0010
0100
0001
0010
0001
1000
,
0001
0100
0010
1000
0100
0010
0001
0100
0010
1000
0100
0010
0001
1000
0001
1000
,
0001
0010
0001
1000
0100
0010
0100
1000
0001
0010
0001
0100
0010
1000
0010
0100
,
0001
0010
0001
0010
0100
1000
0100
1000
0010
0100
0010
0100
0001
1000
0001
1000
,
0001
0010
0100
1000
0010
0100
0001
0010
0001
0100
0010
1000
0100
0010
0001
0100
,
0001
0010
0100
1000
0001
0010
0100
1000
0001
0010
0100
1000
0001
1000
0001
1000
,
0001
0010
0001
1000
0010
0100
0010
1000
0001
0010
0001
1000
0100
0010
0100
1000
,
0001
0010
0100
1000
0010
0100
0001
1000
0001
0010
0100
1000
0001
0100
0010
1000
,
0001
0100
0001
1000
0100
0010
0100
1000
0001
0100
0001
1000
0010
0100
0010
1000
,
0001
0100
0010
1000
0100
0010
0001
0100
0010
1000
0100
0010
0001
1000
0001
1000
,
0001
0010
0001
1000
0001
0100
0010
1000
0010
0100
0001
0010
0001
1000
0100
0010
,
0100
1000
0010
0100
0001
0010
0100
1000
0001
0010
0001
1000
0100
0010
0100
1000
,
0010
0100
0001
0010
0100
1000
0010
0100
0001
0010
0100
1000
0010
0100
0001
0010
,
0100
1000
0010
0100
0001
0010
0100
1000
0001
0100
0010
1000
0001
0010
0100
1000
,
0020
0230
0320
2030
3200
0320
0032
0023
,
0230
2300
3020
0230
0302
0203
0320
2030
,
3001
0010
0100
0010
0001
0010
0100
1000
0001
0100
0010
0100
0001
0100
0010
0100
,
0001
1000
0001
0010
0100
1000
0100
0010
0001
1000
0001
0100
0010
1000
0010
0100
,
0001
1000
0001
0100
0001
1000
0001
0100
0010
1000
0010
0100
0001
1000
0001
0010
,
0100
1000
0100
0010
0001
1000
0001
0010
0100
1000
0100
0010
0001
1000
0001
0100
,
0010
1000
0010
0100
0010
1000
0010
0100
0010
1000
0010
0100
0010
1000
0010
0100
,
0001
0000
0000
0010
0000
0000
0001
0000
0000
1000
0000
0000
0040
0000
0000
0000
0000
0000
0130
0000
0000
0000
0000
0000
0001
0000
1000
0000
0001
0000
1000
0000
0001
0000
1000
0000
0002
0000
0000
0000
0000
0000
0000
0000
0000
0000
0000
0000
,
1003
0100
0010
0100
1000
0100
0010
0100
1000
0001
0100
0001
1000
0010
0100
0001
,
0010
0100
1000
0100
0010
0001
1000
0001
0100
0010
1000
0010
0100
0001
1000
0001
,
1000
0100
0010
0100
1000
0100
0010
0001
1000
0010
0100
0010
1000
0010
0100
0010
,
1000
0001
1000
0100
0010
0001
0010
0100
1000
0001
1000
0010
0100
0001
0100
0010
,
1000
0001
1000
0010
1000
0001
1000
0010
0100
0001
0100
0010
1000
0001
1000
0100
,
0010
0001
0010
0100
1000
0001
1000
0100
0010
0001
0010
0100
1000
0001
1000
0010
,
0100
0001
0100
0010
0100
0001
0100
0010
0100
0001
0100
0010
0100
0001
0100
0010
,
1000
0000
0000
0100
0000
0000
1000
0000
0000
0001
0000
0000
0400
0000
0000
0000
0000
0000
0310
0000
0000
0000
0000
0000
1000
0000
0001
0000
1000
0000
0001
0000
1000
0000
0001
0000
2000
0000
0000
0000
0000
0000
0000
0000
0000
0000
0000
0000
,
3001
0100
0001
1000
0010
1000
0001
0100
0001
1000
0010
1000
0001
0100
0001
1000
,
0010
1000
0001
0010
0001
1000
0100
1000
0001
0010
0001
1000
0100
1000
0001
0100
,
0001
1000
0010
1000
0001
0100
0001
1000
0010
1000
0001
0100
0001
1000
0010
1000
,
0001
0010
0001
1000
0100
1000
0001
0010
0001
1000
0100
1000
0001
0010
0001
1000
,
0010
0100
0010
1000
0001
0010
0100
0010
0001
1000
0010
0100
0010
1000
0001
0010
,
0100
0010
0001
1000
0010
0100
0010
1000
0001
0010
0100
0010
0001
1000
0010
0100
,
0010
1000
0001
0100
0010
0100
0001
1000
0100
0010
0100
1000
0001
0100
0010
0100
,
0001
0000
0000
0000
0000
0000
1000
0000
0000
0010
0000
0000
0400
0000
0000
0000
0000
0000
0301
0000
0000
0000
0000
0000
1000
0000
0100
0000
1000
0000
0100
0000
1000
0000
0100
0000
2000
0000
0000
0000
0000
0000
3000
0000
0000
0000
0000
0000
,
0001
0100
0001
1000
0010
1000
0001
0100
0001
1000
0010
1000
0001
0100
0001
1000
,
0010
1000
0001
0010
0001
1000
0100
1000
0001
0010
0001
1000
0100
1000
0001
0100
,
0001
1000
0010
1000
0001
0100
0001
1000
0010
1000
0001
0100
0001
1000
0010
1000
,
0001
0010
0001
1000
0100
1000
0001
0010
0001
1000
0100
1000
0001
0010
0001
1000
,
0010
0100
0010
1000
0001
0010
0100
0010
0001
1000
0010
0100
0010
1000
0001
0010
,
0100
0010
0001
1000
0010
0100
0010
1000
0001
0010
0100
0010
0001
1000
0010
0100
,
0010
1000
0001
0100
0010
0100
0001
1000
0100
0010
0100
1000
0001
0100
0010
0100
,
0001
0000
0000
1000
0000
0000
0001
0000
0000
1000
0000
0000
0400
0000
0000
0000
0000
0000
0310
0000
0000
0000
0000
0000
0001
0000
1000
0000
0001
0000
1000
0000
0001
0000
1000
0000
0002
0000
0000
0000
0000
0000
0003
0000
0000
0000
0000
0000
,
1000
0001
0100
0010
1000
0001
1000
0010
0100
0001
0100
0001
0010
0100
0010
0100
,
1000
0001
1000
0010
1000
0001
1000
0010
0100
0001
1000
0010
0100
0001
1000
0010
,
0100
0001
0100
0010
1000
0001
1000
0100
0010
0100
0010
0001
1000
0010
1000
0001
,
0010
0100
1000
0010
1000
0001
0010
0100
1000
0010
0100
0001
1000
0001
1000
0001
,
1000
0010
1000
0001
0100
0010
0100
0001
1000
0010
1000
0100
0010
0001
0010
0100
,
1000
0010
1000
0010
0100
0001
0100
0001
0010
0100
0010
0100
1000
0001
1000
0001
,
1000
0010
0100
0001
0010
0100
1000
0010
1000
0100
0010
0001
0100
0010
1000
0100
,
1000
0010
0100
0001
1000
0010
0100
0001
1000
0010
0100
0001
1000
0001
1000
0001
,
1000
0100
1000
0001
0100
0010
0100
0001
1000
0100
1000
0001
0010
0100
0010
0001
,
1000
0100
0010
0001
0100
0010
1000
0001
1000
0100
0010
0001
1000
0010
0100
0001
,
1000
0010
1000
0001
0010
0100
0010
0001
1000
0010
1000
0001
0100
0010
0100
0001
,
1000
0010
0100
0001
0010
0100
1000
0010
0100
0001
0010
0100
1000
0001
1000
0001
,
1000
0100
1000
0001
1000
0010
0100
0001
0100
0010
1000
0100
1000
0001
0010
0100
,
0010
0001
0100
0010
1000
0100
0010
0001
1000
0100
1000
0001
0010
0100
0010
0001
,
0100
0010
1000
0100
0010
0001
0100
0010
1000
0100
0010
0001
0100
0010
1000
0100
,
0010
0001
0100
0010
1000
0100
0010
0001
1000
0010
0100
0001
1000
0100
0010
0001
,
1000
0010
1000
0001
0100
0010
0100
0001
1000
0010
1000
0100
0010
0001
0010
0100
,
1000
0010
0100
0001
0010
0100
1000
0001
1000
0010
0100
0001
1000
0100
0010
0001
,
1000
0100
1000
0001
0010
0100
0010
0001
1000
0100
1000
0010
0100
0001
0100
0010
,
1000
0100
0010
0001
0100
0010
1000
0100
0010
0001
0100
0010
1000
0001
1000
0001
,
1000
0100
1000
0001
0010
0100
0010
0001
1000
0100
1000
0010
0100
0001
0100
0010
,
1000
0100
1000
0100
0010
0001
0010
0001
0100
0010
0100
0010
1000
0001
1000
0001
,
1000
0100
0010
0001
0100
0010
1000
0100
1000
0010
0100
0001
0010
0100
1000
0010
,
1000
0100
0010
0001
1000
0100
0010
0001
1000
0100
0010
0001
1000
0001
1000
0001
,
1000
0010
1000
0001
0010
0100
0010
0001
1000
0010
1000
0001
0100
0010
0100
0001
,
1000
0010
0100
0001
0010
0100
1000
0001
1000
0010
0100
0001
1000
0100
0010
0001
,
1000
0100
1000
0001
0100
0010
0100
0001
1000
0100
1000
0001
0010
0100
0010
0001
,
1000
0100
0010
0001
0100
0010
1000
0100
0010
0001
0100
0010
1000
0001
1000
0001
,
1000
0100
1000
0001
0010
0100
0010
0001
1000
0100
1000
0010
0100
0001
0100
0010
,
1000
0100
1000
0010
1000
0001
1000
0010
0100
0001
1000
0100
1000
0100
0010
0001
,
0100
0010
1000
0001
0100
0010
1000
0001
0100
0010
1000
0001
0100
0010
1000
0001
,
0010
0001
0010
0100
1000
0100
1000
0010
0100
0010
0100
0001
1000
0001
1000
0001
,
0200
0000
0000
0000
,
0000
0000
0000
0000
,
0300
0000
0000
0000
;
