#TITLE:Two Weeks;
#SUBTITLE:Overcome (2008);
#ARTIST:All That Remains;
#TITLETRANSLIT:;
#SUBTITLETRANSLIT:;
#ARTISTTRANSLIT:;
#CREDIT:;
#BANNER:twoweeks2finalcopyah3.png;
#BACKGROUND:twoweeksfinalcopyjt0.png;
#LYRICSPATH:;
#CDTITLE:shashcd1.png;
#MUSIC:02 Two Weeks.mp3;
#OFFSET:-0.222;
#SAMPLESTART:67.880;
#SAMPLELENGTH:12.000;
#SELECTABLE:YES;
#BPMS:0.000=224.000;
#STOPS:;
#BGCHANGES:;
// cache tags:
#FIRSTBEAT:0.000;
#LASTBEAT:956.000;
#SONGFILENAME:Songs/Astronomic Metal Collection 2/(Shashakiro) Two Weeks/Two Weeks.sm;
#HASMUSIC:1;
#HASBANNER:1;
#MUSICLENGTH:257.410;
// end cache tags

//---------------dance-single - ----------------
#NOTES:
     dance-single:
     :
     Challenge:
     16:
     1.000,1.000,1.000,1.000,0.581,1997.000,1185.000,295.000,36.000,303.000:
0111
1000
1000
1000
0010
0100
1000
0100
,
1011
1000
1000
1000
0001
0010
0100
0010
,
1011
0000
0000
0000
0000
0000
1000
0000
0000
0000
0000
0000
1000
0000
0000
0000
0000
0000
1000
0000
0000
0000
0000
0000
0101
0000
0000
0010
0000
0000
1001
0000
0000
0100
0000
0000
1010
0000
0000
0000
0100
0000
0010
0000
1000
0000
0000
0000
,
0110
0000
0000
0000
0001
0000
0100
0000
0010
0000
0000
0000
1001
0000
0000
0010
0000
0000
1100
0000
0000
0010
0000
0000
0101
0000
0000
0000
0010
0000
0100
0000
0001
0000
0000
0000
0110
0000
0000
0000
0000
0000
1010
0000
0000
0000
0000
0000
,
1110
0100
1001
0100
1000
1000
0101
1000
,
1000
0000
0100
0000
1001
0000
1000
0000
1000
0010
1000
0000
0101
0000
1000
0000
,
0100
0010
1001
0010
1000
1000
0011
1000
,
1000
0000
0010
0000
1001
0000
1000
0000
1000
0010
1000
0000
1001
0010
1000
0000
,
0100
0010
0101
0010
0100
0100
0011
0100
,
0100
0000
0010
0000
0101
0000
0100
0000
0100
0010
0100
0000
0101
0000
0100
0000
,
0001
0100
1001
0100
1000
1000
0101
1000
,
1000
0000
0100
0000
1001
0000
1000
0000
0101
1000
0011
0000
0101
0000
1001
0000
,
1110
0100
1001
0100
1000
1000
0101
1000
,
1000
0000
0100
0000
1001
0000
1000
0000
1100
0011
1100
0000
0101
0000
1000
0000
,
0100
0010
1001
0010
1000
1000
0011
1000
,
1000
0000
0010
0000
1001
0000
1000
0000
1010
0101
1010
0000
1010
0101
1010
0000
,
0100
0010
0101
0010
0100
0100
0011
0100
,
0100
0000
0010
0000
0101
0000
0100
0000
0110
1001
0110
0000
0101
0000
1000
0000
,
0001
0100
1001
0100
1000
1000
0101
1000
,
1000
0000
0100
0000
1001
0000
1000
0000
0101
1000
0011
0000
0101
0000
1001
0000
,
1110
0011
1110
0011
1100
1100
1011
1100
,
1100
0000
0011
0000
1110
0000
1100
0000
1100
0011
1100
0000
0111
0000
1100
0000
,
1010
0101
1011
0101
1010
1010
0111
1010
,
1010
0000
0101
0000
1011
0000
1010
0000
1010
0101
1010
0000
1011
0000
1010
0000
,
1110
1001
0111
1001
0110
0110
1011
0110
,
0110
0000
0011
0000
0111
0000
0110
0000
0110
1001
0110
0000
1011
0000
1100
0000
,
0011
1100
1110
0011
1100
1100
1011
1100
,
1100
0000
0011
0000
1110
0000
1100
0000
0101
1000
0011
0000
0101
0000
1001
0000
,
1110
0011
1110
0011
1100
1100
1011
1100
,
1100
0000
0011
0000
1110
0000
1100
0000
1100
0011
1100
0000
0111
0000
1100
0000
,
1010
0101
1011
0101
1010
1010
0111
1010
,
1010
0000
0101
0000
1011
0000
1010
0000
1010
0101
1010
0000
1011
0000
1010
0000
,
1110
1001
0111
1001
0110
0110
1011
0110
,
0110
0000
0011
0000
0111
0000
0110
0000
0110
1001
0110
0000
1011
0000
1100
0000
,
0011
1100
1110
0011
1100
1100
1011
1100
,
1100
0000
0011
0000
1110
0000
1100
0000
0101
1000
0011
0000
0101
0000
1001
0000
,
1001
0101
1001
0101
1001
1000
0100
1000
,
1011
0000
0101
0010
1001
0000
1001
0000
1001
0110
1001
0010
0101
0000
1000
0000
,
0101
0011
1001
0011
1001
1000
0010
1000
,
1101
0000
0011
0100
1001
0000
1001
0000
1001
0110
1001
0010
1001
0000
1000
0000
,
0101
0011
0101
0011
0101
0100
0010
0100
,
1101
0000
0011
1000
0101
0000
0101
0000
0101
1010
0101
0010
1001
0000
0100
0000
,
0011
0000
0101
0000
1001
0000
0101
0000
1001
0000
1000
0000
0101
0010
1001
0010
,
1101
0000
0000
0101
0000
0000
1001
0000
0000
1001
0000
0000
0111
0000
1000
0100
0010
0000
0101
0000
0010
1000
0100
0000
,
1001
0101
1001
0101
1001
1000
0100
1000
,
1011
0000
0101
0010
1001
0000
1001
0000
1001
0110
1001
0010
0101
0000
1000
0000
,
0101
0011
1001
0011
1001
1000
0010
1000
,
1101
0000
0011
0100
1001
0000
1001
0000
1001
0110
1001
0010
1001
0000
1000
0000
,
0101
0011
0101
0011
0101
0100
0010
0100
,
1101
0000
0011
1000
0101
0000
0101
0000
0101
1010
0101
0010
1001
0000
0100
0000
,
0011
0000
0101
0000
1001
0000
0101
0000
1001
0000
1000
0000
0101
0010
1001
0010
,
1101
0101
1001
1001
0111
0011
0101
1001
,
1011
0000
0010
0000
1200
0300
1200
0300
0210
0300
0210
0300
0201
0300
0201
0300
,
1120
0130
1000
1002
0013
0010
2101
3100
,
0011
0000
0010
0000
2100
0000
3100
0000
2010
3000
2010
3000
2100
3000
2100
3000
,
0112
0013
1000
1010
0120
0131
1001
1001
,
0211
0000
0310
0000
1200
0000
1300
0000
0210
0000
0310
0000
0201
0300
0201
0300
,
1120
0130
1000
1002
0013
0010
2101
3101
,
0011
0000
0010
0000
2100
0000
3101
0000
2010
0000
3010
0000
2101
3000
2100
3000
,
0021
0031
1100
1100
0211
0311
1001
1001
,
0221
0000
0030
0000
0020
0030
0020
0030
0020
0030
0020
0030
0020
0000
0330
0000
,
2102
0003
0000
0020
0030
3000
1120
0030
,
0201
0000
0000
0000
0020
0030
0320
0030
0022
0030
0020
0030
0020
0030
0023
0030
,
1202
0000
0003
0020
0000
0030
0301
0000
2000
0000
0001
0000
0201
0000
3301
0000
,
2021
0000
3000
0000
0200
0300
0230
0300
0202
0300
0200
0300
0200
0000
0303
0000
,
2120
0030
0002
0000
0000
3003
1012
0010
,
0210
1000
0000
1300
0020
0000
1000
0030
,
0200
0000
0010
0310
2110
0010
0010
3013
,
1110
0011
1110
0011
1100
1100
1011
1100
,
1100
0000
0011
0000
1110
0000
1100
0000
1100
0011
1100
0000
0111
0000
1100
0000
,
1010
0101
1011
0101
1010
1010
0111
1010
,
1010
0000
0101
0000
1011
0000
1010
0000
1010
0101
1010
0000
1011
0000
1010
0000
,
1110
1001
0111
1001
0110
0110
1011
0110
,
0110
0000
0011
0000
0111
0000
0110
0000
0110
1001
0110
0000
1011
0000
1100
0000
,
0011
1100
1110
0011
1100
1100
1011
1100
,
1100
0000
0011
0000
1110
0000
1100
0000
0101
1000
0011
0000
0101
0000
1001
0000
,
1110
0011
1110
0011
1100
1100
1011
1100
,
1100
0000
0011
0000
1110
0000
1100
0000
1100
0011
1100
0000
0111
0000
1100
0000
,
1010
0101
1011
0101
1010
1010
0111
1010
,
1010
0000
0101
0000
1011
0000
1010
0000
1010
0101
1010
0000
1011
0000
1010
0000
,
1110
1001
0111
1001
0110
0110
1011
0110
,
0110
0000
0011
0000
0111
0000
0110
0000
0110
1001
0110
0000
1011
0000
1100
0000
,
0011
1100
1110
0011
1100
1100
1011
1100
,
1100
0000
0011
0000
1110
0000
1100
0000
0101
1000
0011
0000
0101
0000
1001
0000
,
1001
0101
1001
0101
1001
1000
0100
1000
,
1011
0000
0101
0010
1001
0000
1001
0000
1001
0110
1001
0010
0101
0000
1000
0000
,
0101
0011
1001
0011
1001
1000
0010
1000
,
1101
0000
0011
0100
1001
0000
1001
0000
1001
0110
1001
0010
1001
0000
1000
0000
,
0101
0011
0101
0011
0101
0100
0010
0100
,
1101
0000
0011
1000
0101
0000
0101
0000
0101
1010
0101
0010
1001
0000
0100
0000
,
0011
0000
0101
0000
1001
0000
0101
0000
1001
0000
1000
0000
0101
0010
1001
0010
,
1101
0000
0000
0101
0000
0000
1001
0000
0000
1001
0000
0000
0111
0000
1000
0100
0010
0000
0101
0000
0010
1000
0100
0000
,
1001
0101
1001
0101
1001
1000
0100
1000
,
1011
0000
0101
0010
1001
0000
1001
0000
1001
0110
1001
0010
0101
0000
1000
0000
,
0101
0011
1001
0011
1001
1000
0010
1000
,
1101
0000
0011
0100
1001
0000
1001
0000
1001
0110
1001
0010
1001
0000
1000
0000
,
0101
0011
0101
0011
0101
0100
0010
0100
,
1101
0000
0011
1000
0101
0000
0101
0000
0101
1010
0101
0010
1001
0000
0100
0000
,
0011
0000
0101
0000
1001
0000
0101
0000
1001
0000
1000
0000
0101
0010
1001
0010
,
1101
0101
1001
1001
0111
0011
0101
1001
,
1011
0000
0010
0000
1200
0300
1200
0300
0210
0300
0210
0300
0201
0300
0201
0300
,
1120
0130
1000
1002
0013
0010
2101
3100
,
0011
0000
0010
0000
2100
0000
3100
0000
2010
3000
2010
3000
2100
3000
2100
3000
,
0112
0013
1000
1010
0120
0131
1001
1001
,
0211
0000
0310
0000
1200
0000
1300
0000
0210
0000
0310
0000
0201
0300
0201
0300
,
1120
0130
1000
1002
0013
0010
2101
3101
,
0011
0000
0010
0000
2100
0000
3101
0000
2010
0000
3010
0000
2101
3000
2100
3000
,
0021
0031
1100
1100
0211
0311
1001
1001
,
0221
0000
0030
0000
0020
0030
0020
0030
0020
0030
0020
0030
0020
0000
0330
0000
,
2102
0003
0000
0020
0030
3000
1120
0030
,
0201
0000
0000
0000
0020
0030
0320
0030
0022
0030
0020
0030
0020
0030
0023
0030
,
1202
0000
0003
0020
0000
0030
0301
0000
2000
0000
0001
0000
0201
0000
3301
0000
,
2021
0000
3000
0000
0200
0300
0230
0300
0202
0300
0200
0300
0200
0000
0303
0000
,
2120
0030
0002
0000
0000
3003
1012
0010
,
0210
1000
0000
1300
0020
0000
1000
0030
,
1010
0100
1000
0010
1100
0010
0100
1000
0110
0000
1000
0000
0110
0000
1003
0000
,
0111
1100
1100
1100
0101
0110
1010
0110
,
1011
1100
1100
1100
0011
0110
1100
0110
,
1101
1100
1100
1100
0011
0101
1010
0110
,
0101
0011
0110
1010
0101
0110
1010
1100
,
1110
0100
1010
0100
1110
0100
1110
0100
,
1101
1000
0101
1000
1101
1000
1101
1000
,
0111
0100
0011
0100
0111
0100
0111
0100
,
0111
0000
0000
0000
1101
0000
0000
0000
1110
0000
0000
0000
1101
0010
0100
1000
,
0111
1100
1100
1100
0101
0110
1010
0110
,
1011
1100
1100
1100
0011
0110
1100
0110
,
1101
1100
1100
1100
0011
0101
1010
0110
,
0101
0011
0110
1010
0101
0110
1010
1100
,
1110
0100
1010
0100
1110
0100
1110
0100
,
1101
1000
0101
1000
1101
1000
1101
1000
,
0111
0100
0011
0100
0111
0100
0111
0100
,
0111
1101
1110
1101
,
1001
0100
0010
1100
0010
0001
1010
0100
0010
1100
0010
0001
,
1001
0100
0010
1100
0010
0001
1010
0100
0010
1100
0010
0001
,
0101
1000
0010
0101
1000
0100
0011
1000
0100
0110
1000
0010
,
0101
0000
1000
0000
0100
0000
0011
0000
1000
0000
0010
0000
0101
0000
1000
0000
0001
0000
0220
0000
0000
0330
0000
0000
,
1001
0100
0010
1100
0010
0001
1010
0100
0010
1100
0010
0001
,
1001
0100
0010
1100
0010
0001
1010
0100
0010
1100
0010
0001
,
0101
1000
0010
0101
1000
0100
0011
1000
0100
0110
1000
0010
,
0101
0000
1000
0000
0100
0000
0011
0000
1000
0000
0010
0000
0101
0000
1000
0000
0100
0000
0022
0000
0000
0033
0000
0000
,
0101
0010
1000
0110
1000
0100
0011
0100
1000
0110
1000
0010
,
0101
0010
0100
1010
0100
0010
1001
0010
1000
0110
1000
0010
,
0101
0010
0100
1010
0100
0010
1001
0010
1000
0110
1000
0010
,
0101
0010
1000
0011
0100
1000
0101
0010
1000
0220
0000
0330
,
0101
0010
1000
0110
1000
0100
0011
0100
1000
0110
1000
0010
,
0101
0010
0100
1010
0100
0010
1001
0010
1000
0110
1000
0010
,
0101
0010
0100
1010
0100
0010
1001
0010
1000
0110
1000
0010
,
0101
0010
1000
0011
0100
1000
0101
0010
1000
0220
0000
0330
,
1101
0000
0010
0000
0100
0000
1000
0000
0000
1000
0000
0000
1110
0000
0001
0000
0010
0000
0100
0000
0000
0100
0000
0000
,
1020
0100
0100
0100
1031
0110
1010
0110
,
1002
0000
0000
1000
0000
0000
1000
0000
0000
1000
0000
0000
0113
0000
0000
1001
0000
0000
1000
0000
0100
1000
0010
0000
,
0102
0000
0000
1000
0000
0000
1000
0000
0000
1000
0000
0000
0010
0000
0000
0100
0003
0000
0110
0000
0000
0011
0000
0000
,
0201
0000
0000
0001
0300
0000
0011
0000
0100
0001
1000
0000
0210
0000
0000
0001
0000
0000
0001
0000
0000
0001
0300
0000
,
1010
0000
0000
1000
0010
0000
1000
0000
0100
1000
0000
0000
0110
0000
0000
0011
0000
0000
0101
0000
0000
1001
0000
0000
,
0101
0000
0000
1100
0000
0000
1010
0000
0000
1010
0000
0000
1001
0000
0000
0100
0010
0000
0100
0000
0001
0100
0000
0000
,
0210
0000
0000
0001
0000
0000
0001
0000
0000
0001
0300
0000
0110
0000
0000
1000
0010
0000
1000
0000
0001
1000
0000
0000
,
0120
0000
0000
0000
0000
0000
0000
0000
0000
0000
0000
0000
0000
0000
0000
0000
0000
0000
0000
0000
0000
0000
0000
0000
0001
0000
0000
0000
0000
0000
0000
0000
0000
0000
0000
0000
0000
0000
0000
0000
0000
0000
0000
0000
0000
0000
0000
0000
0031
0000
0000
0000
0000
0000
0000
0000
0000
0000
0000
0000
0000
0000
0000
0000
0000
0000
0000
0000
0000
0000
0000
0000
0101
0000
0000
0000
0000
0000
0000
0000
0000
0000
0000
0000
0000
0000
0000
0000
0000
0000
0000
0000
0000
0000
0000
0000
1100
0000
0000
0000
0000
0000
0000
0000
0000
0000
0000
0000
0000
0000
0000
0010
0000
0000
0000
0000
0000
0000
0000
0000
0001
0000
0000
0100
0000
0000
0000
0000
0000
0000
0000
0000
0000
0000
0000
0000
0010
0000
0000
0000
0000
0000
0000
0000
0001
0000
0000
0000
0000
0000
0100
0000
0000
0000
0000
0000
0000
0000
0000
0000
0000
0000
0010
0000
0000
0000
0000
0000
0001
0000
0000
0000
0000
0000
0000
0000
0100
0000
0000
0000
0000
0000
0000
0000
0000
0000
0000
0000
0000
0000
0000
0000
,
1010
0100
0010
1100
0010
0001
1010
0100
0010
1100
0010
0001
,
1010
0100
0010
1100
0010
0001
1010
0100
0010
1100
0010
0001
,
1010
0100
1000
0011
0100
1000
0101
0010
1000
0011
0100
1000
,
0021
0000
0000
0000
0000
0000
0000
0000
0000
0000
0000
0000
0000
0000
0000
0000
0000
0000
0000
0000
0000
0000
0000
0000
0100
0000
0000
0000
0000
0000
0000
0000
0000
0000
0000
0000
0000
0000
0000
0000
0000
0000
0000
0000
0000
0000
0000
0000
0130
0000
0000
0000
0000
0000
0000
0000
0000
0000
0000
0000
0000
0000
0000
0000
0000
0000
0000
0000
0000
0000
0000
0000
0101
0000
0000
0000
0000
0000
0000
0000
0000
0000
0000
0000
0000
0000
0000
0000
0000
0000
0000
0000
0000
0000
0000
0000
0110
0000
0000
0000
0000
0000
0000
0000
0000
0000
0000
0000
0000
0000
0000
0001
0000
0000
0000
0000
0000
0000
0000
0000
1000
0000
0000
0010
0000
0000
0000
0000
0000
0000
0000
0000
0000
0000
0000
0000
0001
0000
0000
0000
0000
0000
0000
0000
1000
0000
0000
0000
0000
0000
0010
0000
0000
0000
0000
0000
0000
0000
0000
0000
0000
0000
0001
0000
0000
0000
0000
0000
1000
0000
0000
0000
0000
0000
0000
0000
0010
0000
0000
0000
0000
0000
0000
0000
0000
0000
0000
0000
0000
0000
0000
0000
,
1101
0100
1010
0100
1011
0100
1010
0100
,
0111
1000
0110
1000
0111
1000
0110
1000
,
1011
0100
1010
0100
1011
0100
1010
0100
,
1110
0101
0111
0011
1101
1100
1011
0102
,
1110
0100
1000
0100
1000
1000
0100
1000
,
1000
0000
0100
0000
1000
0000
1000
0000
1000
0010
1003
0000
0111
0000
1100
0000
,
1010
0101
1011
0101
1010
1010
0111
1010
,
1010
0000
0101
0000
1011
0000
1010
0000
1010
0101
1010
0000
1011
0000
1010
0000
,
1110
1001
0111
1001
0110
0110
1011
0110
,
0110
0000
0011
0000
0111
0000
0110
0000
0110
1001
0110
0000
1011
0000
1100
0000
,
0011
1100
1110
0011
1100
1100
1011
1100
,
1100
0000
0011
0000
1110
0000
1100
0000
0101
1000
0011
0000
0101
0000
1001
0000
,
1110
0011
1110
0011
1100
1100
1011
1100
,
1100
0000
0011
0000
1110
0000
1100
0000
1100
0011
1100
0000
0111
0000
1100
0000
,
1010
0101
1011
0101
1010
1010
0111
1010
,
1010
0000
0101
0000
1011
0000
1010
0000
1010
0101
1010
0000
1011
0000
1010
0000
,
1110
1001
0111
1001
0110
0110
1011
0110
,
0110
0000
0011
0000
0111
0000
0110
0000
0110
1001
0110
0000
1011
0000
1100
0000
,
0011
1100
1110
0011
1100
1100
1011
1100
,
1100
0000
0011
0000
1110
0000
1100
0000
0101
1000
0011
0000
0101
0000
1001
0000
,
1001
0101
1001
0101
1001
1000
0100
1000
,
1011
0000
0101
0010
1001
0000
1001
0000
1001
0110
1001
0010
0101
0000
1000
0000
,
0101
0011
1001
0011
1001
1000
0010
1000
,
1101
0000
0011
0100
1001
0000
1001
0000
1001
0110
1001
0010
1001
0000
1000
0000
,
0101
0011
0101
0011
0101
0100
0010
0100
,
1101
0000
0011
1000
0101
0000
0101
0000
0101
1010
0101
0010
1001
0000
0100
0000
,
0011
0000
0101
0000
1001
0000
0101
0000
1001
0000
1000
0000
0101
0010
1001
0010
,
1101
0101
1001
1001
0111
0011
0101
1001
,
0010
0010
1000
1000
0010
0010
0001
0001
,
0100
0100
1000
1000
0010
0010
0100
0100
,
0010
0010
0100
0100
0010
0010
0100
0100
,
0010
0010
1000
1000
0100
0100
1000
1000
,
0010
0010
1M00
1M00
0M10
0M10
0M01
0M01
,
01M0
0100
1000
100M
0010
0010
M100
0100
,
0010
0010
M100
0100
M010
M010
M100
M100
,
001M
0010
1000
1000
01M0
0100
1000
1000
,
0M10
0010
1M00
1000
0M10
0010
0M01
0M01
,
01M0
0100
1000
100M
0010
0010
M100
0100
,
0010
0010
M100
0100
M010
0010
M100
M100
,
00MM
0000
0MM0
0000
,
1M11
0000
0010
0000
1200
0300
1200
0300
0210
0300
0210
0300
0201
0300
0201
0300
,
1120
0130
1000
1002
0013
0010
2101
3100
,
0011
0000
0010
0000
2100
0000
3100
0000
2010
3000
2010
3000
2100
3000
2100
3000
,
0112
0013
1000
1010
0120
0131
1001
1001
,
0211
0000
0310
0000
1200
0000
1300
0000
0210
0000
0310
0000
0201
0300
0201
0300
,
1120
0130
1000
1002
0013
0010
2101
3101
,
0011
0000
0010
0000
2100
0000
3101
0000
2010
0000
3010
0000
2101
3000
2100
3000
,
0021
0031
1100
1100
0211
0311
1001
1001
,
0221
0000
0030
0000
0020
0030
0020
0030
0020
0030
0020
0030
0020
0000
0330
0000
,
2102
0003
0000
0020
0030
3000
1120
0030
,
0201
0000
0000
0000
0020
0030
0320
0030
0022
0030
0020
0030
0020
0030
0023
0030
,
1202
0000
0003
0020
0000
0030
0301
0000
2000
0000
0001
0000
0201
0000
3301
0000
,
2021
0000
3000
0000
0200
0300
0230
0300
0202
0300
0200
0300
0200
0000
0303
0000
,
2120
0030
0002
0000
0000
3003
1012
0010
,
0210
1000
0000
1300
0020
0000
1000
1030
,
1010
0010
0110
0010
1010
0010
0110
0013
,
1011
0000
0010
0000
1200
0300
1200
0300
0210
0300
0210
0300
0201
0300
0201
0300
,
1120
0130
1000
1002
0013
0010
2101
3100
,
0011
0000
0010
0000
2100
0000
3100
0000
2010
3000
2010
3000
2100
3000
2100
3000
,
0112
0013
1000
1010
0120
0131
1001
1001
,
0211
0000
0310
0000
1200
0000
1300
0000
0210
0000
0310
0000
0201
0300
0201
0300
,
1120
0130
1000
1002
0013
0010
2101
3101
,
0011
0000
0010
0000
2100
0000
3101
0000
2010
0000
3010
0000
2101
3000
2100
3000
,
0021
0031
1100
1100
0211
0311
1001
1001
,
0221
0000
0030
0000
0020
0030
0020
0030
0020
0030
0020
0030
0020
0000
0330
0000
,
2102
0003
0000
0020
0030
3000
1120
0030
,
0201
0000
0000
0000
0020
0030
0320
0030
0022
0030
0020
0030
0020
0030
0023
0030
,
1202
0000
0003
0020
0000
0030
0301
0000
2000
0000
0001
0000
0201
0000
3301
0000
,
2021
0000
3000
0000
0200
0300
0230
0300
0202
0300
0200
0300
0200
0000
0303
0000
,
2120
0030
0002
0000
0000
3003
1012
0010
,
0210
1000
0000
1300
0020
0000
1000
0030
,
1010
0000
0100
0000
0010
0000
1100
0000
0010
0000
1000
0000
0110
0000
1000
0000
0010
0000
1100
0000
0010
0003
0100
0000
,
1011
0000
0000
1000
0000
0000
0111
0000
0000
0100
0000
0000
1011
0000
0100
0000
0010
0000
1101
0000
0010
0000
0100
0000
,
2222
0000
0000
0000
0000
0000
0000
0000
0000
0000
0000
3330
,
MMM0
0000
0000
0000
,
0000
0000
0000
0000
,
0000
0000
0000
0000
,
0000
0000
0000
0000
,
0003
0000
0000
0000
;

//---------------dance-single - ----------------
#NOTES:
     dance-single:
     :
     Hard:
     14:
     1.000,1.000,1.000,1.000,0.464,1946.000,909.000,280.000,35.000,36.000:
0110
1000
1000
1000
0010
0100
1000
0100
,
0101
1000
1000
1000
0001
0010
0100
0010
,
0011
0000
0000
0000
0000
0000
1000
0000
0000
0000
0000
0000
1000
0000
0000
0000
0000
0000
1000
0000
0000
0000
0000
0000
0011
0000
0000
0100
0000
0000
1000
0000
0000
0100
0000
0000
1010
0000
0000
0000
0001
0000
0000
0000
1000
0000
0000
0000
,
0110
0000
0000
0000
0001
0000
0000
0000
0010
0000
0000
0000
1001
0000
0000
0010
0000
0000
1000
0000
0000
0010
0000
0000
0101
0000
0000
0000
0010
0000
0000
0000
0001
0000
0000
0000
0110
0000
0000
0000
0000
0000
1010
0000
0000
0000
0000
0000
,
1100
0100
1001
0100
1000
1000
0101
1000
,
1000
0000
0100
0000
1001
0000
1000
0000
1000
0010
1000
0000
0101
0000
1000
0000
,
0100
0010
1001
0010
1000
1000
0011
1000
,
1000
0000
0010
0000
1001
0000
1000
0000
1000
0010
1000
0000
1001
0010
1000
0000
,
0100
0010
0101
0010
0100
0100
0011
0100
,
0100
0000
0010
0000
0101
0000
0100
0000
0100
0010
0100
0000
0101
0000
0100
0000
,
0001
0100
1001
0100
1000
1000
0101
1000
,
1000
0000
0100
0000
1001
0000
1000
0000
0011
1000
0101
0000
0101
0000
1001
0000
,
1100
0100
1001
0100
1000
1000
0101
1000
,
1000
0000
0100
0000
1001
0000
1000
0000
1100
0010
1000
0000
0101
0000
1000
0000
,
0100
0010
1001
0010
1000
1000
0011
1000
,
1000
0000
0010
0000
1001
0000
1000
0000
1010
0001
1000
0000
1010
0001
1000
0000
,
0100
0010
0101
0010
0100
0100
0011
0100
,
0100
0000
0010
0000
0101
0000
0100
0000
0110
0001
0100
0000
0101
0000
1000
0000
,
0001
0100
1001
0100
1000
1000
0101
1000
,
1000
0000
0100
0000
1001
0000
1000
0000
0011
1000
0101
0000
0110
0000
1010
0000
,
1000
0110
1001
0110
1000
1000
0110
1000
,
1000
0000
0110
0000
1001
0000
1000
0000
1100
0010
1000
0000
0110
0000
1000
0000
,
1000
0011
1001
0011
1000
1000
0011
1000
,
1000
0000
0011
0000
1001
0000
1000
0000
1010
0001
1000
0000
1001
0000
1010
0000
,
0100
0011
0101
0011
0100
0100
0011
0100
,
0100
0000
0011
0000
0100
0000
0100
0000
0110
0001
0100
0000
0011
0000
0100
0000
,
0011
0110
1001
0110
1000
1000
0110
1000
,
1000
0000
0110
0000
1001
0000
1000
0000
0011
1000
0101
0000
0110
0000
1010
0000
,
1000
0110
1001
0110
1000
1000
0110
1000
,
1000
0000
0110
0000
1001
0000
1000
0000
1100
0010
1000
0000
0110
0000
1010
0000
,
1000
0011
1001
0011
1000
1000
0011
1000
,
1000
0000
0011
0000
1001
0000
1000
0000
1010
0001
1000
0000
1001
0000
1010
0000
,
0100
0011
0101
0011
0100
0100
0011
0100
,
0100
0000
0011
0000
0100
0000
0100
0000
0110
0001
0100
0000
0011
0000
0100
0000
,
0011
0110
1001
0110
1000
1000
0110
1000
,
1000
0000
0110
0000
1001
0000
1000
0000
0011
1000
0101
0000
0110
0000
1010
0000
,
1001
0101
1001
0101
1001
1000
0100
1000
,
1001
0000
0101
0010
1001
0000
1001
0000
1001
0010
0100
1000
0011
0000
1000
0000
,
0101
0011
1001
0011
1001
1000
0010
1000
,
1001
0000
0011
0100
1001
0000
1001
0000
1001
0010
0100
1000
0011
0000
1000
0000
,
0101
0011
0101
0011
0101
0100
0010
0100
,
0101
0000
0011
1000
0101
0000
0101
0000
1001
0010
0100
1000
0011
0000
0100
0000
,
0011
0000
0101
0000
1001
0000
0101
0000
1001
0000
1000
0000
1001
0010
0100
1000
,
0011
0000
0000
0101
0000
0000
1001
0000
0000
1001
0000
0000
0011
0000
0100
0000
1000
0000
0101
0000
0010
0000
0100
0000
,
1001
0101
1001
0101
1001
1000
0100
1000
,
1001
0000
0101
0010
1001
0000
1001
0000
1001
0010
0100
1000
0011
0000
1000
0000
,
0101
0011
1001
0011
1001
1000
0010
1000
,
1001
0000
0011
0100
1001
0000
1001
0000
1001
0010
0100
1000
0011
0000
1000
0000
,
0101
0011
0101
0011
0101
0100
0010
0100
,
0101
0000
0011
1000
0101
0000
0101
0000
1001
0010
0100
1000
0011
0000
0100
0000
,
0011
0000
0101
0000
1001
0000
0101
0000
1001
0000
1000
0000
1001
0010
0100
1000
,
0011
1100
0011
0011
0011
0101
0110
1100
,
1010
0000
0010
0000
1200
0300
1200
0300
0210
0300
0210
0300
0201
0300
0201
0300
,
0120
0130
1000
1002
0013
0010
2100
3100
,
0011
0000
0010
0000
2100
0000
3100
0000
2010
3000
2010
3000
2100
3000
2100
3000
,
0012
0013
1000
1010
0120
0131
1001
1001
,
0210
0000
0310
0000
1200
0000
1300
0000
0210
0000
0310
0000
0201
0300
0201
0300
,
0120
0130
1000
1002
0013
0010
2001
3101
,
0011
0000
0010
0000
2100
0000
3100
0000
2010
0000
3010
0000
2100
3000
2100
3000
,
0021
0031
1100
1100
0201
0311
1001
1001
,
0220
0000
0030
0000
0020
0030
0020
0030
0020
0030
0020
0030
0020
0000
0330
0000
,
2002
0003
0000
0020
0030
3000
0120
0030
,
0201
0000
0000
0000
0020
0030
0320
0030
0022
0030
0020
0030
0020
0030
0023
0030
,
0202
0000
0003
0020
0000
0030
0301
0000
2000
0000
0001
0000
0201
0000
3301
0000
,
2020
0000
3000
0000
0200
0300
0230
0300
0202
0300
0200
0300
0200
0000
0303
0000
,
2020
0030
0002
0000
0000
3003
0012
0010
,
0110
1000
0000
1000
0010
0000
1000
0000
,
0100
0000
0010
0010
1010
0010
0010
0013
,
1000
0110
1001
0110
1000
1000
0110
1000
,
1000
0000
0110
0000
1001
0000
1000
0000
1100
0010
1000
0000
0110
0000
1000
0000
,
1000
0011
1001
0011
1000
1000
0011
1000
,
1000
0000
0011
0000
1001
0000
1000
0000
1010
0001
1000
0000
1001
0000
1010
0000
,
0100
0011
0101
0011
0100
0100
0011
0100
,
0100
0000
0011
0000
0100
0000
0100
0000
0110
0001
0100
0000
0011
0000
0100
0000
,
0011
0110
1001
0110
1000
1000
0110
1000
,
1000
0000
0110
0000
1001
0000
1000
0000
0011
1000
0101
0000
0110
0000
1010
0000
,
1000
0110
1001
0110
1000
1000
0110
1000
,
1000
0000
0110
0000
1001
0000
1000
0000
1100
0010
1000
0000
0110
0000
1010
0000
,
1000
0011
1001
0011
1000
1000
0011
1000
,
1000
0000
0011
0000
1001
0000
1000
0000
1010
0001
1000
0000
1001
0000
1010
0000
,
0100
0011
0101
0011
0100
0100
0011
0100
,
0100
0000
0011
0000
0100
0000
0100
0000
0110
0001
0100
0000
0011
0000
0100
0000
,
0011
0110
1001
0110
1000
1000
0110
1000
,
1000
0000
0110
0000
1001
0000
1000
0000
0011
1000
0101
0000
0110
0000
1010
0000
,
1001
0101
1001
0101
1001
1000
0100
1000
,
1001
0000
0101
0010
1001
0000
1001
0000
1001
0010
0100
1000
0011
0000
1000
0000
,
0101
0011
1001
0011
1001
1000
0010
1000
,
1001
0000
0011
0100
1001
0000
1001
0000
1001
0010
0100
1000
0011
0000
1000
0000
,
0101
0011
0101
0011
0101
0100
0010
0100
,
0101
0000
0011
1000
0101
0000
0101
0000
1001
0010
0100
1000
0011
0000
0100
0000
,
0011
0000
0101
0000
1001
0000
0101
0000
1001
0000
1000
0000
1001
0010
0100
1000
,
0011
0000
0000
0101
0000
0000
1001
0000
0000
1001
0000
0000
0011
0000
0100
0000
1000
0000
0101
0000
0010
0000
0100
0000
,
1001
0101
1001
0101
1001
1000
0100
1000
,
1001
0000
0101
0010
1001
0000
1001
0000
1001
0010
0100
1000
0011
0000
1000
0000
,
0101
0011
1001
0011
1001
1000
0010
1000
,
1001
0000
0011
0100
1001
0000
1001
0000
1001
0010
0100
1000
0011
0000
1000
0000
,
0101
0011
0101
0011
0101
0100
0010
0100
,
0101
0000
0011
1000
0101
0000
0101
0000
1001
0010
0100
1000
0011
0000
0100
0000
,
0011
0000
0101
0000
1001
0000
0101
0000
1001
0000
1000
0000
1001
0010
0100
1000
,
0011
1100
0011
0011
0011
0101
0110
1100
,
1010
0000
0010
0000
1200
0300
1200
0300
0210
0300
0210
0300
0201
0300
0201
0300
,
0120
0130
1000
1002
0013
0010
2100
3100
,
0011
0000
0010
0000
2100
0000
3100
0000
2010
3000
2010
3000
2100
3000
2100
3000
,
0012
0013
1000
1010
0120
0131
1001
1001
,
0210
0000
0310
0000
1200
0000
1300
0000
0210
0000
0310
0000
0201
0300
0201
0300
,
0120
0130
1000
1002
0013
0010
2001
3101
,
0011
0000
0010
0000
2100
0000
3100
0000
2010
0000
3010
0000
2100
3000
2100
3000
,
0021
0031
1100
1100
0201
0311
1001
1001
,
0220
0000
0030
0000
0020
0030
0020
0030
0020
0030
0020
0030
0020
0000
0330
0000
,
2002
0003
0000
0020
0030
3000
0120
0030
,
0201
0000
0000
0000
0020
0030
0320
0030
0022
0030
0020
0030
0020
0030
0023
0030
,
0202
0000
0003
0020
0000
0030
0301
0000
2000
0000
0001
0000
0201
0000
3301
0000
,
2020
0000
3000
0000
0200
0300
0230
0300
0202
0300
0200
0300
0200
0000
0303
0000
,
2020
0030
0002
0000
0000
3003
0012
0010
,
0110
1000
0000
1000
0010
0000
1000
0000
,
1000
0010
1000
0010
0100
0010
0100
0010
1100
0000
0010
0000
1100
0000
0013
0000
,
0110
1100
1000
1100
0011
0110
1100
0110
,
0101
1100
1000
1100
0011
0110
1100
0110
,
0011
1100
1000
1100
0011
0110
1100
1010
,
0110
0011
0101
0110
0011
0110
1010
1100
,
1010
0100
0010
0100
1010
0100
1010
0100
,
0101
1000
0001
1000
0101
1000
0101
1000
,
0011
0100
0001
0100
0011
0100
0011
0100
,
0011
0000
0000
0000
0110
0000
0000
0000
1100
0000
0000
0000
0110
0001
1000
0001
,
0110
1100
1000
1100
0011
0110
1100
0110
,
0101
1100
1000
1100
0011
0110
1100
0110
,
0011
1100
1000
1100
0011
0110
1100
1010
,
0110
0011
0101
0110
0011
0110
1010
1100
,
1010
0100
0010
0100
1010
0100
1010
0100
,
0101
1000
0001
1000
0101
1000
0101
1000
,
0011
0100
0001
0100
0011
0100
0011
0100
,
0011
0110
1100
0110
,
1100
0010
0001
1000
0110
0001
1000
0100
,
0011
1000
0100
0010
1001
0100
0010
0001
,
0110
1000
0010
1000
0011
1000
0100
1000
,
0101
1000
0001
1000
0011
1000
0020
0030
,
1100
0010
0001
1000
0110
0001
1000
0100
,
0011
1000
0100
0010
1001
0100
0010
0001
,
0110
1000
0010
1000
0011
1000
0100
1000
,
0101
1000
0001
1000
0011
1000
0002
0003
,
0101
0010
0100
1000
0100
0010
0101
0010
1000
0110
1000
0100
,
0011
0100
1000
0010
1000
0100
1001
0010
1000
0110
1000
0010
,
0101
0010
0100
1000
0100
0010
1001
0100
1000
0010
1000
0100
,
0011
0100
1000
0001
0100
1000
0101
0010
1000
0020
0000
0030
,
0101
0010
0100
1000
0100
0010
0101
0010
1000
0110
1000
0100
,
0011
0100
1000
0010
1000
0100
1001
0010
1000
0110
1000
0010
,
0101
0010
0100
1000
0100
0010
1001
0100
1000
0010
1000
0100
,
0011
0100
1000
0001
0100
1000
0101
0010
1000
0020
0000
0030
,
0101
0000
0010
0000
0100
0000
1000
0000
0000
1000
0000
0000
0110
0000
0001
0000
0010
0000
0100
0000
0000
0100
0000
0000
,
1020
0100
0100
0100
1031
0110
1010
0110
,
1002
0000
0000
1000
0000
0000
1000
0000
0000
1000
0000
0000
0113
0000
0000
1001
0000
0000
1000
0000
0100
0000
0010
0000
,
0102
0000
0000
1000
0000
0000
1000
0000
0000
1000
0000
0000
0010
0000
0000
0100
0003
0000
0110
0000
0000
0011
0000
0000
,
0201
0000
0000
0001
0300
0000
0011
0000
0100
0000
1000
0000
0210
0000
0000
0001
0000
0000
0001
0000
0000
0001
0300
0000
,
1010
0000
0000
0000
0010
0000
1000
0000
0100
0000
0000
0000
0110
0000
0000
0011
0000
0000
0101
0000
0000
1001
0000
0000
,
0011
0000
0000
1001
0000
0000
1100
0000
0000
1010
0000
0000
1001
0000
0000
0000
0010
0000
0100
0000
0001
0000
0000
0000
,
0210
0000
0000
0001
0000
0000
0001
0000
0000
0001
0300
0000
0110
0000
0000
0000
0010
0000
1000
0000
0001
0000
0000
0000
,
0120
0000
0000
0000
0000
0000
0000
0000
0000
0000
0000
0000
0000
0000
0000
0000
0000
0000
0000
0000
0000
0000
0000
0000
0001
0000
0000
0000
0000
0000
0000
0000
0000
0000
0000
0000
0000
0000
0000
0000
0000
0000
0000
0000
0000
0000
0000
0000
0031
0000
0000
0000
0000
0000
0000
0000
0000
0000
0000
0000
0000
0000
0000
0000
0000
0000
0000
0000
0000
0000
0000
0000
0101
0000
0000
0000
0000
0000
0000
0000
0000
0000
0000
0000
0000
0000
0000
0000
0000
0000
0000
0000
0000
0000
0000
0000
1100
0000
0000
0000
0000
0000
0000
0000
0000
0000
0000
0000
0000
0000
0000
0010
0000
0000
0000
0000
0000
0000
0000
0000
0000
0000
0000
0100
0000
0000
0000
0000
0000
0000
0000
0000
0000
0000
0000
0000
0010
0000
0000
0000
0000
0000
0000
0000
0000
0000
0000
0000
0000
0000
0100
0000
0000
0000
0000
0000
0000
0000
0000
0000
0000
0000
0010
0000
0000
0000
0000
0000
0000
0000
0000
0000
0000
0000
0000
0000
0100
0000
0000
0000
0000
0000
0000
0000
0000
0000
0000
0000
0000
0000
0000
0000
,
1010
0100
0010
1100
0010
0001
1010
0100
0010
1100
0010
0001
,
1010
0100
0010
1100
0010
0001
1010
0100
0010
1100
0010
0001
,
1010
0100
1000
0011
0100
1000
0101
0010
1000
0011
0100
1000
,
0021
0000
0000
0000
0000
0000
0000
0000
0000
0000
0000
0000
0000
0000
0000
0000
0000
0000
0000
0000
0000
0000
0000
0000
0100
0000
0000
0000
0000
0000
0000
0000
0000
0000
0000
0000
0000
0000
0000
0000
0000
0000
0000
0000
0000
0000
0000
0000
0130
0000
0000
0000
0000
0000
0000
0000
0000
0000
0000
0000
0000
0000
0000
0000
0000
0000
0000
0000
0000
0000
0000
0000
0101
0000
0000
0000
0000
0000
0000
0000
0000
0000
0000
0000
0000
0000
0000
0000
0000
0000
0000
0000
0000
0000
0000
0000
0110
0000
0000
0000
0000
0000
0000
0000
0000
0000
0000
0000
0000
0000
0000
0001
0000
0000
0000
0000
0000
0000
0000
0000
0000
0000
0000
0010
0000
0000
0000
0000
0000
0000
0000
0000
0000
0000
0000
0000
0001
0000
0000
0000
0000
0000
0000
0000
0000
0000
0000
0000
0000
0000
0010
0000
0000
0000
0000
0000
0000
0000
0000
0000
0000
0000
0001
0000
0000
0000
0000
0000
0000
0000
0000
0000
0000
0000
0000
0000
0010
0000
0000
0000
0000
0000
0000
0000
0000
0000
0000
0000
0000
0000
0000
0000
,
1001
0100
1010
0100
1001
0100
1010
0100
,
0011
1000
0110
1000
0011
1000
0110
1000
,
0011
0100
1010
0100
0011
0100
1010
0100
,
1010
0110
0011
0101
1010
1100
1010
0102
,
1000
0100
1000
0100
1000
1000
0100
1000
,
1000
0000
0100
0000
1000
0000
1000
0000
1000
0010
1003
0000
0110
0000
1010
0000
,
1000
0011
1001
0011
1000
1000
0011
1000
,
1000
0000
0011
0000
1001
0000
1000
0000
1010
0001
1000
0000
1001
0000
1010
0000
,
0100
0011
0101
0011
0100
0100
0011
0100
,
0100
0000
0011
0000
0100
0000
0100
0000
0110
0001
0100
0000
0011
0000
0100
0000
,
0011
0110
1001
0110
1000
1000
0110
1000
,
1000
0000
0110
0000
1001
0000
1000
0000
0011
1000
0101
0000
0110
0000
1010
0000
,
1000
0110
1001
0110
1000
1000
0110
1000
,
1000
0000
0110
0000
1001
0000
1000
0000
1100
0010
1000
0000
0110
0000
1000
0000
,
1000
0011
1001
0011
1000
1000
0011
1000
,
1000
0000
0011
0000
1001
0000
1000
0000
1010
0001
1000
0000
1001
0000
1010
0000
,
0100
0011
0101
0011
0100
0100
0011
0100
,
0100
0000
0011
0000
0100
0000
0100
0000
0110
0001
0100
0000
0011
0000
0100
0000
,
0011
0110
1001
0110
1000
1000
0110
1000
,
1000
0000
0110
0000
1001
0000
1000
0000
0011
1000
0101
0000
0110
0000
1010
0000
,
1001
0101
1001
0101
1001
1000
0100
1000
,
1001
0000
0101
0010
1001
0000
1001
0000
1001
0010
0100
1000
0011
0000
1000
0000
,
0101
0011
1001
0011
1001
1000
0010
1000
,
1001
0000
0011
0100
1001
0000
1001
0000
1001
0010
0100
1000
0011
0000
1000
0000
,
0101
0011
0101
0011
0101
0100
0010
0100
,
0101
0000
0011
1000
0101
0000
0101
0000
1001
0010
0100
1000
0011
0000
0100
0000
,
0011
0000
0101
0000
1001
0000
0101
0000
1001
0000
1000
0000
1001
0010
0100
1000
,
0011
0101
1001
1001
0011
0101
0110
1100
,
0010
0010
1000
1000
0010
0010
0001
0001
,
0100
0100
1000
1000
0010
0010
0100
0100
,
0010
0010
0100
0100
0010
0010
0100
0100
,
0010
0010
1000
1000
0100
0100
1000
1000
,
0010
0010
1M00
1M00
0M10
0M10
0M01
0M01
,
01M0
0100
1000
100M
0010
0010
M100
0100
,
0010
0010
M100
0100
M010
M010
M100
M100
,
001M
0010
1000
1000
01M0
0100
1000
1000
,
0M10
0010
1M00
1000
0M10
0010
0M01
0M01
,
01M0
0100
1000
100M
0010
0010
M100
0100
,
0010
0010
M100
0100
M010
0010
M100
M100
,
00MM
0000
0MM0
0000
,
1M10
0000
0010
0000
1200
0300
1200
0300
0210
0300
0210
0300
0201
0300
0201
0300
,
0120
0130
1000
1002
0013
0010
2100
3100
,
0011
0000
0010
0000
2100
0000
3100
0000
2010
3000
2010
3000
2100
3000
2100
3000
,
0012
0013
1000
1010
0120
0131
1001
1001
,
0210
0000
0310
0000
1200
0000
1300
0000
0210
0000
0310
0000
0201
0300
0201
0300
,
0120
0130
1000
1002
0013
0010
2001
3101
,
0011
0000
0010
0000
2100
0000
3100
0000
2010
0000
3010
0000
2100
3000
2100
3000
,
0021
0031
1100
1100
0201
0311
1001
1001
,
0220
0000
0030
0000
0020
0030
0020
0030
0020
0030
0020
0030
0020
0000
0330
0000
,
2002
0003
0000
0020
0030
3000
0120
0030
,
0201
0000
0000
0000
0020
0030
0320
0030
0022
0030
0020
0030
0020
0030
0023
0030
,
0202
0000
0003
0020
0000
0030
0301
0000
2000
0000
0001
0000
0201
0000
3301
0000
,
2020
0000
3000
0000
0200
0300
0230
0300
0202
0300
0200
0300
0200
0000
0303
0000
,
2020
0030
0002
0000
0000
3003
0012
0010
,
0110
1000
0000
1000
0010
0000
1000
1000
,
1010
0010
0010
0010
0010
0010
0010
0010
,
1013
0000
0010
0000
1200
0300
1200
0300
0210
0300
0210
0300
0201
0300
0201
0300
,
0120
0130
1000
1002
0013
0010
2100
3100
,
0011
0000
0010
0000
2100
0000
3100
0000
2010
3000
2010
3000
2100
3000
2100
3000
,
0012
0013
1000
1010
0120
0131
1001
1001
,
0210
0000
0310
0000
1200
0000
1300
0000
0210
0000
0310
0000
0201
0300
0201
0300
,
0120
0130
1000
1002
0013
0010
2001
3101
,
0011
0000
0010
0000
2100
0000
3100
0000
2010
0000
3010
0000
2100
3000
2100
3000
,
0021
0031
1100
1100
0201
0311
1001
1001
,
0220
0000
0030
0000
0020
0030
0020
0030
0020
0030
0020
0030
0020
0000
0330
0000
,
2002
0003
0000
0020
0030
3000
0120
0030
,
0201
0000
0000
0000
0020
0030
0320
0030
0022
0030
0020
0030
0020
0030
0023
0030
,
0202
0000
0003
0020
0000
0030
0301
0000
2000
0000
0001
0000
0201
0000
3301
0000
,
2020
0000
3000
0000
0200
0300
0230
0300
0202
0300
0200
0300
0200
0000
0303
0000
,
2020
0030
0002
0000
0000
3003
0012
0010
,
0110
1000
0000
1000
0010
0000
1000
0000
,
1010
0000
0100
0000
0010
0000
1100
0000
0010
0000
1000
0000
0110
0000
1000
0000
0010
0000
1100
0000
0010
0003
0100
0000
,
1010
0000
0000
0001
0000
0000
0110
0000
0000
0001
0000
0000
1010
0000
0001
0000
0010
0000
1100
0000
0010
0000
0100
0000
,
2022
0000
0000
0000
0000
0000
0000
0000
0000
0000
0000
3030
,
M0M0
0000
0000
0000
,
0000
0000
0000
0000
,
0000
0000
0000
0000
,
0000
0000
0000
0000
,
0003
0000
0000
0000
;

//---------------dance-single - Copied from----------------
#NOTES:
     dance-single:
     Copied from:
     Beginner:
     19:
     1.000,1.000,1.000,1.000,0.618,2058.000,1267.000,287.000,36.000,442.000:
0111
1000
1000
1000
0010
0100
1000
0100
,
1011
1000
1000
1000
0001
0010
0100
0010
,
1011
0000
0000
0000
0000
0000
1000
0000
0000
0000
0000
0000
1000
0000
0000
0000
0000
0000
1000
0000
0000
0000
0000
0000
0101
0000
0000
0010
0000
0000
1001
0000
0000
0100
0000
0000
1010
0000
0000
0000
0100
0000
0010
0000
1000
0000
0000
0000
,
0110
0000
0000
0000
0001
0000
0100
0000
0010
0000
0000
0000
1001
0000
0000
0010
0000
0000
1100
0000
0000
0010
0000
0000
0101
0000
0000
0000
0010
0000
0100
0000
0001
0000
0000
0000
0110
0000
0000
0000
0000
0000
1010
0000
0000
0000
0000
0000
,
1110
0100
1001
0100
1000
1000
0101
1000
,
1000
0000
0100
0000
1001
0000
1000
0000
1000
1000
1000
0000
0101
0000
1000
0000
,
0100
0010
1001
0010
1000
1000
0011
1000
,
1000
0000
0010
0000
1001
0000
1000
0000
1000
1000
1000
0000
1001
1000
1000
0000
,
0100
0010
0101
0010
0100
0100
0011
0100
,
0100
0000
0010
0000
0101
0000
0100
0000
0100
0100
0100
0000
0101
0000
0100
0000
,
0001
0100
1001
0100
1000
1000
0101
1000
,
1000
0000
0100
0000
1001
0000
1000
0000
0011
0001
0101
0000
0101
0000
1001
0000
,
1110
0100
1001
0100
1000
1000
0101
1000
,
1000
0000
0100
0000
1001
0000
1000
0000
1100
1100
1100
0000
0101
0000
1000
0000
,
0100
0010
1001
0010
1000
1000
0011
1000
,
1000
0000
0010
0000
1001
0000
1000
0000
1010
1010
1010
0000
1011
1010
1010
0000
,
0100
0010
0101
0010
0100
0100
0011
0100
,
0100
0000
0010
0000
0101
0000
0100
0000
0110
0110
0110
0000
0101
0000
1000
0000
,
0001
0100
1001
0100
1000
1000
0101
1000
,
1000
0000
0100
0000
1001
0000
1000
0000
0011
0001
0101
0000
0101
0000
1001
0000
,
1110
0110
1101
0110
1100
1100
0111
1100
,
1100
0000
0110
0000
1101
0000
1100
0000
1100
1100
1100
0000
0111
0000
1100
0000
,
1010
0101
1011
0101
1010
1010
0111
1010
,
1010
0000
0101
0000
1011
0000
1010
0000
1010
1010
1010
0000
1011
1000
1010
0000
,
0111
0011
1110
0011
0110
0110
1011
0110
,
0110
0000
0011
0000
1110
0000
0110
0000
0110
0110
0110
0000
1011
0000
1100
0000
,
0110
1100
1101
0110
1100
1100
0111
1100
,
1100
0000
0110
0000
1101
0000
1100
0000
0011
0001
0101
0000
0101
0000
1001
0000
,
1110
0110
1101
0110
1100
1100
0111
1100
,
1100
0000
0110
0000
1101
0000
1100
0000
1100
1100
1100
0000
0111
0000
1100
0000
,
1010
0101
1011
0101
1010
1010
0111
1010
,
1010
0000
0101
0000
1011
0000
1010
0000
1010
1010
1010
0000
1011
1000
1010
0000
,
0111
0011
1110
0011
0110
0110
1011
0110
,
0110
0000
0011
0000
1110
0000
0110
0000
0110
0110
0110
0000
1011
0000
1100
0000
,
0110
1100
1101
0110
1100
1100
0111
1100
,
1100
0000
0110
0000
1101
0000
1100
0000
0011
0001
0101
0000
0101
0000
1001
0000
,
1001
0101
1001
0101
1001
1000
0100
1000
,
1011
0000
0101
0001
1001
0000
1001
0000
1001
1001
1001
0001
0101
0000
1000
0000
,
0101
0011
1001
0011
1001
1000
0010
1000
,
1101
0000
0011
0001
1001
0000
1001
0000
1001
1001
1001
0001
1001
1000
1000
0000
,
0101
0011
0101
0011
0101
0100
0010
0100
,
1101
0000
0011
0001
0101
0000
0101
0000
0101
0101
0101
0001
0011
0000
0100
0000
,
0011
0000
0101
0000
1001
0000
0101
0000
1001
0000
1000
0000
0101
0001
1001
0001
,
1011
0000
0000
0101
0000
0000
1001
0000
0000
1001
0000
0000
0111
0000
0001
0010
0001
0000
0101
0000
0001
1000
0001
0000
,
1001
0101
1001
0101
1001
1000
0100
1000
,
1011
0000
0101
0001
1001
0000
1001
0000
1001
1001
1001
0001
0101
0000
1000
0000
,
0101
0011
1001
0011
1001
1000
0010
1000
,
1101
0000
0011
0001
1001
0000
1001
0000
1001
1001
1001
0001
1001
1000
1000
0000
,
0101
0011
0101
0011
0101
0100
0010
0100
,
1101
0000
0011
0001
0101
0000
0101
0000
0101
0101
0101
0001
0011
0000
0100
0000
,
0011
0000
0101
0000
1001
0000
0101
0000
1001
0000
1000
0000
0101
0001
1001
0001
,
1011
0101
1001
1001
0111
0011
0101
1001
,
1011
0000
0010
0000
1200
0300
1200
0300
0210
0300
0210
0300
0201
0300
0201
0300
,
1120
0100
1000
1032
0010
0013
2101
0100
,
0011
0000
3010
0000
2100
0000
3100
0000
2010
3000
2010
3000
2100
3000
2100
3000
,
0112
0010
1000
1013
0120
0101
1001
1031
,
0211
0000
0310
0000
1200
0000
1300
0000
0210
0000
0310
0000
0201
0300
0201
0300
,
1120
0100
1030
1002
0010
0013
2101
0101
,
0011
0000
3010
0000
2100
0000
3101
0000
2010
0000
3010
0000
2101
3000
2100
3000
,
0021
0001
1100
1130
0211
0011
1001
1301
,
0221
0000
0030
0000
0020
0030
0020
0030
0020
0030
0020
0030
0020
0000
0330
0000
,
2102
0000
0000
0000
0003
0000
0020
0000
0000
0000
3030
0000
1120
0000
0000
0030
,
0201
0000
0000
0000
0020
0030
0320
0030
0022
0030
0020
0030
0020
0030
0023
0030
,
1202
0000
0003
0020
0000
0000
0301
0000
2000
0000
0031
0000
0201
0000
3301
0000
,
2021
0000
3000
0000
0200
0300
0230
0300
0202
0300
0200
0300
0200
0000
0303
0000
,
2120
0030
0002
0000
0000
3003
1012
0010
,
0210
1000
0000
1300
0020
0000
1000
0030
,
0200
0000
0010
0310
2110
0010
0010
3013
,
1110
0110
1101
0110
1100
1100
0111
1100
,
1100
0000
0110
0000
1101
0000
1100
0000
1100
1100
1100
0000
0111
0000
1100
0000
,
1010
0101
1011
0101
1010
1010
0111
1010
,
1010
0000
0101
0000
1011
0000
1010
0000
1010
1010
1010
0000
1011
1000
1010
0000
,
0111
0011
1110
0011
0110
0110
1011
0110
,
0110
0000
0011
0000
1110
0000
0110
0000
0110
0110
0110
0000
1011
0000
1100
0000
,
0110
1100
1101
0110
1100
1100
0111
1100
,
1100
0000
0110
0000
1101
0000
1100
0000
0011
0001
0101
0000
0101
0000
1001
0000
,
1110
0110
1101
0110
1100
1100
0111
1100
,
1100
0000
0110
0000
1101
0000
1100
0000
1100
1100
1100
0000
0111
0000
1100
0000
,
1010
0101
1011
0101
1010
1010
0111
1010
,
1010
0000
0101
0000
1011
0000
1010
0000
1010
1010
1010
0000
1011
1000
1010
0000
,
0111
0011
1110
0011
0110
0110
1011
0110
,
0110
0000
0011
0000
1110
0000
0110
0000
0110
0110
0110
0000
1011
0000
1100
0000
,
0110
1100
1101
0110
1100
1100
0111
1100
,
1100
0000
0110
0000
1101
0000
1100
0000
0011
0001
0101
0000
0101
0000
1001
0000
,
1001
0101
1001
0101
1001
1000
0100
1000
,
1011
0000
0101
0001
1001
0000
1001
0000
1001
1001
1001
0001
0101
0000
1000
0000
,
0101
0011
1001
0011
1001
1000
0010
1000
,
1101
0000
0011
0001
1001
0000
1001
0000
1001
1001
1001
0001
1001
1000
1000
0000
,
0101
0011
0101
0011
0101
0100
0010
0100
,
1101
0000
0011
0001
0101
0000
0101
0000
0101
0101
0101
0001
0011
0000
0100
0000
,
0011
0000
0101
0000
1001
0000
0101
0000
1001
0000
1000
0000
0101
0001
1001
0001
,
1011
0000
0000
0101
0000
0000
1001
0000
0000
1001
0000
0000
0111
0000
0001
0010
0001
0000
0101
0000
0001
1000
0001
0000
,
1001
0101
1001
0101
1001
1000
0100
1000
,
1011
0000
0101
0001
1001
0000
1001
0000
1001
1001
1001
0001
0101
0000
1000
0000
,
0101
0011
1001
0011
1001
1000
0010
1000
,
1101
0000
0011
0001
1001
0000
1001
0000
1001
1001
1001
0001
1001
1000
1000
0000
,
0101
0011
0101
0011
0101
0100
0010
0100
,
1101
0000
0011
0001
0101
0000
0101
0000
0101
0101
0101
0001
0011
0000
0100
0000
,
0011
0000
0101
0000
1001
0000
0101
0000
1001
0000
1000
0000
0101
0001
1001
0001
,
1011
0101
1001
1001
0111
0011
0101
1001
,
1011
0000
0010
0000
1200
0300
1200
0300
0210
0300
0210
0300
0201
0300
0201
0300
,
1120
0100
1000
1032
0010
0013
2101
0100
,
0011
0000
3010
0000
2100
0000
3100
0000
2010
3000
2010
3000
2100
3000
2100
3000
,
0112
0010
1000
1013
0120
0101
1001
1031
,
0211
0000
0310
0000
1200
0000
1300
0000
0210
0000
0310
0000
0201
0300
0201
0300
,
1120
0100
1030
1002
0010
0013
2101
0101
,
0011
0000
3010
0000
2100
0000
3101
0000
2010
0000
3010
0000
2101
3000
2100
3000
,
0021
0001
1100
1130
0211
0011
1001
1301
,
0221
0000
0030
0000
0020
0030
0020
0030
0020
0030
0020
0030
0020
0000
0330
0000
,
2102
0000
0000
0000
0003
0000
0020
0000
0000
0000
3030
0000
1120
0000
0000
0030
,
0201
0000
0000
0000
0020
0030
0320
0030
0022
0030
0020
0030
0020
0030
0023
0030
,
1202
0000
0003
0020
0000
0000
0301
0000
2000
0000
0031
0000
0201
0000
3301
0000
,
2021
0000
3000
0000
0200
0300
0230
0300
0202
0300
0200
0300
0200
0000
0303
0000
,
2120
0030
0002
0000
0000
3003
1012
0010
,
0210
1000
0000
1300
0020
0000
1000
0030
,
1010
0100
1000
0010
1100
0010
0100
1000
0110
0000
1010
0000
0110
0000
1013
0000
,
0111
1110
1100
1110
0101
0111
1010
0111
,
1011
1110
1100
1110
0011
0111
1100
0111
,
1101
1110
1100
1110
0101
0111
1010
0111
,
0101
1011
0101
1110
0101
0111
1010
1101
,
1110
1000
1010
1000
1110
1000
1110
1000
,
1101
0100
0101
0100
1101
0100
1101
0100
,
1011
0010
0011
0010
1011
0010
1011
0010
,
1011
0000
0000
0000
1101
0000
0000
0000
1110
0000
0000
0000
1101
0010
0100
0010
,
0111
1110
1100
1110
0101
0111
1010
0111
,
1011
1110
1100
1110
0011
0111
1100
0111
,
1101
1110
1100
1110
0101
0111
1010
0111
,
0101
1011
0101
1110
0101
0111
1010
1101
,
1110
1000
1010
1000
1110
1000
1110
1000
,
1101
0100
0101
0100
1101
0100
1101
0100
,
1011
0010
0011
0010
1011
0010
1011
0010
,
1011
1101
1110
1101
,
1100
0000
0010
0001
1000
0000
0100
0000
0010
0001
1000
0000
0111
0000
1000
0100
0010
0000
0001
0000
1000
0100
0010
0000
,
1001
0000
0100
0010
0001
0000
1000
0000
0010
0001
0100
0000
1011
0000
0100
0010
0001
0000
1000
0000
0100
0010
1000
0000
,
0101
0000
0010
1000
0010
0000
0101
0000
0010
1000
0010
0000
0111
0000
0100
1000
0001
0000
0110
0000
0001
1000
0010
0000
,
0101
0000
0010
1000
0100
0000
0011
0000
0100
1000
0010
0000
0111
0000
0010
1000
0001
0000
0110
0000
0001
0000
0010
0000
,
1100
0000
0010
0001
1000
0000
0100
0000
0010
0001
1000
0000
0111
0000
1000
0100
0010
0000
0001
0000
1000
0100
0010
0000
,
1001
0000
0100
0010
0001
0000
1000
0000
0010
0001
0100
0000
1011
0000
0100
0010
0001
0000
1000
0000
0100
0010
1000
0000
,
0101
0000
0010
1000
0010
0000
0101
0000
0010
1000
0010
0000
0111
0000
0100
1000
0001
0000
0110
0000
0001
1000
0010
0000
,
0101
0000
0010
1000
0100
0000
0011
0000
0100
1000
0010
0000
0111
0000
0010
1000
0100
0000
0011
0000
0100
0000
0010
0000
,
0101
0110
1010
1100
1010
0110
1011
0101
0110
1010
0110
0101
,
0011
0101
0110
1010
0110
0101
1011
0110
1010
1100
1010
0110
,
0011
0101
0110
1010
0110
0101
1011
0110
1010
1100
1010
0110
,
0101
0110
1010
0011
0110
1010
1101
0110
1010
0110
0100
0100
,
0101
0110
1010
1100
1010
0110
1011
0101
0110
1010
0110
0101
,
0011
0101
0110
1010
0110
0101
1011
0110
1010
1100
1010
0110
,
0011
0101
0110
1010
0110
0101
1011
0110
1010
1100
1010
0110
,
0101
0110
1010
0011
0110
1010
1101
0110
1010
0110
0100
0100
,
1101
0000
0010
0000
0100
0000
1000
0000
0000
1000
0000
0000
1110
0000
0001
0000
0010
0000
0100
0000
0000
0100
0000
0000
,
1021
0100
0100
0100
1031
0110
1010
0110
,
1102
0000
0000
1000
0000
0000
1000
0000
0000
1000
0000
0000
0113
0000
0000
1001
0000
0000
1001
0000
0100
0001
0010
0000
,
1102
0000
0000
1000
0000
0000
1000
0000
0000
1000
0000
0000
1100
0000
0000
1000
0003
0000
1010
0000
0000
1001
0000
0000
,
0211
0000
0000
0001
0300
0000
0011
0000
0100
0001
1000
0000
0211
0000
0000
0001
0000
0000
0001
0000
0000
0001
0300
0000
,
1011
0000
0000
1000
0010
0000
1000
0000
0100
1000
0000
0000
0111
0000
0000
0011
0000
0000
0101
0000
0000
1001
0000
0000
,
1011
0000
0000
0101
0000
0000
0011
0000
0000
0011
0000
0000
1101
0000
0000
0100
0010
0000
0100
0000
0001
0100
0000
0000
,
0211
0000
0000
0001
0000
0000
0001
0000
0000
0001
0300
0000
1110
0000
0000
1000
0010
0000
1000
0000
0001
1000
0000
0000
,
0121
0000
0000
0000
0000
0000
0000
0000
0000
0000
0000
0000
0000
0000
0000
0000
0000
0000
0000
0000
0000
0000
0000
0000
0001
0000
0000
0000
0000
0000
0000
0000
0000
0000
0000
0000
0000
0000
0000
0000
0000
0000
0000
0000
0000
0000
0000
0000
0031
0000
0000
0000
0000
0000
0000
0000
0000
0000
0000
0000
0000
0000
0000
0000
0000
0000
0000
0000
0000
0000
0000
0000
0101
0000
0000
0000
0000
0000
0000
0000
0000
0000
0000
0000
0000
0000
0000
0000
0000
0000
0000
0000
0000
0000
0000
0000
1101
0000
0000
0000
0000
0000
0000
0000
0000
0000
0000
0000
0000
0000
0000
0010
0000
0000
0000
0000
0000
0000
0000
0000
0001
0000
0000
0100
0000
0000
0000
0000
0000
0000
0000
0000
0000
0000
0000
0000
0010
0000
0000
0000
0000
0000
0000
0000
0001
0000
0000
0000
0000
0000
0100
0000
0000
0000
0000
0000
0000
0000
0000
0000
0000
0000
0010
0000
0000
0000
0000
0000
0001
0000
0000
0000
0000
0000
0000
0000
0100
0000
0000
0000
0000
0000
0000
0000
0000
0000
0000
0000
0000
0000
0000
0000
,
1011
0000
0100
0001
0010
0000
1100
0000
0010
0100
0001
0000
1011
0000
0100
0001
0010
0000
1100
0000
0010
0100
0001
0000
,
1011
0000
0100
0001
0010
0000
1100
0000
0010
0100
0001
0000
1011
0000
0100
0001
0010
0000
1100
0000
0010
0100
0001
0000
,
1011
0000
0100
0010
1000
0000
0011
0000
0100
0010
1000
0000
0111
0000
0010
0100
1000
0000
0011
0000
0010
1000
0100
0000
,
1021
0000
0000
0000
0000
0000
0000
0000
0000
0000
0000
0000
0000
0000
0000
0000
0000
0000
0000
0000
0000
0000
0000
0000
0100
0000
0000
0000
0000
0000
0000
0000
0000
0000
0000
0000
0000
0000
0000
0000
0000
0000
0000
0000
0000
0000
0000
0000
0130
0000
0000
0000
0000
0000
0000
0000
0000
0000
0000
0000
0000
0000
0000
0000
0000
0000
0000
0000
0000
0000
0000
0000
0101
0000
0000
0000
0000
0000
0000
0000
0000
0000
0000
0000
0000
0000
0000
0000
0000
0000
0000
0000
0000
0000
0000
0000
1110
0000
0000
0000
0000
0000
0000
0000
0000
0000
0000
0000
0000
0000
0000
0001
0000
0000
0000
0000
0000
0000
0000
0000
1000
0000
0000
0010
0000
0000
0000
0000
0000
0000
0000
0000
0000
0000
0000
0000
0001
0000
0000
0000
0000
0000
0000
0000
1000
0000
0000
0000
0000
0000
0010
0000
0000
0000
0000
0000
0000
0000
0000
0000
0000
0000
0001
0000
0000
0000
0000
0000
1000
0000
0000
0000
0000
0000
0000
0000
0010
0000
0000
0000
0000
0000
0000
0000
0000
0000
0000
0000
0000
0000
0000
0000
,
1101
1100
1010
1100
1011
1100
1010
1100
,
0111
1100
0110
1100
0111
1100
0110
1100
,
1011
1100
1010
1100
1011
1100
1010
1100
,
1110
1101
1011
0111
1101
1110
1011
0112
,
1110
0110
1100
0110
1100
1100
0110
1100
,
1100
0000
0110
0000
1100
0000
1100
0000
1100
1100
1103
0000
0111
0000
1100
0000
,
1010
0101
1011
0101
1010
1010
0111
1010
,
1010
0000
0101
0000
1011
0000
1010
0000
1010
1010
1010
0000
1011
1000
1010
0000
,
0111
0011
1110
0011
0110
0110
1011
0110
,
0110
0000
0011
0000
1110
0000
0110
0000
0110
0110
0110
0000
1011
0000
1100
0000
,
0110
1100
1101
0110
1100
1100
0111
1100
,
1100
0000
0110
0000
1101
0000
1100
0000
0011
0001
0101
0000
0101
0000
1001
0000
,
1110
0110
1101
0110
1100
1100
0111
1100
,
1100
0000
0110
0000
1101
0000
1100
0000
1100
1100
1100
0000
0111
0000
1100
0000
,
1010
0101
1011
0101
1010
1010
0111
1010
,
1010
0000
0101
0000
1011
0000
1010
0000
1010
1010
1010
0000
1011
1000
1010
0000
,
0111
0011
1110
0011
0110
0110
1011
0110
,
0110
0000
0011
0000
1110
0000
0110
0000
0110
0110
0110
0000
1011
0000
1100
0000
,
0110
1100
1101
0110
1100
1100
0111
1100
,
1100
0000
0110
0000
1101
0000
1100
0000
0011
0001
0101
0000
0101
0000
1001
0000
,
1001
0101
1001
0101
1001
1000
0100
1000
,
1011
0000
0101
0001
1001
0000
1001
0000
1001
1001
1001
0001
0101
0000
1000
0000
,
0101
0011
1001
0011
1001
1000
0010
1000
,
1101
0000
0011
0001
1001
0000
1001
0000
1001
1001
1001
0001
1001
1000
1000
0000
,
0101
0011
0101
0011
0101
0100
0010
0100
,
1101
0000
0011
0001
0101
0000
0101
0000
0101
0101
0101
0001
0011
0000
0100
0000
,
0011
0000
0101
0000
1001
0000
0101
0000
1001
0000
1000
0000
0101
0001
1001
0001
,
1011
0101
1001
1001
0111
0011
0101
1001
,
0010
0010
1000
1000
0010
0010
0001
0001
,
0100
0100
1000
1000
0010
0010
0100
0100
,
0010
0010
0100
0100
0010
0010
0100
0100
,
0010
0010
1000
1000
0100
0100
1000
1000
,
0010
0010
1M00
1M00
0M10
0M10
0M01
0M01
,
01M0
0100
1000
100M
0010
0010
M100
0100
,
0010
0010
M100
0100
M010
M010
M100
M100
,
001M
0010
1000
1000
01M0
0100
1000
1000
,
0M10
0010
1M00
1000
0M10
0010
0M01
0M01
,
01M0
0100
1000
100M
0010
0010
M100
0100
,
0010
0010
M100
0100
M010
0010
M100
M100
,
00MM
0000
0MM0
0000
,
1M11
0000
0010
0000
1200
0300
1200
0300
0210
0300
0210
0300
0201
0300
0201
0300
,
1120
0100
1000
1032
0010
0013
2101
0100
,
0011
0000
3010
0000
2100
0000
3100
0000
2010
3000
2010
3000
2100
3000
2100
3000
,
0112
0010
1000
1013
0120
0101
1001
1031
,
0211
0000
0310
0000
1200
0000
1300
0000
0210
0000
0310
0000
0201
0300
0201
0300
,
1120
0100
1030
1002
0010
0013
2101
0101
,
0011
0000
3010
0000
2100
0000
3101
0000
2010
0000
3010
0000
2101
3000
2100
3000
,
0021
0001
1100
1130
0211
0011
1001
1301
,
0221
0000
0030
0000
0020
0030
0020
0030
0020
0030
0020
0030
0020
0000
0330
0000
,
2102
0000
0000
0000
0003
0000
0020
0000
0000
0000
3030
0000
1120
0000
0000
0030
,
0201
0000
0000
0000
0020
0030
0320
0030
0022
0030
0020
0030
0020
0030
0023
0030
,
1202
0000
0003
0020
0000
0000
0301
0000
2000
0000
0031
0000
0201
0000
3301
0000
,
2021
0000
3000
0000
0200
0300
0230
0300
0202
0300
0200
0300
0200
0000
0303
0000
,
2120
0030
0002
0000
0000
3003
1012
0010
,
0210
1000
0000
1300
0020
0000
1000
1030
,
1010
0010
0110
0010
1010
0010
0110
0013
,
1011
0000
0010
0000
1200
0300
1200
0300
0210
0300
0210
0300
0201
0300
0201
0300
,
1120
0100
1000
1032
0010
0013
2101
0100
,
0011
0000
3010
0000
2100
0000
3100
0000
2010
3000
2010
3000
2100
3000
2100
3000
,
0112
0010
1000
1013
0120
0101
1001
1031
,
0211
0000
0310
0000
1200
0000
1300
0000
0210
0000
0310
0000
0201
0300
0201
0300
,
1120
0100
1030
1002
0010
0013
2101
0101
,
0011
0000
3010
0000
2100
0000
3101
0000
2010
0000
3010
0000
2101
3000
2100
3000
,
0021
0001
1100
1130
0211
0011
1001
1301
,
0221
0000
0030
0000
0020
0030
0020
0030
0020
0030
0020
0030
0020
0000
0330
0000
,
2102
0000
0000
0000
0003
0000
0020
0000
0000
0000
3030
0000
1120
0000
0000
0030
,
0201
0000
0000
0000
0020
0030
0320
0030
0022
0030
0020
0030
0020
0030
0023
0030
,
1202
0000
0003
0020
0000
0000
0301
0000
2000
0000
0031
0000
0201
0000
3301
0000
,
2021
0000
3000
0000
0200
0300
0230
0300
0202
0300
0200
0300
0200
0000
0303
0000
,
2120
0030
0002
0000
0000
3003
1012
0010
,
0210
1000
0000
1300
0020
0000
1000
0030
,
1010
0000
0100
0000
0010
0000
1100
0000
0010
0000
1000
0000
0110
0000
1000
0000
0010
0000
1100
0000
0010
0003
0100
0000
,
1011
0000
0000
1000
0000
0000
0111
0000
0000
0100
0000
0000
1011
0000
0100
0000
0010
0000
1101
0000
0010
0000
0100
0000
,
2222
0000
0000
0000
0000
0000
0000
0000
0000
0000
0000
3330
,
MMM0
0000
0000
0000
,
0000
0000
0000
0000
,
0000
0000
0000
0000
,
0000
0000
0000
0000
,
0003
0000
0000
0000
;
