#TITLE:Firewall;
#SUBTITLE:;
#ARTIST:Steve Vai;
#TITLETRANSLIT:;
#SUBTITLETRANSLIT:;
#ARTISTTRANSLIT:;
#CREDIT:;
#BANNER:../fallback - bn.png;
#BACKGROUND:../fallback - bg.png;
#LYRICSPATH:;
#CDTITLE:;
#MUSIC:Firewall.ogg;
#OFFSET:-0.240;
#SAMPLESTART:76.858;
#SAMPLELENGTH:12.000;
#SELECTABLE:YES;
#DISPLAYBPM:129.000;
#BPMS:0.000=129.000,34.000=98.900,36.000=129.000;
#STOPS:;
#BGCHANGES:;
// cache tags:
#FIRSTBEAT:0.000;
#LASTBEAT:545.750;
#SONGFILENAME:Songs/Beast Aoreo BEAST!/Firewall - [Aoreo]/Firewall.sm;
#HASMUSIC:1;
#HASBANNER:1;
#MUSICLENGTH:259.422;
// end cache tags

//---------------dance-single - J. Nero----------------
#NOTES:
     dance-single:
     J. Nero:
     Challenge:
     12:
     0.832,1.000,0.123,0.424,1.000,1368.000,32.000,110.000,0.000,11.000:
2000
0000
3000
0000
0001
1000
0002
0000
0003
0000
1000
0100
0010
0001
0010
0100
,
2000
0000
3000
0000
0010
0100
0001
0010
0000
0010
0000
0100
1000
0010
0100
0001
,
2000
0000
3000
0000
0010
0100
0002
0000
2003
0000
3010
0100
0010
0100
0000
0101
,
0000
0000
0000
0000
0001
0000
1000
0000
0100
0000
0010
0000
0000
0000
0100
0000
1000
0100
1000
0000
0100
0000
1000
0000
0001
0000
0100
0000
0000
0000
0010
0000
,
0200
0000
0000
0000
0300
0000
0000
0000
0001
0000
1000
0000
0100
1000
0100
0000
1000
0001
1000
0000
0001
0100
0001
0000
0100
0000
0010
0000
0000
0000
1010
0000
,
0000
0000
1000
0001
1000
0000
0001
0000
0000
0000
1000
0000
0000
0000
0010
0000
0100
0001
0100
0000
0000
0000
0001
0000
1000
0000
0100
0000
0000
0000
0011
0000
,
0000
0101
0000
0100
0000
0010
1000
0000
0000
0000
1001
0000
1000
1000
0010
0010
,
0000
0000
0000
0000
0000
0000
0000
0000
0000
0000
0000
0000
0000
0000
0000
0000
1000
0000
0000
0000
0000
0000
0000
0000
0000
0000
0000
0000
0000
0000
0000
0000
0010
0000
0000
0000
0000
0000
0000
0000
0000
0000
0000
0000
0000
0000
0000
0000
0100
0000
0000
0000
0000
0000
0000
0000
0000
0000
0000
0000
0000
0000
0000
0000
0000
0000
0000
0000
0000
0000
0000
0000
0000
0000
0000
0000
0000
0000
0000
0000
0000
0000
0000
0000
0000
0000
0000
0000
0000
0000
0000
0000
0000
0000
0000
0000
0001
0000
0000
0000
0000
0000
0100
0000
0000
0000
0000
0000
0001
0000
0000
0000
0000
0000
0000
0000
0000
0000
0000
0000
1000
0000
0000
0000
0000
0000
0000
0000
0000
0000
0000
0000
0010
0000
0000
0000
0000
0000
0000
0000
0000
0000
0000
0000
1000
0000
0000
0000
0000
0000
0000
0000
0000
0000
0000
0000
1000
0000
0000
0000
0000
0000
0000
0000
0000
0000
0000
0000
0010
0000
0000
0000
0000
0000
0000
0000
0000
0000
0000
0000
0100
0000
0000
0000
0000
0000
0000
0000
0000
0000
0000
0000
,
0002
0000
0000
0000
0023
0000
0000
0000
0230
0000
0000
0300
0000
0000
0000
0000
,
1000
0000
0000
1001
0000
0010
0000
0100
,
0001
0000
0000
0000
0000
0000
1000
0000
0000
0000
0010
0100
0001
1000
0100
0000
,
1000
0000
0000
0010
0000
0100
0001
1000
,
0001
0000
0000
0000
0000
0000
1001
0000
0000
0000
0100
0001
1000
0100
1000
0000
,
0010
0000
0100
0001
0010
0100
1000
0010
,
0100
0000
0001
0000
1000
0000
0100
0000
0000
0000
1000
0010
0100
0001
1000
0100
,
1000
0010
0000
0100
0000
0001
0010
0100
,
1000
0000
0000
0000
1010
0000
0010
0000
0000
0000
0100
0001
1000
0100
0010
0000
,
1100
0000
1000
0010
0000
0100
0000
0001
,
1000
0000
0000
0000
0010
0000
0100
0000
0000
0000
0001
1000
0100
1000
0010
0000
,
0000
0000
0100
0001
0020
0000
0000
0030
0100
1000
0020
0000
0000
0000
0000
0000
,
0030
0100
0000
0001
2000
0000
0000
3000
0010
0100
0000
0000
0000
0000
0001
1000
,
0100
0000
1000
0010
0100
0000
0001
1000
,
0100
0000
0010
0000
0001
0000
0010
0100
0000
0000
1000
0010
0100
0010
1000
0001
,
0100
0000
0001
1000
0010
0100
0001
0010
,
0100
0000
1000
0010
0100
0001
1000
0000
0001
0000
0100
0000
0010
1000
0001
0000
,
0010
0000
0000
0100
1000
0010
1000
0000
0000
0000
0010
0000
0100
0000
0001
0000
,
1000
0000
0000
0010
0100
0000
0000
0000
0010
0000
0100
0001
1000
0100
0010
0000
,
0001
0000
0000
0010
0100
1000
0100
0000
1000
0000
0010
0000
0100
0000
0001
0000
,
0010
0000
0100
1000
0100
0000
1000
0000
0020
0000
0130
0001
0010
0100
1000
0001
,
0200
0000
0000
0000
0000
0000
0302
0000
0000
0000
1003
0100
1000
0000
0010
0000
,
0100
0000
0000
0000
0001
0010
0001
0010
0100
1000
0100
1000
0010
0100
0001
0000
,
0100
0000
0001
0000
0000
0001
0000
0000
0001
0000
0000
0001
0000
0000
0001
0000
,
0010
0000
0000
0000
0100
1000
0010
0100
0001
1000
0001
0010
0100
1000
0010
0000
,
0110
0000
0000
0000
0100
0000
0001
0000
0000
0000
1000
0000
0020
0030
0100
0000
,
0001
0000
0000
0000
0010
0000
0100
0000
0000
0000
1000
0010
0100
0001
0010
0100
,
1000
0010
0100
0001
1000
0010
0100
0001
,
1000
0000
0001
0000
0100
0000
0010
0000
1000
0000
0001
0000
1000
0000
0001
0000
1000
0000
0001
0000
0000
0000
0000
0000
1000
0000
0000
0100
0000
0000
0010
0000
0000
0001
0000
0000
0100
0000
0000
0000
0000
0000
0010
0000
0000
0000
0000
0000
,
1010
0000
0000
0000
1000
0000
0001
0000
0000
0000
0010
0000
0100
1000
0100
0000
,
1000
0000
0010
0000
0000
0000
0100
0000
0020
0230
0300
0200
0302
0003
0010
0000
,
0100
0000
0000
0000
2000
3020
0030
0000
0100
0000
0001
1000
0100
0000
1000
0000
,
0010
0000
0000
0000
0200
0302
0003
0000
0010
0100
1000
0010
0100
0000
0001
0000
,
0000
0000
0000
0000
1000
0001
1000
0000
0001
0000
0000
0000
0100
0000
0000
0000
0010
0000
0000
0000
0100
0000
0000
0000
0001
0000
0000
0000
0010
0000
0000
0000
,
0000
0000
0100
0000
1100
0000
0000
1000
0010
0000
0100
0010
0000
0010
0100
0001
,
1000
0010
0100
0001
0010
0100
0000
1000
,
0000
0010
0000
0100
0001
0000
0000
1000
0100
1000
0010
0000
0100
0000
0001
0000
,
2000
0000
0000
0000
0000
0000
0000
0000
0002
0000
0000
0000
0000
0000
0000
0000
0220
0000
0000
0000
0000
0000
0000
0000
0000
0000
0000
3333
1000
0000
0000
0000
0001
0000
0000
0000
0000
0000
0000
0000
0100
0000
0000
0000
0000
0000
0000
0000
0010
0000
0000
0000
0000
0000
0000
0000
0100
0000
0000
0000
0000
0000
0000
0000
,
0001
0010
0100
0000
1000
0000
0010
0100
0000
0100
0001
0000
1000
0000
0100
0000
,
0010
0100
1000
0000
0010
0100
0001
1000
,
0020
0230
0302
2003
3000
0020
0230
0301
,
2000
0000
0000
0000
0000
0000
0000
0000
0020
0000
0000
0000
0000
0000
0000
0000
0202
0000
0000
0000
0000
0000
0000
0000
0000
0000
0000
3333
1000
0000
0000
0000
0010
0000
0000
0000
0000
0000
0000
0000
0100
0000
0000
0000
0000
0000
0000
0000
0001
0000
0000
0000
0000
0000
0000
0000
0010
0000
0000
0000
0000
0000
0000
0000
,
0100
1000
0010
0000
0100
0000
0001
1000
0000
0010
0100
0000
0101
0000
0001
0000
,
1000
0000
0010
0000
0100
0000
0000
0001
1000
0100
1000
0000
0010
0000
0100
0000
,
0002
0023
0230
2300
3000
0020
0030
0200
,
0300
0000
0001
0100
0020
0000
0000
0000
0000
0000
2030
0000
0000
0000
0000
0000
,
3000
0000
0000
0000
0001
0000
0000
0000
0100
0000
0000
0000
0010
0000
0000
0000
0000
0000
0000
0000
0000
0000
0000
0000
1000
0000
0000
0100
0000
0000
1000
0000
0000
0000
0000
0000
0000
0000
0000
0000
0000
0000
0000
0000
0000
0000
0000
0000
,
0000
0000
0000
1010
0000
0000
0000
0000
0000
1000
0000
0000
0001
0000
0000
0000
0000
0000
0000
0000
0000
0000
0000
0000
0100
0000
0000
0000
0010
0000
0000
0000
0000
0000
0000
0000
1000
0000
0000
0010
0000
0000
0100
0000
0000
0001
0000
0000
,
0010
0000
0100
0000
1000
0000
0010
0100
0010
0000
0100
0001
1000
0000
0100
0000
,
1000
0000
0001
0000
0010
0000
0100
0000
0000
0000
1000
0010
0100
0001
1000
0000
,
0020
0030
0200
0300
0000
0000
0001
0000
0000
0000
1000
0010
0100
0000
0001
0000
,
1000
0000
0010
0000
0100
0000
0000
0000
0001
0000
1000
0100
1000
0010
0100
0000
,
0001
0000
1000
0100
1000
0010
0100
0001
,
0010
0000
0100
0000
1000
0000
0010
0000
0000
0000
0100
0001
0010
0100
1000
0010
,
0100
0000
0000
0000
0001
0000
1000
0000
0010
0100
0010
0000
0100
0000
0001
1000
,
0100
1000
0010
0100
0010
0000
0100
0001
1000
0100
1000
0010
0100
0000
0001
1000
,
0001
0000
0000
0000
0100
0001
0010
0100
1000
0010
0100
0010
1000
0001
0100
0001
,
1000
0100
1000
0010
0100
0010
1000
0001
0010
0100
1000
0100
0010
0001
0100
0010
,
1000
0010
0100
0001
0100
0010
1000
0100
0010
0001
0100
0001
1000
0100
1000
0010
,
0200
0000
0000
0000
0010
0000
0010
0000
0000
0000
0301
1000
0100
1000
0010
0000
,
0000
0000
0100
0001
1000
0000
0000
0000
0001
1000
0001
0000
0000
0000
0100
0000
,
0000
0000
0010
0000
1000
0000
0004
0000
1003
0000
0010
0100
0000
0010
1000
0000
,
0001
0000
1000
0001
0010
0000
0100
0000
1000
0010
0100
0000
0000
0000
0001
0000
,
0000
1000
0000
0010
0100
0000
0001
0000
1000
0100
1000
0000
0010
0000
0100
0000
,
0002
0000
0000
0000
0000
0000
0000
0000
2000
0000
0000
0000
0000
0000
0000
0000
0220
0000
0000
0000
0000
0000
0000
0000
0000
0000
0000
3333
1000
0000
0000
0000
0001
0000
0000
0000
0000
0000
0000
0000
0010
0000
0000
0000
0000
0000
0000
0000
0100
0000
0000
0000
0000
0000
0000
0000
1000
0000
0000
0000
0000
0000
0000
0000
,
0010
0100
0001
0000
0010
0000
0100
1000
0000
1000
0010
0000
0100
0000
0001
0000
,
0010
0000
0100
0000
1000
0000
0000
0001
0100
0000
0010
0000
1000
0000
0100
0000
,
0010
0001
0010
0100
1000
0010
0000
0100
0001
1000
0000
0100
1000
0010
0100
0001
,
2000
0000
0000
0000
0000
0000
0000
0000
0002
0000
0000
0000
0000
0000
0000
0000
0220
0000
0000
0000
0000
0000
0000
0000
0000
0000
0000
3333
1000
0000
0000
0000
0001
0000
0000
0000
0000
0000
0000
0000
0010
0000
0000
0000
0000
0000
0000
0000
0100
0000
0000
0000
0000
0000
0000
0000
1000
0000
0000
0000
0000
0000
0000
0000
,
0010
0100
0010
0000
1000
0000
0010
1000
0000
0001
0010
0000
0100
0000
1000
0000
,
0010
0000
0100
0000
0001
0000
0000
1000
0100
0000
1000
0000
0010
0000
0100
0000
,
0001
0010
0100
1000
0010
0100
0000
0001
1000
0100
0000
1000
0010
0100
0001
1000
,
0000
0000
0010
0100
0002
0000
0000
0000
0000
0000
2003
0000
0000
0000
0000
0000
,
3000
0000
0000
0000
0010
0000
0000
0000
0100
0000
0000
0000
0001
0000
0000
0000
0000
0000
0000
0000
0000
0000
0000
0000
1000
0000
0000
0001
0000
0000
1000
0000
0000
0000
0000
0000
0000
0000
0000
0000
0000
0000
0000
0000
0000
0000
0000
0000
,
0000
0001
0000
1000
0010
0000
0000
0000
0100
0000
0001
1000
0100
1000
0010
0100
,
0010
0100
0001
1000
0010
0100
0001
1000
,
0010
0000
0000
0000
1000
0000
0001
1000
0001
0000
0100
0010
0100
0000
0001
0000
,
1000
0000
0010
0100
0000
0001
1000
0100
,
0010
0000
0000
0000
0001
0000
0100
0000
0000
0000
0010
1000
0010
0100
0001
1000
,
0010
0000
0000
0000
0000
0000
1000
0000
0100
0000
1000
0000
0010
0000
0100
0000
0001
0000
1000
0000
0000
0001
0000
0000
2000
0000
0000
0000
0000
0000
0000
0000
0000
0000
0000
0000
0000
0000
0000
0000
0000
0000
3100
0000
0000
0000
0000
0000
,
0010
0000
0000
0000
0001
0000
0100
0000
0000
0000
0010
1000
0010
0100
0001
1000
,
0001
0000
1000
0000
0010
0100
0001
1000
0100
1000
0010
0100
0001
0010
0100
1000
,
0010
0000
0100
0000
0000
0000
0001
0000
1000
0000
0000
0000
0010
0000
1000
0000
0000
0000
0010
0000
0100
0000
0000
0000
0001
0000
0000
1000
0000
0000
0000
0000
0000
0010
0000
0000
1000
0000
0000
0001
0000
0000
1000
0000
0000
0001
0000
0000
,
1000
0001
0100
0001
0100
0010
1000
0100
0010
0001
0010
0100
1000
0010
0100
0001
1000
0001
0100
0001
1000
0100
1000
0100
,
0010
0001
0010
0100
1000
0010
0100
0010
0100
0001
1000
0001
1000
0100
0010
0100
1000
0100
0010
0001
0100
0010
1000
0001
,
0100
0010
1000
0001
0010
0100
1000
0100
1000
0010
1000
0001
0010
0100
1000
0010
0100
0001
0010
0100
1000
0100
1000
0010
,
0100
0001
0010
0100
1000
0100
1000
0010
0100
0001
1000
0100
0010
0001
0010
0100
1000
0010
0100
0001
1000
0010
0100
0001
,
1000
0100
0010
0001
0010
0100
1000
0010
1000
0010
0100
0001
0100
0001
0100
0001
1000
0100
1000
0100
0010
0001
0010
0100
,
1000
0010
0100
0001
1000
0100
1000
0010
0100
0001
0010
0100
1000
0100
1000
0010
0100
0001
0010
0100
1000
0100
0010
0001
,
0010
0100
1000
0010
0100
0001
1000
0001
1000
0001
0100
0010
0100
0010
1000
0100
0010
0001
0010
0100
1000
0100
1000
0010
,
1000
0000
0001
0000
0100
0000
0010
0000
0100
0000
0001
0000
2000
0000
0000
0000
0000
0000
3002
0000
0000
0000
0000
0000
0000
0000
0000
0000
0000
0000
1003
0000
0000
0001
0000
0000
0010
0000
0000
0100
0000
0000
1000
0000
0000
0000
0000
0000
,
0000
0010
0100
0001
0000
2000
0000
3010
,
0000
0100
0000
0010
0100
0000
0010
0000
1000
0100
0000
0000
0000
0000
1000
0001
,
2000
0000
3000
0000
0001
1000
0200
0000
0300
0000
1000
0010
0100
0001
0010
0100
,
2000
0000
3000
0000
0010
0100
0001
1000
0000
0010
0000
0100
0001
1000
0100
1000
,
0020
0000
0030
0000
0100
0001
2000
0000
3002
0000
0013
0100
1000
0010
0000
0110
,
0000
0000
0000
0000
0100
0000
0001
0000
1000
0000
0001
0000
0000
0000
0100
0000
0001
0100
0001
0000
0100
0000
0001
0000
1000
0000
0100
0000
0000
0000
1000
0000
,
0020
0000
0000
0000
0030
0000
0000
0000
0100
0000
0001
0000
1000
0100
1000
0000
0010
1000
0010
0000
0100
0001
0100
0000
0001
0000
1000
0000
0000
0000
1000
0000
,
0000
0000
0010
0100
0010
0000
0100
0001
0100
0000
0001
0000
1000
0000
0000
0000
0001
1000
0001
0000
0100
0000
0010
0000
1000
0000
0001
0000
0000
0000
0101
0000
,
0000
0100
0000
0010
0000
1000
0001
0000
0000
0000
0010
0010
0100
0100
1000
1000
,
0000
0000
0000
0000
0000
0000
0000
0000
0000
0000
0000
0000
0000
0000
0000
0000
0001
0000
0000
0000
0000
0000
0000
0000
0000
0000
0000
0000
0000
0000
0000
0000
1000
0000
0000
0000
0000
0000
0000
0000
0000
0000
0000
0000
0000
0000
0000
0000
0010
0000
0000
0000
0000
0000
0000
0000
0000
0000
0000
0000
0000
0000
0000
0000
0000
0000
0000
0000
0000
0000
0000
0000
0000
0000
0000
0000
0000
0000
0000
0000
0000
0000
0000
0000
0000
0000
0000
0000
0000
0000
0000
0000
0000
0000
0000
0000
0100
0000
0000
0000
0000
0000
0001
0000
0000
0000
0000
0000
0100
0000
0000
0000
0000
0000
0000
0000
0000
0000
0000
0000
0001
0000
0000
0000
0000
0000
0000
0000
0000
0000
0000
0000
1000
0000
0000
0000
0000
0000
0000
0000
0000
0000
0000
0000
0100
0000
0000
0000
0000
0000
1000
0000
0000
0000
0000
0000
0100
0000
0000
0000
0000
0000
0000
0000
0000
0000
0000
0000
1000
0000
0000
0000
0000
0000
0000
0000
0000
0000
0000
0000
0010
0000
0000
0000
0000
0000
0000
0000
0000
0000
0000
0000
,
2000
0000
0002
0000
0220
0000
3333
1000
0010
0000
0100
0000
0001
0000
0000
0000
,
1000
0001
1000
0000
0001
0000
0000
0000
1000
0000
0010
0000
0100
0000
0001
0000
0000
0000
1000
0000
0100
0000
0000
0000
1000
0000
0000
0000
0010
0000
0000
0000
,
0200
0302
2003
3000
0010
0100
0002
0000
,
1003
0001
0010
0100
1000
0010
0000
0100
0001
1000
0000
0001
0010
0100
1000
0010
,
2000
0000
0000
0000
0002
0000
0000
0000
0220
0000
0000
0000
0000
0000
0000
3333
1000
0000
0001
0000
0010
0000
0000
0000
0100
0000
0000
0000
0000
0000
0000
0000
,
1000
0000
0010
0000
0100
0000
0001
0000
1000
0000
0000
0001
0010
0100
0000
0000
,
1000
0000
0010
0000
0100
0000
0001
0100
0010
0000
1000
0000
0200
0000
0000
0300
,
1000
0010
0100
0001
0010
0100
0000
1000
0010
0100
0000
0010
0100
0001
1000
0100
,
2000
0000
0000
0000
0002
0000
0000
0000
0220
0000
0000
0000
0000
0000
0000
3333
1000
0000
0000
0000
0001
0000
0000
0000
0100
0000
0000
0000
0000
0000
0000
0000
,
0001
0000
0010
0000
0100
0000
1000
0010
0000
0100
0001
0000
0010
0000
0100
0000
,
1100
0000
1010
0000
0110
0000
0100
0001
1000
0000
0010
0000
0110
0000
0100
0001
,
0010
0100
1000
0010
0100
0010
0000
0100
0001
1000
0000
0100
1000
0010
0100
0001
,
2000
0000
0000
0000
0000
0000
0000
0000
0020
0000
0000
0000
0000
0000
0000
0000
0202
0000
0000
0000
0000
0000
0000
0000
0000
0000
0000
0000
0000
0000
0000
3333
0100
0000
0000
0000
0001
0000
0000
0000
1000
0000
0000
0000
0100
0000
0000
0000
1000
0000
0000
0000
0010
0000
0000
0000
0000
0000
0000
0000
0000
0000
0000
0000
,
0100
0000
0001
0000
0010
0000
0100
1000
0000
0010
0100
0000
0001
0100
0000
0000
,
0010
0000
1000
0000
0100
0000
0000
1000
0010
0000
0100
0000
0001
0000
1000
0010
,
0100
0001
1000
0001
0010
0100
0000
1000
0100
1000
0000
0010
0100
0001
1000
0010
,
0200
0000
0000
0000
0000
0000
0000
0000
0020
0000
0000
0000
0000
0000
0000
0000
2002
0000
0000
0000
0000
0000
0000
0000
0000
0000
0000
3333
1000
0000
0000
0000
0001
0000
0000
0000
0000
0000
0000
0000
0010
0000
0000
0000
0000
0000
0000
0000
0100
0000
0000
0000
0000
0000
0000
0000
1000
0000
0000
0000
0000
0000
0000
0000
,
0010
0100
0001
0000
1000
0000
0100
0010
0000
0010
0001
0000
0100
0000
0010
0000
,
1000
0000
0010
0000
0100
0000
0000
0001
1000
0000
0010
0000
0200
0000
0000
0000
,
0301
1000
0100
1000
0010
0100
0000
0001
0010
0100
0000
1000
0010
0100
0001
0010
,
0200
0000
0000
0000
0000
0000
0000
0000
0020
0000
0000
0000
0000
0000
0000
0000
2002
0000
0000
0000
0000
0000
0000
0000
0000
0000
0000
3333
0100
0000
0000
0000
1000
0000
0000
0000
0000
0000
0000
0000
0010
0000
0000
0000
0000
0000
0000
0000
0100
0000
0000
0000
0000
0000
0000
0000
0001
0000
0000
0000
0000
0000
0000
0000
,
1000
0001
0010
0000
0100
0000
1000
0010
0000
0100
0001
1000
0010
0000
1000
0000
,
0020
0000
0230
0000
0302
0000
0003
1000
0010
0000
0100
0000
0020
0000
0000
0000
,
1030
0001
0010
0100
1000
0100
0000
1000
0010
0100
0000
0001
0100
0010
1000
0100
,
2000
0002
0220
0000
0000
0000
0000
3333
,
0000
0000
0000
0000
1000
0000
0000
0000
0100
0000
0000
0000
0010
0000
0000
0000
0000
0000
0000
0000
0000
0000
0000
0000
0100
0000
0000
1000
0000
0000
0010
0000
0000
0000
0000
0000
0000
0000
0000
0000
0000
0000
0000
0000
0000
0000
0000
0000
,
0000
0000
0000
0100
0000
0000
0000
0000
0000
0001
0000
0000
0100
0000
0000
0000
0000
0000
0010
0000
0000
0000
0000
0000
1000
0000
0010
0000
0100
0000
0001
0000
0010
0000
0100
0000
1000
0000
0010
0000
0100
0000
0001
0000
1000
0000
0001
0000
,
2000
0000
0000
0000
0000
0000
0000
3000
0000
0000
0000
0000
0000
0000
0000
0000
;
