#TITLE:Gaussian Blur;
#SUBTITLE:;
#ARTIST:Kil;
#TITLETRANSLIT:;
#SUBTITLETRANSLIT:;
#ARTISTTRANSLIT:;
#CREDIT:;
#BANNER:GaussianBlur.bmp;
#BACKGROUND:GaussianBlur-bg.bmp;
#LYRICSPATH:;
#CDTITLE:;
#MUSIC:gaussianblurfinal.mp3;
#OFFSET:-0.500;
#SAMPLESTART:76.230;
#SAMPLELENGTH:12.000;
#SELECTABLE:YES;
#BPMS:0.000=200.000;
#STOPS:;
#BGCHANGES:;
// cache tags:
#FIRSTBEAT:0.000;
#LASTBEAT:325.000;
#SONGFILENAME:Songs/toune/Gaussian Blur/gaussian.sm;
#HASMUSIC:1;
#HASBANNER:1;
#MUSICLENGTH:102.556;
// end cache tags

//---------------dance-single - ----------------
#NOTES:
     dance-single:
     :
     Hard:
     13:
     1.000,1.000,0.419,0.205,1.000,972.000,43.000,21.000,0.000,3.000:  // measure 1
0100
0010
0001
1000
0100
0010
0001
0010
1000
0100
0010
0001
1000
0100
0010
0001
,  // measure 2
0100
0010
0001
1000
0100
0010
0001
1000
0001
0010
0100
1000
0001
0010
0100
1000
,  // measure 3
0100
0010
0001
1000
0100
0010
0001
0010
1000
0100
0010
0001
1000
0100
0010
0001
,  // measure 4
0100
0010
0001
1000
0100
0010
0001
1000
0001
0010
0100
1000
0001
0010
0100
1000
,  // measure 5
0100
0010
0001
1000
0100
0010
0001
0010
1000
0100
0010
0001
1000
0100
0010
0001
,  // measure 6
0100
0010
0001
1000
0100
0010
0001
1000
0001
0010
0100
1000
0001
0010
0100
1000
,  // measure 7
0100
0010
0001
1000
0100
0010
0001
1000
0100
0010
0100
0010
0100
0010
0100
0001
,  // measure 8
1000
0000
0000
0100
1000
0000
0000
0000
,  // measure 9
0100
0010
0001
1000
0100
0010
0001
0010
1000
0100
0010
0001
1000
0100
0010
0001
,  // measure 10
0100
0010
0001
1000
0100
0010
0001
1000
0001
0010
0100
1000
0001
0010
0100
1000
,  // measure 11
0100
0010
0001
1000
0100
0010
0001
0010
1000
0100
0010
0001
1000
0100
0010
0001
,  // measure 12
0100
0010
0001
1000
0100
0010
0001
1000
0001
0010
0100
1000
0001
0010
0100
1000
,  // measure 13
0100
0010
0001
1000
0100
0010
0001
0010
1000
0100
0010
0001
1000
0100
0010
0001
,  // measure 14
0100
0010
0001
1000
0100
0010
0001
1000
0001
0010
0100
1000
0001
0010
0100
1000
,  // measure 15
0100
0010
0001
1000
0100
0010
0001
1000
0100
0010
0100
0010
0100
0010
0100
0001
,  // measure 16
1000
0000
0000
0100
1000
0000
0000
0000
,  // measure 17
0000
0100
0000
0000
0000
1000
0000
0000
0000
0100
0000
0000
0000
1000
0000
0000
0000
0100
0000
0000
0000
1000
0000
0000
0000
0100
0000
0000
0000
1000
0000
0000
,  // measure 18
0000
0100
0000
0000
0000
1000
0000
0000
0000
0100
0000
0000
0000
1000
0000
0000
0000
0100
0000
0000
0000
1000
0000
0000
0000
0100
0000
0000
0000
1000
0000
0000
,  // measure 19
0000
0100
0000
0000
0000
1000
0000
0000
0000
0100
0000
0000
0000
1000
0000
0000
0000
0100
0000
0000
0000
1000
0000
0000
0000
0101
0000
0000
0000
1000
0000
0000
,  // measure 20
0000
0100
0000
0000
0000
1000
0000
0000
0000
0100
0000
0000
0000
1000
0000
0000
0000
0100
0000
0000
0000
1000
0000
0000
0000
0100
0000
0000
0000
1000
0000
0000
,  // measure 21
0001
0010
0001
0010
0001
0010
0001
0000
0001
0010
0001
0000
0100
1000
0100
0000
,  // measure 22
0001
0010
0001
0010
0001
0010
0001
0000
0001
0010
0001
0000
0100
1000
0100
0000
,  // measure 23
0001
0010
0001
0010
0001
0010
0001
0000
0001
0010
0001
0000
0100
1000
0100
0000
,  // measure 24
0001
0010
0001
0010
0001
0010
0001
0000
0001
0010
0001
0000
0100
1000
0100
0000
,  // measure 25
0001
0010
0100
0001
0010
0100
0001
0010
0100
0001
0010
0100
0001
0010
0100
0010
,  // measure 26
0001
0010
0100
0001
0010
0100
0001
0010
0100
0001
0010
0100
0001
0010
0100
0010
,  // measure 27
0001
0010
0100
0001
0010
0100
0001
0010
0100
0001
0010
0100
0001
0010
0100
0010
,  // measure 28
0001
0010
0100
0001
0010
0100
0001
0010
0100
0001
0010
0100
0001
0010
0100
0010
,  // measure 29
0001
0010
0100
0001
0010
0100
0001
0010
0100
0001
0010
0100
0001
0010
0100
0010
,  // measure 30
0001
0010
0100
0001
0010
0100
0001
0010
0100
0001
0010
0100
0001
0010
0100
0010
,  // measure 31
0001
0010
0100
0001
0010
0100
0001
0010
0100
0001
0010
0100
0001
0010
0100
0010
,  // measure 32
0001
0010
0100
0001
0010
0100
0001
0010
0100
0001
0010
0100
0001
0010
0100
0010
,  // measure 33
1000
0001
0010
1000
0001
0010
1000
0001
0010
1000
0001
0010
1000
0001
0010
0001
,  // measure 34
1000
0001
0010
1000
0001
0010
1000
0001
0010
1000
0001
0010
1000
0001
0010
0001
,  // measure 35
1000
0001
0010
1000
0001
0010
1000
0001
0010
1000
0001
0010
1000
0001
0010
0001
,  // measure 36
1000
0001
0010
1000
0001
0010
1000
0001
0010
1000
0001
0010
1000
0001
0010
0001
,  // measure 37
0110
0000
0000
0000
,  // measure 38
0110
0101
2000
0000
,  // measure 39
3100
0000
0000
1000
0100
0010
0201
0000
0000
0000
0000
0000
,  // measure 40
2310
0000
3102
0000
,  // measure 41
2013
0000
0000
0000
3100
0000
0100
0010
0001
0010
0100
1000
0001
1000
0100
0010
,  // measure 42
0200
0000
0000
0000
0000
0000
0000
0000
0000
0000
0000
0000
0000
0000
0000
0300
,  // measure 43
2020
0000
0000
0000
,  // measure 44
0000
0000
0000
0000
0000
0000
0000
0000
0000
0000
0000
0000
0000
0000
0000
3030
,  // measure 45
2002
0000
0000
0000
,  // measure 46
0000
0000
0000
0000
0000
0000
0000
0000
0000
0000
0000
0000
0000
0000
0000
3003
,  // measure 47
0001
0000
0001
0010
0001
0000
0001
0010
0001
0000
0001
0010
0001
0000
0001
0010
,  // measure 48
0001
0000
0001
0010
0001
0000
0001
0010
0001
0000
0001
0010
0001
0000
0001
0010
,  // measure 49
0001
0000
0001
0010
0001
0000
0001
0010
0001
0000
0001
0010
0001
0000
0001
0010
,  // measure 50
0001
0000
0001
0010
0001
0000
0001
0010
0001
0000
0001
0010
0001
0000
0001
0010
,  // measure 51
0100
0000
0100
1000
0100
0000
0100
1000
0100
0000
0100
1000
0100
0000
0100
1000
,  // measure 52
0100
0000
0100
1000
0100
0000
0100
1000
0200
0000
0000
0300
0020
0000
0000
0030
,  // measure 53
0001
0000
0001
0010
0001
0000
0001
0010
0001
0000
0001
0010
0001
0000
0001
0010
,  // measure 54
0001
0000
0001
0010
0001
0000
0001
0010
0001
0000
0001
0010
0001
0000
0001
0010
,  // measure 55
0100
0000
0100
1000
0100
0000
0100
1000
0100
0000
0100
1000
0100
0000
0100
1000
,  // measure 56
0101
0000
1100
0000
0110
0000
0011
0000
2002
0000
0000
0000
0000
0000
0000
3003
,  // measure 57
0101
0000
1100
0000
0110
0000
0011
0000
2002
0000
0000
0000
0000
0000
0000
3003
,  // measure 58
0101
0000
1100
0000
0110
0000
0011
0000
2002
0000
0000
0000
0000
0000
0000
3003
,  // measure 59
0101
1100
0110
0011
1001
0001
0001
0001
,  // measure 60
1001
0000
0000
0000
0000
0000
0000
0000
0000
1001
0000
0000
0000
0000
0000
0000
0000
1001
0000
0000
0000
0000
0000
0000
0000
1001
0000
0000
0000
0000
0000
0000
,  // measure 61
0000
0000
1001
0000
0000
0000
0000
0000
0000
1001
0000
0000
0000
0000
0000
0000
1001
0000
0000
0000
0000
0000
0000
0000
1001
0000
0000
0000
0000
0000
0000
0000
1001
0000
0000
0000
0000
0000
0000
0000
0011
0000
0000
0000
0000
0000
0000
0000
0110
0000
0000
0000
0000
0000
0000
0000
1100
0000
0000
0000
0000
0000
0000
0000
,  // measure 62
1000
0100
0010
0001
1000
0000
1000
0100
0010
0001
1000
0000
1000
0001
0010
0100
,  // measure 63
1000
0100
0010
0001
1000
0000
1000
0100
0010
0001
1000
0000
1000
0001
0010
0100
,  // measure 64
0010
0001
1000
0100
0010
0000
0010
0001
1000
0100
0010
0000
0010
0001
1000
0100
,  // measure 65
0010
0000
0001
0000
1000
0000
0100
0000
0001
0000
1000
0000
0100
0000
0010
0000
1000
0000
0100
0000
0010
0000
0001
0000
1000
0100
0010
0001
1000
0100
0010
0001
,  // measure 66
1000
0100
0010
0001
1000
0000
1000
0100
0010
0001
1000
0000
0001
0010
0100
0010
,  // measure 67
1000
0100
0010
0001
1000
0000
1000
0100
0010
0001
1000
0000
0001
0010
0100
0010
,  // measure 68
0100
0010
0001
1000
0100
0000
0100
0010
0001
1000
0100
0000
0010
0001
1000
0010
,  // measure 69
0100
0000
0010
0000
0001
0000
1000
0000
0010
0000
0001
0000
1000
0000
0100
0000
0001
0000
1000
0000
0100
0000
0010
0000
0001
1000
0100
0010
0001
1000
0100
0010
,  // measure 70
0001
0010
0100
1000
0001
0010
0100
1000
0001
0010
0100
1000
0001
0010
0100
1000
,  // measure 71
0010
0100
1000
0001
0010
0100
1000
0001
0010
0100
1000
0001
0010
0100
1000
0001
,  // measure 72
0100
1000
0001
0010
0100
1000
0001
0010
0100
1000
0001
0010
0100
1000
0001
0010
,  // measure 73
1000
0001
0010
0100
0001
0010
0100
1000
0001
0010
0100
1000
0001
0010
0100
1000
,  // measure 74
0010
0100
1000
0001
0100
1000
0001
0100
0010
0100
1000
0001
0100
1000
0001
0100
,  // measure 75
0010
0100
1000
0001
0100
1000
0001
0100
0010
0100
1000
0001
0100
1000
0001
0100
,  // measure 76
1000
0001
1000
0001
1000
0001
1000
0001
0020
0000
0000
0030
0000
0000
0100
1000
,  // measure 77
0002
0000
0000
0000
0000
0000
0000
0000
2003
0000
0000
0000
0000
0000
0000
3000
,  // measure 78
0001
0010
0100
1000
0001
0010
0100
1000
0100
1000
0001
0010
0100
1000
0001
0010
,  // measure 79
0001
0010
0100
1000
0001
0010
0100
1000
0100
1000
0001
0010
0100
1000
0001
0010
,  // measure 80
0001
0010
0100
1000
0001
0010
0100
1000
0100
1000
0001
0010
0100
1000
0001
0010
,  // measure 81
0001
0010
0100
1000
0001
0010
0100
1000
0100
1000
0001
0010
0100
1000
0001
0010
,  // measure 82
0001
0010
0100
0000
1001
0000
0000
0000
0000
0000
0000
0000
0000
0000
0000
0000
;
