#TITLE:BREATH;
#SUBTITLE:;
#ARTIST:SPARKER;
#TITLETRANSLIT:;
#SUBTITLETRANSLIT:;
#ARTISTTRANSLIT:;
#CREDIT:;
#BANNER:breath-bn.png;
#BACKGROUND:breath-bg.png;
#LYRICSPATH:;
#CDTITLE:!ExigeTitle.png;
#MUSIC:BREATH.mp3;
#OFFSET:-0.420;
#SAMPLESTART:34.292;
#SAMPLELENGTH:16.800;
#SELECTABLE:YES;
#BPMS:0.000=160.000;
#STOPS:;
#BGCHANGES:;
// cache tags:
#FIRSTBEAT:0.000;
#LASTBEAT:264.000;
#SONGFILENAME:Songs/Fabulously Fresh Flock of Fantastic Files F5/(exige) BREATH/breath.sm;
#HASMUSIC:1;
#HASBANNER:1;
#MUSICLENGTH:106.765;
// end cache tags

//---------------dance-single - ----------------
#NOTES:
     dance-single:
     :
     Hard:
     11:
     1.000,1.000,1.000,0.122,0.848,637.000,201.000,13.000,0.000,0.000:  // measure 1
0001
0001
0001
0001
,  // measure 2
0001
0001
0001
0001
,  // measure 3
0001
0001
0001
0001
,  // measure 4
0001
1000
0001
0000
0001
1000
0001
0000
0001
1000
0001
0000
1001
0000
0000
0000
,  // measure 5
1000
0100
1000
0000
1001
0000
0001
0000
0001
1000
0100
0000
1001
0000
0001
0000
,  // measure 6
0001
0010
0001
0000
1001
0000
0001
0000
0001
1000
0001
0000
1001
0000
0001
0000
,  // measure 7
0001
0010
0100
0000
1001
0000
1010
0000
1001
0000
0101
0000
0011
0000
0101
0000
,  // measure 8
0110
1010
1100
1001
0101
1001
1100
1001
,  // measure 9
0001
1000
0001
0000
1001
0000
0011
0000
0110
0000
1010
0000
1001
0000
1100
0000
,  // measure 10
0101
0011
1010
1100
0110
0011
1001
0101
,  // measure 11
0001
0100
0001
0000
1001
0000
0110
0000
0101
0000
0011
0000
1001
0000
1100
0000
,  // measure 12
0001
1000
0001
1000
0001
1000
0001
1000
0001
1000
0001
1000
0000
0000
0000
0000
,  // measure 13
0010
0001
1000
0000
0101
0000
1000
0000
1000
0100
0010
0000
0101
0000
1000
0000
,  // measure 14
1000
0001
0010
0000
0101
0000
1000
0000
1000
0010
0100
0000
0101
0000
1000
0000
,  // measure 15
1000
0010
1000
0000
0101
0000
0110
0000
0011
0000
1010
0000
1100
0000
1001
0000
,  // measure 16
0101
0110
1010
1100
1001
0110
0101
0011
,  // measure 17
1000
0100
1000
0000
0101
0000
0011
0000
0101
0000
1100
0000
1001
0000
1100
0000
,  // measure 18
0101
0011
1001
0110
0101
1010
0011
1001
,  // measure 19
0010
0100
0010
0100
0010
0100
0010
0100
0010
0100
0010
0100
0010
0100
0010
0100
,  // measure 20
0010
0100
0010
0100
0010
0100
0010
0100
0010
0100
0010
0100
0000
0000
0000
0000
,  // measure 21
0110
1001
0110
1001
,  // measure 22
0100
0010
1001
0000
1000
0001
1001
0000
0010
0100
1001
0000
0001
1000
1001
0000
,  // measure 23
1001
0100
1000
0000
1001
0000
0001
0000
1001
0010
0001
0000
1100
0000
1001
0000
,  // measure 24
0011
0110
1100
1001
0011
1001
1010
1100
,  // measure 25
1001
0001
1001
1000
0110
1010
1001
0011
,  // measure 26
1001
1010
1001
0101
0110
0101
1010
1100
,  // measure 27
0110
0000
0001
0000
1001
0000
1000
0000
0001
1000
0001
0000
1001
0000
0001
0000
,  // measure 28
1000
0001
1000
0000
1001
0000
0010
0000
0010
0100
0010
0000
1001
0000
0001
0000
,  // measure 29
0001
0010
0100
0000
0101
0000
0001
0000
0001
1000
0100
0000
1100
0000
1000
0000
,  // measure 30
1000
0100
0010
0000
1010
0000
1000
0000
1000
0010
1001
0000
1001
0000
0000
0000
,  // measure 31
1000
0100
0010
0001
1000
0100
0010
0001
1000
0010
0100
0001
1000
0010
0100
0001
,  // measure 32
0010
0100
1000
0100
0010
0001
1000
0010
1100
0000
1100
0000
1100
0000
1100
0000
,  // measure 33
0001
0010
0100
1000
0010
0100
0010
1000
0100
0010
0001
0100
0010
1000
0100
1000
,  // measure 34
0001
0100
0010
1000
0001
0010
0100
0010
0001
0100
0010
0001
1100
0001
0010
0100
,  // measure 35
0010
0100
1000
0001
0100
0010
1000
0100
0010
0100
1000
0001
0100
0001
0010
0100
,  // measure 36
1000
0010
0100
0001
0010
0100
1000
0001
0110
0000
0110
0000
0110
0000
0110
0000
,  // measure 37
0100
1000
0001
0010
0001
1000
0010
0100
0001
0010
0100
1000
0001
0010
0100
1000
,  // measure 38
1000
0100
0010
0100
1000
0100
0010
0001
1000
0100
0010
0001
1001
0000
0000
0000
,  // measure 39
0001
0010
0100
0010
0001
0010
0100
1000
0001
0010
0100
1000
1001
0000
0000
0000
,  // measure 40
1000
0010
0100
0001
1000
0010
0100
0001
1000
0010
0100
0001
1001
0000
0000
0000
,  // measure 41
0001
0100
0010
1000
0001
0100
0010
1000
0001
0100
0010
1000
1001
0000
0001
0000
,  // measure 42
1001
0000
0000
0110
,  // measure 43
0110
0001
1000
0000
1001
0000
1000
0000
0110
0001
1000
0000
1001
0000
1000
0000
,  // measure 44
1001
0010
0001
0000
1001
0000
0001
0000
1001
0010
0001
0000
1001
0000
0001
0000
,  // measure 45
1010
0100
0001
0000
1100
0000
0001
0000
1010
0100
0001
0000
1100
0000
0001
0000
,  // measure 46
0101
0010
1000
0000
0011
0000
1000
0000
0101
0010
1000
0000
0011
0000
1000
0000
,  // measure 47
0011
0100
1000
0000
0101
0000
1000
0000
0011
0100
1000
0000
0101
0000
1000
0000
,  // measure 48
1100
0010
0001
0000
1010
0000
0001
0000
1100
0010
0001
0000
1010
0000
0001
0000
,  // measure 49
0110
1000
0001
0000
1010
0000
0001
0000
0101
0010
0100
0000
0110
0000
0100
0000
,  // measure 50
1001
0010
0100
0000
1010
0000
0100
0000
0011
1000
0100
0000
1001
0000
0101
0000
,  // measure 51
1000
0101
1000
0101
1000
0101
1000
0101
,  // measure 52
0010
1100
0010
1100
0010
1100
0010
1100
,  // measure 53
0001
1010
0001
1010
0001
1010
0001
1010
,  // measure 54
0100
1001
0100
1001
0100
1001
0100
1001
,  // measure 55
1001
0010
0001
0010
0100
1000
0010
1000
0010
0100
1000
0100
0010
0100
0010
0100
,  // measure 56
1001
0010
0100
0010
0001
0010
0100
1000
0100
1000
0010
0100
1000
0010
0100
0010
,  // measure 57
1001
0100
1000
0001
1000
0100
0010
0100
1001
0010
0100
0010
1000
0100
0010
0100
,  // measure 58
1001
0010
0100
1000
0101
0010
0100
1000
0101
0010
0100
1000
0101
0010
0100
1000
,  // measure 59
0001
0100
1010
0000
0001
0100
1010
0000
0001
0100
1010
0000
0001
0100
1010
0000
,  // measure 60
1000
0010
0101
0000
1000
0010
0101
0000
1000
0010
0101
0000
1000
0010
0101
0000
,  // measure 61
0002
0000
0000
0003
0020
0000
0000
0030
0200
0000
0000
0300
2000
0000
0000
0000
,  // measure 62
3000
1002
0000
0000
0000
0003
2000
0000
0000
0000
3000
0201
0000
0000
0000
0300
,  // measure 63
0020
0000
0000
0000
0000
0030
2001
0000
0000
0000
0000
0000
0000
0000
0000
0000
,  // measure 64
3000
2002
0000
0000
0000
0000
0000
0000
0000
0000
3003
0000
0000
2002
0000
0000
,  // measure 65
0000
0000
0000
0000
,  // measure 66
0000
0000
0000
0000
,  // measure 67
3003
0000
0000
0000
;
